osu file format v14

[General]
AudioFilename: audio.mp3
AudioLeadIn: 0
PreviewTime: 79532
Countdown: 0
SampleSet: Soft
StackLeniency: 0.7
Mode: 0
LetterboxInBreaks: 0
WidescreenStoryboard: 1

[Editor]
Bookmarks: 16771,27236,43980,60724,69095,79561,96305,113050,129793,146537,154909,159095,167467,175839,184212,189444,194677,211421,228165,244909,261653,270026,281545
DistanceSpacing: 1
BeatDivisor: 4
GridSize: 32
TimelineZoom: 1.5

[Metadata]
Title:Rengoku
TitleUnicode:恋獄
Artist:Sakakibara Yui
ArtistUnicode:榊原ゆい
Creator:Lasse
Version:Insane
Source:カルタグラ~ツキ狂イノ病~
Tags:japanese folk pop cover innocent grey cartagra tsuki kurui no yamai affliction of the soul opening manyo little wing LOVE×CoverSongs visual novel eroge
BeatmapID:3636430
BeatmapSetID:1775866

[Difficulty]
HPDrainRate:6
CircleSize:4
OverallDifficulty:7
ApproachRate:8
SliderMultiplier:1.5
SliderTickRate:1

[Events]
//Background and Video events
0,0,"bg.jpg",0,0
//Break Periods
//Storyboard Layer 0 (Background)
//Storyboard Layer 1 (Fail)
//Storyboard Layer 2 (Pass)
//Storyboard Layer 3 (Foreground)
//Storyboard Layer 4 (Overlay)
//Storyboard Sound Samples

[TimingPoints]
26,348.837209302326,6,2,1,70,1,0
8398,-200,6,2,1,35,0,0
16770,-166.666666666667,6,2,1,40,0,0
25142,-166.666666666667,6,2,1,45,0,0
26188,-166.666666666667,6,2,1,40,0,0
26886,-166.666666666667,6,2,1,35,0,0
27235,-153.846153846154,6,2,1,40,0,0
43979,-133.333333333333,6,2,1,48,0,0
60723,-100,6,2,1,52,0,0
61421,-100,6,2,1,50,0,0
62816,-100,6,2,1,52,0,0
63165,-100,6,2,1,50,0,0
63514,-100,6,2,1,52,0,0
63776,-100,6,2,1,26,0,0
63863,-100,6,2,1,52,0,0
64560,-100,6,2,1,50,0,0
64909,-100,6,2,1,52,0,0
65607,-100,6,2,1,50,0,0
67002,-100,6,2,1,52,0,0
67962,-100,6,2,1,26,0,0
68049,-100,6,2,1,52,0,0
69095,-94.3396226415094,6,2,1,55,0,0
72148,-94.3396226415094,6,2,1,27,0,0
72235,-94.3396226415094,6,2,1,55,0,0
76334,-94.3396226415094,6,2,1,27,0,0
76421,-94.3396226415094,6,2,1,55,0,0
76770,-94.3396226415094,6,2,1,52,0,0
77119,-94.3396226415094,6,2,1,50,0,0
77467,-94.3396226415094,6,2,1,52,0,0
78863,-94.3396226415094,6,2,1,55,0,0
79212,-94.3396226415094,6,2,1,60,0,0
79560,-83.3333333333333,6,2,1,70,0,1
96217,-90.9090909090909,6,2,1,70,0,0
96305,-83.3333333333333,6,2,1,70,0,1
113049,-133.333333333333,6,2,1,60,0,0
113398,-133.333333333333,6,2,1,50,0,0
121421,-117.647058823529,6,2,1,52,0,0
125607,-111.111111111111,6,2,1,54,0,0
127787,-111.111111111111,6,2,1,40,0,0
129095,-153.846153846154,6,2,1,40,0,0
129793,-133.333333333333,6,2,1,48,0,0
146537,-100,6,2,1,52,0,0
147235,-100,6,2,1,50,0,0
148630,-100,6,2,1,52,0,0
148979,-100,6,2,1,50,0,0
149328,-100,6,2,1,52,0,0
149589,-100,6,2,1,26,0,0
149677,-100,6,2,1,52,0,0
150374,-100,6,2,1,50,0,0
150723,-100,6,2,1,52,0,0
151421,-100,6,2,1,50,0,0
152816,-100,6,2,1,52,0,0
153776,-100,6,2,1,26,0,0
153863,-100,6,2,1,52,0,0
154909,-94.3396226415094,6,2,1,55,0,0
157962,-94.3396226415094,6,2,1,27,0,0
158049,-94.3396226415094,6,2,1,55,0,0
159095,-125,6,2,1,50,0,0
159444,-125,6,2,1,45,0,0
167467,-125,6,2,1,48,0,0
175839,-117.647058823529,6,2,1,50,0,0
184212,-111.111111111111,6,2,1,52,0,0
189444,-105.263157894737,6,2,1,52,0,0
191537,-100,6,2,1,52,0,0
192584,-121.951219512195,6,2,1,50,0,0
192758,-121.951219512195,6,2,1,50,0,0
193281,-142.857142857143,6,2,1,50,0,0
193630,-142.857142857143,6,2,1,45,0,0
193979,-100,6,2,1,55,0,0
194328,-100,6,2,1,60,0,0
194677,-83.3333333333333,6,2,1,70,0,1
228078,-83.3333333333333,6,2,1,70,0,0
228165,-76.9230769230769,6,2,1,72,0,1
244822,-76.9230769230769,6,2,1,72,0,0
244909,-76.9230769230769,6,2,1,72,0,1
261653,-133.333333333333,6,2,1,60,0,0
262002,-133.333333333333,6,2,1,48,0,0
268630,431.654676258993,6,2,1,48,1,0
268630,-133.333333333333,6,2,1,48,0,0
269061,594.059405940594,6,2,1,48,1,0
270249,774.193548387097,6,2,1,46,1,0
270249,-66.6666666666667,6,2,1,46,0,0
270442,895.522388059701,6,2,1,46,1,0
270665,681.818181818182,6,2,1,46,1,0
270665,-71.4285714285714,6,2,1,46,0,0
270835,851.063829787234,6,2,1,46,1,0
271047,810.810810810811,6,2,1,46,1,0
271047,-76.9230769230769,6,2,1,46,0,0
271452,779.220779220779,6,2,1,46,1,0
271452,-83.3333333333333,6,2,1,46,0,0
272231,1016.94915254237,6,2,1,46,1,0
272739,857.142857142857,6,2,1,44,1,0
272739,-71.4285714285714,6,2,1,44,0,0
273167,689.655172413793,6,2,1,44,1,0
273167,-76.9230769230769,6,2,1,44,0,0
273339,833.333333333333,6,2,1,44,1,0
273547,789.473684210526,6,2,1,44,1,0
273547,-83.3333333333333,6,2,1,44,0,0
273744,845.070422535211,6,2,1,44,1,0
273955,923.076923076923,6,2,1,44,1,0
273955,-90.9090909090909,6,2,1,44,0,0
274878,1224.48979591837,6,2,1,44,1,0
275490,1100.91743119266,6,2,1,42,1,0
275490,-83.3333333333333,6,2,1,42,0,0
276040,1043.47826086957,6,2,1,42,1,0
276561,1237.11340206186,6,2,1,42,1,0
276561,-90.9090909090909,6,2,1,42,0,0
277179,1411.76470588235,6,2,1,42,1,0
277884,1333.33333333333,6,2,1,40,1,0
277884,-100,6,2,1,40,0,0
278550,1071.42857142857,6,2,1,40,1,0
279085,1052.63157894737,6,2,1,34,1,0
279085,-71.4285714285714,6,2,1,34,0,0
279172,-100,6,2,1,32,0,0
279259,-100,6,2,1,30,0,0
279348,810.810810810811,6,2,1,30,1,0
279348,-90.9090909090909,6,2,1,30,0,0
279550,-90.9090909090909,6,2,1,28,0,0
280158,1142.85714285714,6,2,1,32,1,0
281300,983.606557377049,6,2,1,22,1,0
281545,-100,6,2,1,18,0,0

[Colours]
Combo1 : 250,115,200
Combo2 : 200,180,220
Combo3 : 165,205,170
Combo4 : 150,185,220
Combo5 : 255,175,220
Combo6 : 160,100,200
Combo7 : 100,175,135
Combo8 : 100,130,195

[HitObjects]
161,44,8398,22,0,B|129:29|85:29,1,75,2|0,0:0|0:0,0:0:0:0:
68,142,9270,1,0,0:0:0:0:
68,142,9444,2,0,B|100:157|144:157,1,75,2|0,0:0|0:0,0:0:0:0:
237,215,10316,1,0,0:0:0:0:
237,215,10491,2,0,B|269:200|313:200,2,75,2|0|0,0:0|0:0|0:0,0:0:0:0:
193,275,11537,2,0,B|161:290|117:290,2,75,2|0|0,0:0|0:0|0:0,0:0:0:0:
277,336,12584,6,0,B|310:321|349:321,1,75,2|0,0:0|0:0,0:0:0:0:
460,361,13456,1,0,0:0:0:0:
460,361,13630,2,0,B|465:324|451:278,1,75,2|0,0:0|0:0,0:0:0:0:
484,178,14502,1,0,0:0:0:0:
484,178,14677,2,0,B|466:187|435:189,1,37.5,2|0,0:0|0:0,0:0:0:0:
411,213,15026,2,0,B|393:204|362:202,1,37.5
336,182,15374,2,0,B|318:191|299:191,1,37.5
258,178,15723,2,0,B|245:145|247:95,2,75,2|0|0,0:0|0:0|0:0,0:0:0:0:
325,274,16770,102,0,B|357:279|384:291,2,44.999998626709,2|0|0,0:0|2:0|2:0,0:0:0:0:
194,291,17642,1,0,0:0:0:0:
194,291,17816,2,0,B|177:333|177:382,2,89.9999972534181,2|0|0,3:2|3:0|0:0,0:0:0:0:
241,234,18688,1,0,0:0:0:0:
241,234,18863,2,0,B|258:192|258:143,2,89.9999972534181,2|0|0,0:0|3:0|3:0,0:0:0:0:
122,275,19909,1,10,0:0:0:0:
81,156,20258,1,0,0:0:0:0:
200,115,20607,1,0,3:0:0:0:
319,165,20956,6,0,B|343:165|362:152,1,44.999998626709,2|0,0:0|0:0,0:0:0:0:
399,86,21305,2,0,B|399:62|386:43,1,44.999998626709
273,20,21828,1,0,0:0:0:0:
273,20,22002,2,0,B|229:26|165:2,2,89.9999972534181,2|0|0,3:2|3:0|2:0,0:0:0:0:
386,43,23049,2,0,B|407:34|432:32,1,44.999998626709,2|0,0:0|0:0,0:0:0:0:
464,97,23398,2,0,B|507:119|514:177,1,89.9999972534181,0|0,3:0|3:0,0:0:0:0:
469,267,24095,2,0,B|430:245|378:240,1,89.9999972534181,8|0,0:0|0:0,0:0:0:0:
276,225,24793,1,2,2:2:0:0:
243,328,25142,101,2,0:0:0:0:
243,328,25665,1,2,0:0:0:0:
184,376,25839,2,0,B|157:374|136:358,1,44.999998626709
65,371,26188,2,0,B|55:349|56:311,1,44.999998626709
9,265,26537,2,0,B|23:245|56:228,2,44.999998626709,2|0|0,0:0|0:0|0:0,0:0:0:0:
180,181,27235,102,0,B|221:206|293:201,2,97.4999955368044,2|0|0,0:0|0:0|0:0,0:0:0:0:
84,201,28281,2,0,B|52:243|50:303,1,97.4999955368044,2|0,0:0|0:0,0:0:0:0:
230,367,29328,2,0,B|272:366|330:337,1,97.4999955368044,2|0,0:0|0:0,0:0:0:0:
419,354,30026,2,0,B|418:312|389:254,1,97.4999955368044,0|2,0:0|0:0,0:0:0:0:
494,37,31246,37,0,0:0:0:0:
494,37,31421,2,0,B|454:66|400:55,1,97.4999955368044,2|0,0:0|0:0,0:0:0:0:
312,13,32119,1,0,0:0:0:0:
240,78,32467,2,0,B|194:182|254:274,1,194.999991073609,2|0,0:0|0:0,0:0:0:0:
304,344,33514,1,2,0:0:0:0:
401,335,33863,1,0,0:0:0:0:
441,246,34212,1,0,0:0:0:0:
383,166,34560,2,0,B|383:119|407:72,2,97.4999955368044,2|0|0,0:0|0:0|0:0,0:0:0:0:
299,260,35607,70,0,B|198:304|112:235,1,194.999991073609,2|0,0:0|0:0,0:0:0:0:
61,156,36653,2,0,B|162:112|244:178,1,194.999991073609,2|0,0:0|0:0,0:0:0:0:
299,260,37700,2,0,B|298:308|328:370,2,97.4999955368044,2|0|0,0:0|0:0|0:0,0:0:0:0:
357,182,38746,1,2,0:0:0:0:
169,31,39793,38,0,B|48:10|15:119,1,194.999991073609,2|0,0:0|0:0,0:0:0:0:
1,212,40839,1,2,0:0:0:0:
59,290,41188,1,0,0:0:0:0:
155,304,41537,1,0,0:0:0:0:
232,246,41886,70,0,B|309:177|431:223,1,194.999991073609,2|0,0:0|0:0,0:0:0:0:
499,299,42932,2,0,B|496:334|478:361,1,48.7499977684022,2|0,0:0|0:0,0:0:0:0:
409,352,43281,2,0,B|377:366|344:364,1,48.7499977684022
318,300,43630,2,0,B|289:279|274:250,1,48.7499977684022
266,172,43979,86,0,B|292:124|288:62,2,112.500004291535,2|0|0,0:0|0:0|0:0,0:0:0:0:
146,221,45026,2,0,B|80:211|27:244,1,112.500004291535,2|0,2:3|2:3,0:0:0:0:
2,303,45549,1,0,2:0:0:0:
53,354,45723,2,0,B|82:355|113:342,1,56.2500021457673,0|0,2:3|2:0,0:0:0:0:
168,298,46072,53,2,0:0:0:0:
291,375,46421,1,0,3:0:0:0:
368,252,46770,1,0,3:0:0:0:
245,175,47119,2,0,B|227:123|243:55,2,112.500004291535,10|0|2,0:0|0:0|2:3,0:0:0:0:
368,252,48165,54,0,B|422:230|481:237,2,112.500004291535,2|0|0,0:0|0:0|0:0,0:0:0:0:
242,327,49212,2,0,B|178:335|129:303,1,112.500004291535,2|2,0:0|3:3,0:0:0:0:
71,345,49735,1,0,0:0:0:0:
14,299,49909,1,0,0:0:0:0:
40,230,50084,1,0,0:0:0:0:
113,233,50258,54,0,B|143:184|140:125,1,112.500004291535,2|0,0:0|0:0,0:0:0:0:
104,61,50781,2,0,B|82:46|49:37,2,56.2500021457673,0|2|0,0:0|0:0|0:0,0:0:0:0:
177,64,51305,2,0,B|232:58|280:18,2,112.500004291535,8|0|2,0:0|0:0|2:3,0:0:0:0:
351,123,52351,54,0,B|406:129|452:167,1,112.500004291535,2|0,0:0|0:0,0:0:0:0:
423,235,52874,2,0,B|368:229|321:190,1,112.500004291535,2|0,0:0|0:0,0:0:0:0:
249,205,53398,2,0,B|202:166|147:160,2,112.500004291535,2|0|0,0:0|3:0|3:0,0:0:0:0:
306,339,54444,53,2,0:0:0:0:
447,377,54793,1,0,3:3:0:0:
485,236,55142,1,0,3:3:0:0:
344,198,55491,2,0,B|340:172|341:139,1,56.2500021457673,8|0,0:0|0:0,0:0:0:0:
274,112,55839,2,0,B|274:81|270:55,1,56.2500021457673,2|0,0:3|0:0,0:0:0:0:
203,28,56188,2,0,B|177:42|138:41,1,56.2500021457673
96,92,56537,53,2,0:0:0:0:
96,92,56712,2,0,B|31:96|11:153,1,112.500004291535
71,292,57409,1,0,0:0:0:0:
71,292,57584,2,0,B|102:292|130:273,1,56.2500021457673,2|0,0:0|0:0,0:0:0:0:
178,325,57932,2,0,B|209:325|231:340,1,56.2500021457673,2|0,2:3|0:0,0:0:0:0:
299,368,58281,2,0,B|330:368|352:352,1,56.2500021457673,0|0,0:3|0:0,0:0:0:0:
427,383,58630,54,0,B|433:321|460:264,1,112.500004291535,2|0,0:0|3:0,0:0:0:0:
479,205,59153,1,2,0:0:0:0:
479,205,59328,2,0,B|473:175|457:149,1,56.2500021457673,0|0,3:0|0:0,0:0:0:0:
403,104,59677,2,0,B|340:104|294:64,2,112.500004291535,8|0|0,0:0|0:0|0:0,0:0:0:0:
209,129,60723,38,0,B|178:108|137:104,1,75,4|0,1:1|0:0,0:0:0:0:
83,155,61072,2,0,B|44:158|16:189,1,75,0|0,1:0|0:0,0:0:0:0:
81,233,61421,2,0,B|134:284|232:272,1,150,2|2,0:0|0:3,0:0:0:0:
292,251,61944,1,0,0:0:0:0:
344,196,62119,1,0,0:0:0:0:
361,122,62293,1,0,0:0:0:0:
338,49,62467,1,0,3:0:0:0:
191,15,62816,54,0,B|162:40|105:36,1,75,2|0,1:2|0:0,0:0:0:0:
76,97,63165,2,0,B|35:98|7:131,1,75,0|0,3:0|0:0,0:0:0:0:
71,174,63514,2,0,B|52:261|106:314,2,150,0|8|0,1:0|0:0|0:0,0:0:0:0:
120,36,64560,1,2,0:3:0:0:
266,67,64909,54,0,B|302:81|344:78,1,75,2|0,1:2|0:0,0:0:0:0:
405,115,65258,2,0,B|442:112|478:126,1,75,0|0,1:0|0:0,0:0:0:0:
452,196,65607,2,0,B|497:232|493:296|443:341,1,150,2|2,0:0|2:3,0:0:0:0:
397,377,66130,1,0,2:0:0:0:
323,372,66305,1,0,2:3:0:0:
274,316,66479,1,0,2:0:0:0:
279,242,66653,2,0,B|292:202|323:174,1,75,0|0,2:3|2:0,0:0:0:0:
386,148,67002,54,0,B|444:163|480:90|434:44,1,150,2|0,1:2|0:0,0:0:0:0:
371,16,67526,1,2,0:0:0:0:
308,57,67700,2,0,B|261:62|225:34,1,75,0|0,1:0|0:0,0:0:0:0:
163,62,68049,2,0,B|138:41|91:46,1,75,8|0,0:0|0:0,0:0:0:0:
27,86,68398,2,0,B|-20:157|26:230,1,150,2|2,0:0|0:3,0:0:0:0:
7,304,68921,1,0,0:0:0:0:
66,356,69095,54,0,B|106:361|148:329,1,79.5000001213074,4|0,1:0|0:0,0:0:0:0:
200,281,69444,2,0,B|204:237|238:180,1,79.5000001213074,0|0,1:0|0:0,0:0:0:0:
285,155,69793,1,2,0:0:0:0:
432,214,70142,2,0,B|460:282|457:373,2,159.000000242615,2|0|0,0:3|3:0|3:0,0:0:0:0:
310,106,71188,54,0,B|224:106|160:50,1,159.000000242615,2|0,1:2|3:0,0:0:0:0:
103,0,71712,1,2,0:0:0:0:
32,37,71886,2,0,B|13:73|11:117,1,79.5000001213074,0|0,1:0|0:0,0:0:0:0:
58,177,72235,2,0,B|144:177|204:124,1,159.000000242615,8|0,0:0|0:0,0:0:0:0:
258,65,72758,1,2,0:0:0:0:
266,170,72932,1,2,0:3:0:0:
353,111,73107,1,0,0:0:0:0:
425,144,73281,54,0,B|450:178|451:233,1,79.5000001213074,2|0,1:2|0:0,0:0:0:0:
432,312,73630,2,0,B|473:312|509:296,1,79.5000001213074,0|0,1:0|0:0,0:0:0:0:
360,248,73979,2,0,B|297:204|205:210,1,159.000000242615,2|0,0:0|3:0,0:0:0:0:
156,360,74677,2,0,B|67:365|4:321,1,159.000000242615,0|2,3:3|0:3,0:0:0:0:
208,209,75374,54,0,B|145:165|56:170,1,159.000000242615,2|0,1:2|3:0,0:0:0:0:
5,109,75898,1,2,0:0:0:0:
50,43,76072,2,0,B|83:26|137:24,1,79.5000001213074,0|0,1:0|0:0,0:0:0:0:
192,69,76421,2,0,B|277:72|350:123,1,159.000000242615,8|2,0:0|0:0,0:0:0:0:
394,176,76944,1,0,0:0:0:0:
404,255,77119,1,2,0:3:0:0:
244,379,77467,53,2,0:0:0:0:
54,176,78863,1,2,0:0:0:0:
39,198,78979,1,0,0:0:0:0:
30,222,79095,1,0,0:0:0:0:
25,248,79212,1,2,0:0:0:0:
25,275,79328,1,0,0:0:0:0:
30,301,79444,1,0,0:0:0:0:
40,326,79560,6,0,B|124:323|238:350,1,179.999994506836,4|0,1:1|0:0,0:0:0:0:
300,383,80084,1,2,0:0:0:0:
384,353,80258,2,0,B|395:315|395:263,1,89.9999972534181,0|0,0:0|3:0,0:0:0:0:
360,180,80607,2,0,B|325:141|307:105,1,89.9999972534181,8|0,2:0|3:0,0:0:0:0:
262,28,80956,1,0,1:0:0:0:
238,160,81130,1,2,0:0:0:0:
106,136,81305,1,2,3:3:0:0:
130,4,81479,1,2,0:0:0:0:
43,24,81653,86,0,B|-9:105|8:201,1,179.999994506836,2|8,1:2|3:3,0:0:0:0:
81,243,82177,1,2,3:2:0:0:
121,163,82351,2,0,B|158:143|215:144,1,89.9999972534181,4|0,2:3|3:0,0:0:0:0:
296,164,82700,1,8,0:0:0:0:
363,104,82874,1,2,0:0:0:0:
363,104,82962,1,2,0:0:0:0:
363,104,83049,2,0,B|389:137|396:196,1,89.9999972534181,2|2,0:3|0:0,0:0:0:0:
466,301,83398,1,8,3:0:0:0:
348,367,83572,1,0,0:0:0:0:
286,304,83746,22,0,B|203:259|107:289,1,179.999994506836,2|2,1:2|0:0,0:0:0:0:
25,317,84270,1,2,2:3:0:0:
4,230,84444,2,0,B|16:182|54:128,1,89.9999972534181,2|0,0:0|3:0,0:0:0:0:
106,86,84793,2,0,B|62:61|9:52,1,89.9999972534181,8|0,0:0|2:0,0:0:0:0:
22,54,85055,1,0,3:0:0:0:
22,54,85142,1,2,3:3:0:0:
40,149,85316,1,2,0:0:0:0:
116,197,85491,2,0,B|163:199|204:181,1,89.9999972534181,2|0,0:0|0:0,0:0:0:0:
284,141,85839,85,2,1:2:0:0:
512,339,86188,1,8,3:3:0:0:
432,381,86363,1,2,0:3:0:0:
346,353,86537,1,4,3:3:0:0:
321,266,86712,1,2,0:2:0:0:
356,183,86886,2,0,B|364:89|308:9,1,179.999994506836,8|0,1:2|0:0,0:0:0:0:
175,3,87409,1,8,0:0:0:0:
166,138,87584,2,0,B|126:166|81:165,1,89.9999972534181,8|2,0:0|0:3,0:0:0:0:
270,223,87932,22,0,B|355:187|447:190,1,179.999994506836,4|2,1:2|0:3,0:0:0:0:
508,255,88456,1,0,0:0:0:0:
474,338,88630,2,0,B|389:374|296:370,2,179.999994506836,2|8|2,0:0|1:2|0:3,0:0:0:0:
508,255,89502,1,2,0:0:0:0:
422,150,89677,1,0,3:3:0:0:
364,271,89851,1,0,0:0:0:0:
283,229,90026,86,0,B|269:188|275:134,1,89.9999972534181,2|0,1:2|0:0,0:0:0:0:
238,58,90374,1,8,3:3:0:0:
157,166,90549,1,2,0:3:0:0:
92,47,90723,2,0,B|55:20|-9:25,1,89.9999972534181,4|0,3:3|3:0,0:0:0:0:
25,112,91072,2,0,B|-2:218|78:296,1,179.999994506836,8|0,1:2|0:0,0:0:0:0:
135,340,91595,1,2,0:3:0:0:
196,274,91770,1,0,1:0:0:0:
404,377,92119,22,0,B|399:329|376:278,1,89.9999972534181,2|0,1:2|0:0,0:0:0:0:
412,205,92467,2,0,B|431:166|476:125,1,89.9999972534181,0|0,3:0|0:0,0:0:0:0:
435,48,92816,1,2,0:0:0:0:
354,88,92991,1,0,3:0:0:0:
354,88,93078,1,0,3:0:0:0:
354,88,93165,2,0,B|305:84|262:59,1,89.9999972534181,8|2,1:2|0:3,0:0:0:0:
178,69,93514,2,0,B|141:47|92:43,2,89.9999972534181,2|0|2,3:2|0:0|0:3,0:0:0:0:
227,144,94037,1,0,0:0:0:0:
138,160,94212,86,0,B|76:229|92:328,1,179.999994506836,2|2,1:2|1:2,0:0:0:0:
217,377,94735,1,8,0:0:0:0:
238,244,94909,2,0,B|274:222|337:217,1,89.9999972534181,0|2,1:0|0:0,0:0:0:0:
458,202,95258,2,0,B|474:112|430:25,1,179.999994506836,8|0,0:0|0:0,0:0:0:0:
297,8,95781,1,8,0:0:0:0:
266,139,95956,1,8,0:0:0:0:
179,162,96130,1,2,0:3:0:0:
201,75,96305,22,0,B|110:39|21:86,1,179.999994506836,4|0,1:1|0:0,0:0:0:0:
4,171,96828,1,2,0:0:0:0:
74,226,97002,2,0,B|102:263|113:310,1,89.9999972534181,0|0,0:0|3:0,0:0:0:0:
177,369,97351,2,0,B|222:369|264:341,1,89.9999972534181,8|0,2:0|3:0,0:0:0:0:
348,369,97700,1,0,1:0:0:0:
273,256,97874,1,2,0:0:0:0:
357,149,98049,1,2,3:3:0:0:
484,195,98223,1,2,0:2:0:0:
444,278,98398,86,0,B|342:310|273:256,1,179.999994506836,2|8,1:2|3:3,0:0:0:0:
193,299,98921,1,2,3:2:0:0:
119,247,99095,2,0,B|119:201|153:161,1,89.9999972534181,4|0,2:3|3:0,0:0:0:0:
232,127,99444,1,8,0:0:0:0:
200,43,99619,1,2,0:0:0:0:
200,43,99706,1,2,0:0:0:0:
200,43,99793,2,0,B|157:25|103:18,1,89.9999972534181,2|2,0:3|0:0,0:0:0:0:
23,14,100142,1,8,3:3:0:0:
1,146,100316,1,0,2:0:0:0:
131,177,100491,22,0,B|221:195|302:142,1,179.999994506836,2|2,1:2|0:0,0:0:0:0:
371,82,101014,1,2,2:3:0:0:
460,88,101188,2,0,B|490:127|496:169,1,89.9999972534181,2|0,0:0|3:0,0:0:0:0:
484,258,101537,2,0,B|464:296|423:324,1,89.9999972534181,8|0,0:0|2:0,0:0:0:0:
424,323,101799,1,0,3:0:0:0:
424,323,101886,1,2,3:3:0:0:
347,276,102060,1,2,0:0:0:0:
402,204,102235,2,0,B|390:158|357:118,1,89.9999972534181,2|0,0:0|0:0,0:0:0:0:
291,67,102584,85,2,1:2:0:0:
20,129,102932,1,8,3:0:0:0:
92,74,103107,1,2,0:3:0:0:
175,108,103281,1,4,3:3:0:0:
187,196,103456,1,2,0:0:0:0:
269,229,103630,2,0,B|358:256|440:188,1,179.999994506836,8|0,1:2|0:0,0:0:0:0:
503,308,104153,1,8,0:0:0:0:
380,365,104328,2,0,B|329:372|287:348,1,89.9999972534181,8|2,0:0|0:3,0:0:0:0:
230,223,104677,22,0,B|133:207|54:256,1,179.999994506836,4|2,1:2|0:3,0:0:0:0:
1,182,105200,1,0,0:0:0:0:
42,102,105374,2,0,B|118:54|215:70,2,179.999994506836,2|8|2,0:0|1:2|0:3,0:0:0:0:
1,182,106246,1,2,0:0:0:0:
133,208,106421,1,0,3:3:0:0:
42,307,106595,1,0,0:0:0:0:
114,360,106770,86,0,B|160:360|203:335,1,89.9999972534181,2|0,1:2|0:0,0:0:0:0:
285,308,107119,1,8,3:3:0:0:
354,365,107293,1,2,0:3:0:0:
433,325,107467,2,0,B|435:279|415:234,1,89.9999972534181,4|0,3:3|3:0,0:0:0:0:
341,186,107816,2,0,B|247:200|169:142,1,179.999994506836,8|0,1:2|0:0,0:0:0:0:
102,84,108339,1,2,0:3:0:0:
160,14,108514,1,0,1:0:0:0:
371,114,108863,22,0,B|367:158|348:200,1,89.9999972534181,2|0,1:2|0:0,0:0:0:0:
284,263,109212,2,0,B|238:270|198:290,1,89.9999972534181,0|0,3:0|0:0,0:0:0:0:
143,361,109560,1,2,0:0:0:0:
65,337,109735,1,0,3:0:0:0:
65,337,109822,1,0,3:0:0:0:
65,337,109909,2,0,B|48:295|56:248,1,89.9999972534181,8|2,1:2|0:3,0:0:0:0:
103,171,110258,1,2,3:2:0:0:
189,194,110432,1,0,0:0:0:0:
252,129,110607,2,0,B|251:78|230:42,1,89.9999972534181,2|0,0:3|0:0,0:0:0:0:
326,181,110956,86,0,B|418:213|498:136,1,179.999994506836,2|2,1:2|1:2,0:0:0:0:
444,14,111479,1,8,0:0:0:0:
317,58,111653,2,0,B|267:61|228:42,1,89.9999972534181,0|2,1:0|0:3,0:0:0:0:
229,42,111915,1,2,0:3:0:0:
229,42,112002,1,8,0:0:0:0:
165,105,112177,1,2,0:0:0:0:
233,221,112351,1,0,0:0:0:0:
363,184,112526,1,8,0:0:0:0:
441,227,112700,2,0,B|457:270|453:318,1,89.9999972534181,8|2,0:0|0:3,0:0:0:0:
390,375,113049,54,0,B|339:354|275:355,2,112.500004291535,4|0|0,0:0|0:0|0:0,0:0:0:0:
491,327,114095,1,2,0:0:0:0:
399,261,114444,1,0,0:0:0:0:
500,211,114793,1,0,0:0:0:0:
409,143,115142,38,0,B|348:152|293:112,1,112.500004291535,2|0,0:0|0:0,0:0:0:0:
204,62,115839,1,0,0:0:0:0:
301,5,116188,1,2,0:0:0:0:
301,118,116537,2,0,B|286:174|230:208,1,112.500004291535
123,264,117235,70,0,B|72:238|13:240,2,112.500004291535,2|0|0,0:0|0:0|0:0,0:0:0:0:
227,306,118281,1,2,0:0:0:0:
138,375,118630,1,0,0:0:0:0:
123,264,118979,1,0,0:0:0:0:
211,195,119328,38,0,B|249:144|246:74,1,112.500004291535,2|0,0:0|0:0,0:0:0:0:
163,9,120026,1,0,0:0:0:0:
130,74,120200,1,0,0:0:0:0:
59,94,120374,2,0,B|29:89|7:72,1,56.2500021457673,2|0,0:0|0:0,0:0:0:0:
90,160,120723,2,0,B|120:162|144:149,1,56.2500021457673
54,223,121072,2,0,B|24:221|-5:235,1,56.2500021457673
113,287,121421,70,0,B|167:334|254:321,2,127.50000243187,2|0|0,0:0|0:0|0:0,0:0:0:0:
118,162,122467,2,0,B|64:115|-23:128,2,127.50000243187,2|0|0,0:0|0:0|0:0,0:0:0:0:
279,114,123514,38,0,B|342:118|398:73,2,127.50000243187,2|0|0,0:0|0:0|0:0,0:0:0:0:
164,202,124560,1,2,0:0:0:0:
96,166,124735,1,0,0:0:0:0:
40,219,124909,1,0,0:0:0:0:
73,288,125084,1,0,0:0:0:0:
150,278,125258,1,0,0:0:0:0:
285,224,125607,70,0,B|250:280|249:352,2,134.999995880127,2|0|0,0:0|0:0|0:0,0:0:0:0:
405,162,126653,2,0,B|443:166|479:142,1,67.4999979400635,2|0,0:0|0:0,0:0:0:0:
425,87,127002,2,0,B|440:52|428:10,1,67.4999979400635
359,44,127351,2,0,B|330:18|287:16,1,67.4999979400635
296,103,127700,38,0,B|147:88|135:339|368:308|358:182,1,404.999987640381,2|0,0:0|0:0,0:0:0:0:
279,186,129095,2,0,B|234:158|185:150,1,97.4999955368044,2|0,0:0|0:0,0:0:0:0:
55,128,129793,38,0,B|43:77|77:19,2,112.500004291535,2|0|0,0:0|0:0|0:0,0:0:0:0:
101,184,130665,1,0,0:0:0:0:
157,137,130839,2,0,B|208:101|277:118,2,112.500004291535,2|0|0,2:3|2:3|2:3,0:0:0:0:
58,252,131886,53,2,0:0:0:0:
136,381,132235,1,0,3:0:0:0:
282,346,132584,1,0,3:0:0:0:
293,196,132932,2,0,B|274:142|281:76,2,112.500004291535,10|0|2,0:0|0:0|2:3,0:0:0:0:
401,293,133979,54,0,B|465:292|519:323,2,112.500004291535,2|0|0,0:0|0:0|0:0,0:0:0:0:
273,365,135026,2,0,B|209:366|155:335,1,112.500004291535,2|2,0:0|3:3,0:0:0:0:
101,377,135549,1,0,0:0:0:0:
38,341,135723,1,0,0:0:0:0:
37,268,135898,1,0,0:0:0:0:
99,230,136072,54,0,B|129:181|124:112,1,112.500004291535,2|0,0:0|0:0,0:0:0:0:
92,56,136595,2,0,B|72:39|60:6,2,56.2500021457673,0|2|0,0:0|0:0|0:0,0:0:0:0:
165,60,137119,2,0,B|222:34|288:39,2,112.500004291535,8|0|2,0:0|0:0|2:3,0:0:0:0:
300,123,138165,54,0,B|358:134|396:179,1,112.500004291535,2|0,0:0|0:0,0:0:0:0:
402,251,138688,2,0,B|363:295|305:306,1,112.500004291535,2|0,0:0|0:0,0:0:0:0:
240,275,139212,2,0,B|220:219|240:163,2,112.500004291535,2|0|0,0:0|3:0|3:0,0:0:0:0:
346,375,140258,53,2,0:0:0:0:
472,301,140607,1,0,3:3:0:0:
346,375,140956,1,0,3:3:0:0:
240,275,141305,2,0,B|212:261|172:260,1,56.2500021457673,8|0,0:0|0:0,0:0:0:0:
135,313,141653,2,0,B|111:338|69:340,1,56.2500021457673,2|0,0:3|0:0,0:0:0:0:
17,311,142002,2,0,B|0:287|4:240,1,56.2500021457673
42,195,142351,53,2,0:0:0:0:
42,195,142526,2,0,B|79:155|86:85,1,112.500004291535
206,2,143223,1,0,0:0:0:0:
206,2,143398,2,0,B|191:22|186:56,1,56.2500021457673,2|0,0:0|0:0,0:0:0:0:
242,100,143746,2,0,B|269:92|297:91,1,56.2500021457673,2|0,2:3|0:0,0:0:0:0:
362,125,144095,2,0,B|392:127|420:145,1,56.2500021457673,0|0,0:3|0:0,0:0:0:0:
425,214,144444,54,0,B|456:264|450:331,1,112.500004291535,2|0,0:0|3:0,0:0:0:0:
383,351,144967,1,2,0:0:0:0:
365,279,145142,2,0,B|332:261|290:254,1,56.2500021457673,0|0,3:0|0:0,0:0:0:0:
250,219,145491,2,0,B|200:259|141:247,2,112.500004291535,8|0|2,0:0|0:3|0:2,0:0:0:0:
362,99,146537,38,0,B|337:73|325:34,1,75,4|0,1:1|0:0,0:0:0:0:
252,15,146886,2,0,B|222:44|185:49,1,75,0|0,1:0|0:0,0:0:0:0:
147,113,147235,2,0,B|59:93|14:163,1,150,2|2,0:0|0:3,0:0:0:0:
20,235,147758,1,0,0:0:0:0:
85,272,147932,1,0,0:0:0:0:
155,247,148107,1,0,0:0:0:0:
189,180,148281,1,0,3:0:0:0:
236,322,148630,54,0,B|267:350|314:354,1,75,2|0,1:2|0:0,0:0:0:0:
376,367,148979,2,0,B|412:364|443:336,1,75,0|0,3:0|0:0,0:0:0:0:
496,283,149328,2,0,B|510:195|478:132,2,150,0|8|0,1:0|0:0|0:0,0:0:0:0:
376,367,150374,1,2,0:3:0:0:
289,244,150723,54,0,B|263:211|218:199,1,75,2|0,1:2|0:0,0:0:0:0:
163,239,151072,2,0,B|121:239|91:262,1,75,0|0,1:0|0:0,0:0:0:0:
22,232,151421,2,0,B|-19:197|-19:138|31:99,2,150,2|2|0,0:0|2:3|2:3,0:0:0:0:
35,306,152293,1,0,2:0:0:0:
91,355,152467,2,0,B|126:357|165:335,1,75,0|0,2:3|0:0,0:0:0:0:
227,297,152816,54,0,B|224:214|286:152,1,150,2|0,1:2|0:0,0:0:0:0:
347,129,153339,1,2,0:0:0:0:
330,56,153514,2,0,B|300:26|257:23,1,75,0|0,1:0|0:0,0:0:0:0:
193,51,153863,2,0,B|151:42|119:59,1,75,8|0,0:0|0:0,0:0:0:0:
76,121,154212,2,0,B|-3:166|15:256,1,150,2|2,0:0|0:3,0:0:0:0:
32,318,154735,1,0,0:0:0:0:
98,361,154909,54,0,B|144:362|180:334,1,79.5000001213074,4|0,1:0|0:0,0:0:0:0:
249,360,155258,2,0,B|278:337|324:338,1,79.5000001213074,0|0,1:0|0:0,0:0:0:0:
398,366,155607,1,2,0:0:0:0:
489,236,155956,2,0,B|499:150|463:80,2,159.000000242615,2|0|0,0:3|3:0|3:0,0:0:0:0:
398,366,157002,54,0,B|336:323|246:321,1,159.000000242615,2|0,1:2|3:0,0:0:0:0:
175,286,157526,1,2,0:0:0:0:
116,339,157700,2,0,B|74:342|37:316,1,79.5000001213074,0|0,1:0|0:0,0:0:0:0:
2,248,158049,2,0,B|17:160|91:114,2,159.000000242615,8|0|2,0:0|0:0|0:3,0:0:0:0:
40,318,158921,1,0,0:0:0:0:
106,362,159095,22,0,B|195:377|282:315,1,180,6|0,1:2|0:0,0:0:0:0:
394,183,160142,2,0,B|370:94|402:-3,2,180
394,183,161886,70,0,B|463:160|526:215|499:296,2,180,2|0|0,0:0|0:0|0:0,0:0:0:0:
292,118,163281,1,2,0:0:0:0:
292,118,163456,2,0,B|236:126|176:90,1,120,0|2,0:0|0:0,0:0:0:0:
38,205,164328,2,0,B|-14:263|14:341|85:352,1,180,2|0,0:0|0:0,0:0:0:0:
241,280,165374,37,2,0:0:0:0:
241,280,165549,2,0,B|243:180|207:95,1,180
363,9,166595,2,0,B|361:109|397:194,1,180,2|0,0:0|0:0,0:0:0:0:
457,317,167467,22,0,B|486:323|518:345,2,60,2|0|0,0:0|0:0|2:0,0:0:0:0:
386,333,167991,2,0,B|340:382|271:360,1,120,2|0,0:0|0:0,0:0:0:0:
204,369,168514,2,0,B|198:336|174:307,1,60,2|0,0:0|0:0,0:0:0:0:
131,261,168863,1,0,0:0:0:0:
82,208,169037,2,0,B|88:135|131:87,1,120,2|0,0:0|0:0,0:0:0:0:
188,43,169560,54,0,B|167:26|135:17,1,60,2|0,0:0|0:0,0:0:0:0:
199,123,169909,2,0,B|231:114|252:97,1,60,0|0,3:0|0:0,0:0:0:0:
324,94,170258,2,0,B|345:77|377:68,1,60,0|0,3:0|0:0,0:0:0:0:
444,105,170607,1,8,0:0:0:0:
444,105,170781,2,0,B|501:137|495:227,1,120,2|0,0:0|0:0,0:0:0:0:
496,279,171305,1,0,3:0:0:0:
359,324,171653,54,0,B|347:358|349:392,2,60,2|0|0,0:0|0:0|0:0,0:0:0:0:
392,259,172177,2,0,B|393:193|338:151,1,120,2|0,0:0|0:0,0:0:0:0:
295,99,172700,1,2,0:0:0:0:
227,122,172874,1,0,0:0:0:0:
159,96,173049,1,0,0:0:0:0:
88,111,173223,2,0,B|37:149|38:215,1,120,2|0,0:0|0:0,0:0:0:0:
0,303,173746,54,0,B|26:292|58:290,1,60,2|0,0:0|0:0,0:0:0:0:
111,340,174095,2,0,B|175:362|222:311,1,120,0|0,3:0|3:0,0:0:0:0:
275,179,174793,1,8,0:0:0:0:
275,179,174967,2,0,B|253:116|282:49,1,120,2|0,0:0|0:0,0:0:0:0:
331,13,175491,1,0,3:0:0:0:
465,84,175839,54,0,B|482:153|440:223,1,127.50000243187,2|0,0:0|0:0,0:0:0:0:
401,268,176363,2,0,B|340:235|266:243,1,127.50000243187,2|0,0:0|0:0,0:0:0:0:
231,302,176886,2,0,B|168:295|107:328,1,127.50000243187,2|0,0:0|3:0,0:0:0:0:
44,370,177409,1,2,0:0:0:0:
40,293,177584,1,0,3:0:0:0:
132,170,177932,54,0,B|107:154|72:153,1,63.7500012159348,2|0,0:0|0:0,0:0:0:0:
157,98,178281,2,0,B|189:97|217:80,1,63.7500012159348,0|0,3:0|0:0,0:0:0:0:
290,101,178630,2,0,B|317:85|350:83,1,63.7500012159348,2|0,0:0|0:0,0:0:0:0:
427,109,178979,1,8,0:0:0:0:
427,109,179153,2,0,B|478:155|477:227,1,127.50000243187,2|0,0:0|0:0,0:0:0:0:
430,283,179677,2,0,B|400:266|366:263,1,63.7500012159348,0|0,3:0|0:0,0:0:0:0:
308,307,180026,53,2,0:0:0:0:
308,307,180200,2,0,B|256:358|183:338,1,127.50000243187,0|2,0:0|0:0,0:0:0:0:
63,263,180898,1,2,0:0:0:0:
63,263,181072,2,0,B|47:199|91:135,1,127.50000243187,0|0,3:0|3:0,0:0:0:0:
143,89,181595,1,2,0:0:0:0:
213,119,181770,1,0,3:0:0:0:
263,263,182119,54,0,B|299:284|340:283,1,63.7500012159348,2|0,0:0|0:0,0:0:0:0:
386,324,182467,2,0,B|457:328|490:242,1,127.50000243187,0|0,3:0|3:0,0:0:0:0:
413,125,183165,1,8,0:0:0:0:
413,125,183339,2,0,B|342:121|309:207,1,127.50000243187,2|0,0:0|0:0,0:0:0:0:
263,250,183863,2,0,B|222:250|201:226,1,63.7500012159348,0|0,3:0|0:0,0:0:0:0:
145,181,184212,53,2,0:0:0:0:
145,181,184386,2,0,B|143:140|125:103,1,67.4999979400635
59,91,184735,2,0,B|-5:136|21:219,1,134.999995880127,2|0,0:0|0:0,0:0:0:0:
74,258,185258,2,0,B|131:226|225:239,1,134.999995880127,2|0,0:0|3:0,0:0:0:0:
278,250,185781,1,2,0:0:0:0:
236,310,185956,1,0,3:0:0:0:
374,371,186305,54,0,B|411:372|447:352,1,67.4999979400635,2|0,0:0|0:0,0:0:0:0:
488,301,186653,2,0,B|500:266|492:225,1,67.4999979400635,0|0,3:0|0:0,0:0:0:0:
456,170,187002,2,0,B|426:147|385:142,1,67.4999979400635,0|0,3:0|0:0,0:0:0:0:
321,159,187351,2,0,B|271:219|192:193,2,134.999995880127,8|0|0,0:0|0:0|3:0,0:0:0:0:
388,26,188398,54,0,B|427:29|457:51,2,67.4999979400635,2|0|0,0:0|0:0|0:0,0:0:0:0:
313,26,188921,2,0,B|260:80|185:65,1,134.999995880127,2|0,0:0|0:0,0:0:0:0:
163,140,189444,2,0,B|81:123|37:187,1,142.49999619484,2|0,0:0|3:0,0:0:0:0:
3,252,189967,1,2,0:0:0:0:
28,322,190142,1,0,3:0:0:0:
166,379,190491,54,0,B|171:342|185:305,1,71.2499980974198,2|0,0:0|0:0,0:0:0:0:
241,263,190839,2,0,B|273:243|301:216,1,71.2499980974198,0|0,3:0|0:0,0:0:0:0:
339,157,191188,2,0,B|334:120|320:83,1,71.2499980974198,0|0,3:0|0:0,0:0:0:0:
269,28,191537,2,0,B|192:3|117:41,2,150,8|0|0,0:0|2:0|3:0,0:0:0:0:
379,118,192584,53,2,0:0:0:0:
379,118,192758,2,0,B|331:171|346:259,1,123.000001876831,0|0,3:0|0:0,0:0:0:0:
392,290,193281,2,0,B|448:289|496:323,1,104.999996795654,2|0,0:0|3:0,0:0:0:0:
327,384,193979,1,2,0:0:0:0:
312,362,194095,1,0,0:0:0:0:
303,338,194212,1,0,0:0:0:0:
298,312,194328,1,2,0:0:0:0:
298,285,194444,1,0,0:0:0:0:
303,259,194560,1,0,0:0:0:0:
313,234,194677,6,0,B|366:157|333:62,1,179.999994506836,4|0,1:1|0:0,0:0:0:0:
244,44,195200,1,2,0:0:0:0:
256,132,195374,2,0,B|218:161|167:155,1,89.9999972534181,0|0,0:0|3:0,0:0:0:0:
110,221,195723,2,0,B|63:215|25:244,1,89.9999972534181,8|0,2:0|3:0,0:0:0:0:
2,331,196072,1,0,1:0:0:0:
130,371,196246,1,2,0:0:0:0:
186,248,196421,1,2,3:3:0:0:
314,288,196595,1,2,0:0:0:0:
397,252,196770,86,0,B|444:290|524:241|502:165,1,179.999994506836,2|8,1:2|3:3,0:0:0:0:
451,91,197293,1,2,3:2:0:0:
363,112,197467,2,0,B|313:106|281:72,1,89.9999972534181,4|0,2:3|3:0,0:0:0:0:
217,12,197816,1,8,0:0:0:0:
135,51,197991,1,2,0:0:0:0:
135,51,198078,1,2,0:0:0:0:
135,51,198165,2,0,B|100:87|102:143,1,89.9999972534181,2|2,0:3|0:0,0:0:0:0:
17,238,198514,1,8,3:0:0:0:
93,348,198688,1,0,0:0:0:0:
180,369,198863,22,0,B|261:324|364:349,1,179.999994506836,2|2,1:2|0:0,0:0:0:0:
441,372,199386,1,2,2:3:0:0:
496,301,199560,2,0,B|493:254|459:195,1,89.9999972534181,2|0,0:0|3:0,0:0:0:0:
400,152,199909,2,0,B|437:119|497:118,1,89.9999972534181,8|0,0:0|0:0,0:0:0:0:
481,118,200171,1,0,3:0:0:0:
481,118,200258,1,2,3:3:0:0:
470,215,200432,1,2,0:0:0:0:
389,255,200607,2,0,B|335:252|297:219,1,89.9999972534181,2|0,0:0|0:0,0:0:0:0:
240,162,200956,85,2,1:2:0:0:
0,79,201305,1,8,3:3:0:0:
63,16,201479,1,2,0:3:0:0:
143,57,201653,1,4,3:3:0:0:
127,144,201828,1,2,0:0:0:0:
39,158,202002,2,0,B|-31:234|2:342,1,179.999994506836,8|0,1:2|0:0,0:0:0:0:
126,368,202526,1,8,0:0:0:0:
167,239,202700,2,0,B|206:210|270:219,1,89.9999972534181,8|2,0:0|0:3,0:0:0:0:
381,328,203049,22,0,B|430:370|516:337|499:258,1,179.999994506836,4|2,1:2|0:3,0:0:0:0:
471,176,203572,1,0,0:0:0:0:
397,123,203746,2,0,B|319:89|219:91,2,179.999994506836,2|8|2,0:0|1:2|0:3,0:0:0:0:
480,86,204619,1,2,0:0:0:0:
431,211,204793,1,0,3:3:0:0:
310,151,204967,1,0,0:0:0:0:
225,182,205142,86,0,B|200:220|197:280,1,89.9999972534181,2|0,1:2|0:0,0:0:0:0:
203,358,205491,1,8,3:3:0:0:
102,268,205665,1,2,0:3:0:0:
139,138,205839,2,0,B|106:106|58:102,1,89.9999972534181,4|0,3:3|3:0,0:0:0:0:
205,77,206188,2,0,B|292:84|375:32,1,179.999994506836,8|0,1:2|0:0,0:0:0:0:
455,75,206712,1,2,0:3:0:0:
383,129,206886,1,0,1:0:0:0:
509,322,207235,22,0,B|504:271|466:233,1,89.9999972534181,2|0,1:2|0:0,0:0:0:0:
384,257,207584,2,0,B|352:216|300:205,1,89.9999972534181,0|0,3:0|0:0,0:0:0:0:
238,154,207932,1,2,0:0:0:0:
189,232,208107,1,0,3:0:0:0:
189,232,208194,1,0,3:0:0:0:
189,232,208281,2,0,B|152:262|103:257,1,89.9999972534181,8|2,1:2|0:3,0:0:0:0:
41,193,208630,2,0,B|35:147|13:107,2,89.9999972534181,2|0|2,3:2|0:0|0:3,0:0:0:0:
0,273,209153,1,0,0:0:0:0:
59,341,209328,86,0,B|147:364|232:305,1,179.999994506836,2|2,1:2|1:2,0:0:0:0:
345,377,209851,1,8,0:0:0:0:
446,287,210026,2,0,B|445:237|414:195,1,89.9999972534181,0|2,1:0|0:0,0:0:0:0:
501,95,210374,2,0,B|435:18|344:17,1,179.999994506836,8|0,0:0|0:0,0:0:0:0:
211,44,210898,1,8,0:0:0:0:
257,170,211072,1,8,0:0:0:0:
187,226,211246,1,2,0:3:0:0:
125,159,211421,22,0,B|73:112|-17:147|7:237,1,179.999994506836,4|0,1:1|0:0,0:0:0:0:
12,309,211944,1,2,0:0:0:0:
80,367,212119,2,0,B|128:365|167:329,1,89.9999972534181,0|0,0:0|3:0,0:0:0:0:
217,263,212467,2,0,B|224:214|259:178,1,89.9999972534181,8|0,2:0|3:0,0:0:0:0:
329,131,212816,1,0,1:0:0:0:
417,233,212991,1,2,0:0:0:0:
480,114,213165,1,2,3:3:0:0:
392,12,213339,1,2,0:0:0:0:
309,49,213514,86,0,B|211:66|128:20,1,179.999994506836,2|8,1:2|3:3,0:0:0:0:
47,47,214037,1,2,3:2:0:0:
107,114,214212,2,0,B|130:152|133:201,1,89.9999972534181,4|0,2:3|3:0,0:0:0:0:
93,280,214560,1,8,0:0:0:0:
141,367,214735,1,2,0:0:0:0:
141,367,214822,1,2,0:0:0:0:
141,367,214909,2,0,B|183:368|227:343,1,89.9999972534181,2|2,0:3|0:0,0:0:0:0:
311,375,215258,1,8,3:3:0:0:
345,244,215432,1,0,2:0:0:0:
431,268,215607,22,0,B|449:168|384:87,1,179.999994506836,2|2,1:2|0:0,0:0:0:0:
320,42,216130,1,2,2:3:0:0:
282,123,216305,2,0,B|233:131|177:97,1,89.9999972534181,2|0,0:0|3:0,0:0:0:0:
120,158,216653,2,0,B|74:150|32:173,1,89.9999972534181,8|0,0:0|0:0,0:0:0:0:
32,172,216915,1,0,3:0:0:0:
32,172,217002,1,2,3:3:0:0:
0,261,217177,1,2,0:0:0:0:
61,326,217351,2,0,B|107:334|148:310,1,89.9999972534181,2|0,0:0|0:0,0:0:0:0:
188,230,217700,85,2,1:2:0:0:
381,384,218049,1,8,3:0:0:0:
301,342,218223,1,2,0:3:0:0:
274,255,218398,1,4,3:3:0:0:
316,174,218572,1,2,0:0:0:0:
402,146,218746,2,0,B|461:107|441:20|361:19,1,179.999994506836,8|0,1:2|0:0,0:0:0:0:
229,7,219270,1,8,0:0:0:0:
186,134,219444,2,0,B|139:144|100:115,1,89.9999972534181,8|2,0:0|0:3,0:0:0:0:
286,221,219793,22,0,B|361:174|473:203,1,179.999994506836,4|2,1:2|0:3,0:0:0:0:
509,275,220316,1,0,0:0:0:0:
451,344,220491,2,0,B|376:391|264:362,2,179.999994506836,2|8|2,0:0|1:2|0:3,0:0:0:0:
509,275,221363,1,2,0:0:0:0:
404,190,221537,1,0,3:3:0:0:
505,100,221712,1,0,0:0:0:0:
436,41,221886,86,0,B|401:14|347:17,1,89.9999972534181,2|0,1:2|0:0,0:0:0:0:
263,37,222235,1,8,3:3:0:0:
280,127,222409,1,2,0:3:0:0:
224,197,222584,2,0,B|174:199|139:172,1,89.9999972534181,4|0,3:3|3:0,0:0:0:0:
26,228,222932,2,0,B|-9:127|80:71,1,179.999994506836,8|0,1:2|0:0,0:0:0:0:
162,38,223456,1,2,0:3:0:0:
235,88,223630,1,0,1:0:0:0:
422,1,223979,22,0,B|386:38|388:96,1,89.9999972534181,2|0,1:2|0:0,0:0:0:0:
439,156,224328,2,0,B|475:193|473:251,1,89.9999972534181,0|0,3:0|0:0,0:0:0:0:
509,319,224677,1,2,0:0:0:0:
437,369,224851,1,0,3:0:0:0:
437,369,224938,1,0,3:0:0:0:
437,369,225026,2,0,B|383:371|334:332,1,89.9999972534181,8|2,1:2|0:3,0:0:0:0:
269,309,225374,1,2,3:2:0:0:
193,358,225549,1,0,0:0:0:0:
113,316,225723,2,0,B|95:272|104:227,1,89.9999972534181,2|0,0:3|0:0,0:0:0:0:
212,143,226072,86,0,B|139:79|44:109,1,179.999994506836,2|2,1:2|1:2,0:0:0:0:
1,237,226595,1,8,0:0:0:0:
113,316,226770,2,0,B|164:322|202:300,1,89.9999972534181,0|2,1:0|0:3,0:0:0:0:
200,300,227031,1,2,0:3:0:0:
200,300,227119,1,8,0:0:0:0:
259,234,227293,1,2,0:0:0:0:
159,143,227467,1,0,3:0:0:0:
269,64,227642,1,8,0:0:0:0:
331,128,227816,2,0,B|380:133|419:98,1,89.9999972534181,8|2,0:0|0:3,0:0:0:0:
512,6,228165,38,0,B|423:67|456:185,1,194.999991073609,4|0,1:1|0:0,0:0:0:0:
404,262,228688,2,0,B|344:305|254:272|233:195,1,194.999991073609,2|0,0:0|3:0,0:0:0:0:
199,123,229212,1,8,2:0:0:0:
295,134,229386,1,0,3:0:0:0:
253,46,229560,2,0,B|222:7|147:11,1,97.4999955368044,0|0,1:0|0:0,0:0:0:0:
96,82,229909,2,0,B|40:80|8:117,1,97.4999955368044,2|0,3:3|0:0,0:0:0:0:
78,187,230258,70,0,B|15:233|7:315|68:365,1,194.999991073609,2|8,1:2|3:0,0:0:0:0:
154,373,230781,1,0,0:0:0:0:
183,279,230956,2,0,B|222:247|284:257,1,97.4999955368044,8|0,0:3|0:0,0:0:0:0:
351,316,231305,2,0,B|407:358|495:318|497:235,1,194.999991073609,10|0,0:0|0:0,0:0:0:0:
512,150,231828,1,2,0:0:0:0:
380,213,232002,1,8,0:3:0:0:
401,67,232177,1,0,0:0:0:0:
323,126,232351,38,0,B|214:170|134:81,1,194.999991073609,2|0,1:2|0:0,0:0:0:0:
80,17,232874,1,0,0:0:0:0:
10,85,233049,2,0,B|-15:136|4:202,1,97.4999955368044,2|0,0:0|0:0,0:0:0:0:
75,241,233398,2,0,B|131:237|179:187,1,97.4999955368044,8|0,0:0|0:0,0:0:0:0:
231,133,233746,1,2,2:0:0:0:
209,278,233921,1,0,0:2:0:0:
354,300,234095,1,2,0:0:0:0:
376,155,234270,1,0,0:3:0:0:
467,121,234444,70,0,B|481:68|442:15,1,97.4999955368044,2|0,1:2|0:0,0:0:0:0:
360,65,234793,2,0,B|341:13|277:-6,1,97.4999955368044,8|0,3:3|0:0,0:0:0:0:
235,81,235142,2,0,B|187:53|126:72,1,97.4999955368044,4|0,3:3|0:0,0:0:0:0:
114,161,235491,2,0,B|38:148|-9:234|39:296,1,194.999991073609,8|0,1:2|0:0,0:0:0:0:
167,374,236014,1,8,0:0:0:0:
261,261,236188,2,0,B|269:212|248:165,1,97.4999955368044,8|2,0:0|0:3,0:0:0:0:
109,71,236537,38,0,B|185:-3|309:34,1,194.999991073609,4|2,1:2|0:3,0:0:0:0:
383,59,237060,1,0,0:0:0:0:
451,129,237235,2,0,B|510:217|471:324,2,194.999991073609,2|8|2,0:0|1:2|0:3,0:0:0:0:
383,59,238107,1,2,0:0:0:0:
319,190,238281,1,0,3:3:0:0:
181,138,238456,1,0,0:0:0:0:
86,162,238630,70,0,B|52:200|49:266,1,97.4999955368044,2|0,1:2|0:0,0:0:0:0:
90,339,238979,1,8,3:3:0:0:
223,281,239153,1,2,0:3:0:0:
181,138,239328,2,0,B|181:87|225:50,1,97.4999955368044,4|0,3:3|3:0,0:0:0:0:
284,127,239677,2,0,B|355:53|466:93,1,194.999991073609,8|0,1:2|0:0,0:0:0:0:
506,180,240200,1,2,0:3:0:0:
459,265,240374,1,0,1:0:0:0:
269,127,240723,38,0,B|265:77|234:34,1,97.4999955368044,2|0,1:2|0:0,0:0:0:0:
171,110,241072,2,0,B|140:70|90:51,1,97.4999955368044,0|0,3:0|0:0,0:0:0:0:
9,102,241421,1,2,0:0:0:0:
23,206,241595,1,0,3:0:0:0:
23,206,241682,1,0,3:0:0:0:
23,206,241770,2,0,B|53:245|103:264,1,97.4999955368044,8|2,1:2|0:3,0:0:0:0:
196,246,242119,2,0,B|207:198|245:160,2,97.4999955368044,2|0|2,3:2|0:0|0:3,0:0:0:0:
249,328,242642,1,0,0:0:0:0:
336,369,242816,70,0,B|415:387|469:310|442:243,1,194.999991073609,2|2,1:2|1:2,0:0:0:0:
396,113,243339,1,8,0:0:0:0:
258,164,243514,2,0,B|206:166|163:131,1,97.4999955368044,0|2,1:0|0:0,0:0:0:0:
78,17,243863,2,0,B|-16:86|10:205,1,194.999991073609,8|0,0:0|0:0,0:0:0:0:
38,330,244386,1,8,0:0:0:0:
182,310,244560,1,8,0:0:0:0:
251,379,244735,1,2,0:3:0:0:
342,346,244909,38,0,B|379:239|311:154,1,194.999991073609,4|0,1:1|0:0,0:0:0:0:
228,117,245432,1,2,0:0:0:0:
172,197,245607,2,0,B|116:227|40:193,1,97.4999955368044,0|0,0:0|3:0,0:0:0:0:
14,132,245956,2,0,B|23:84|53:34,1,97.4999955368044,8|0,2:0|3:0,0:0:0:0:
139,4,246305,1,0,1:0:0:0:
228,117,246479,1,2,0:0:0:0:
142,235,246653,1,2,3:3:0:0:
231,348,246827,1,2,0:0:0:0:
321,310,247002,70,0,B|369:227|336:118,1,194.999991073609,2|8,1:2|3:3,0:0:0:0:
291,33,247526,1,2,3:2:0:0:
197,58,247700,2,0,B|145:62|95:32,1,97.4999955368044,4|0,2:3|3:0,0:0:0:0:
13,74,248049,1,8,0:0:0:0:
89,149,248223,1,2,0:0:0:0:
89,149,248310,1,2,0:0:0:0:
89,149,248398,2,0,B|106:194|102:250,1,97.4999955368044,2|2,0:3|0:0,0:0:0:0:
64,334,248746,1,8,3:3:0:0:
203,380,248921,1,0,2:0:0:0:
340,331,249095,38,0,B|372:225|313:138,1,194.999991073609,2|2,1:2|0:0,0:0:0:0:
230,97,249619,1,2,2:3:0:0:
307,38,249793,2,0,B|351:12|415:27,1,97.4999955368044,2|0,0:0|3:0,0:0:0:0:
476,87,250142,2,0,B|488:137|462:181,1,97.4999955368044,8|0,0:0|0:0,0:0:0:0:
462,181,250403,1,0,3:0:0:0:
462,181,250491,1,2,3:3:0:0:
380,228,250665,1,2,0:0:0:0:
308,161,250839,2,0,B|275:127|222:120,1,97.4999955368044,2|0,0:0|0:0,0:0:0:0:
148,55,251188,69,2,1:2:0:0:
0,247,251537,1,8,3:0:0:0:
95,226,251712,1,2,0:3:0:0:
153,303,251886,1,4,3:3:0:0:
248,282,252060,1,2,0:0:0:0:
306,359,252235,2,0,B|407:390|494:311,1,194.999991073609,8|2,1:2|0:0,0:0:0:0:
497,170,252758,1,8,0:0:0:0:
394,66,252932,2,0,B|344:59|294:87,1,97.4999955368044,8|2,0:0|0:3,0:0:0:0:
233,248,253281,38,0,B|152:321|51:290,1,194.999991073609,4|2,1:2|0:3,0:0:0:0:
3,205,253805,1,0,0:0:0:0:
20,109,253979,2,0,B|100:35|201:66,2,194.999991073609,2|8|2,0:0|1:2|0:3,0:0:0:0:
3,205,254851,1,2,0:0:0:0:
137,263,255026,1,0,3:3:0:0:
231,151,255200,1,0,0:0:0:0:
302,216,255374,70,0,B|351:237|403:224,1,97.4999955368044,2|0,1:2|0:0,0:0:0:0:
479,172,255723,1,8,3:3:0:0:
479,74,255898,1,2,0:3:0:0:
396,23,256072,2,0,B|349:11|300:32,1,97.4999955368044,4|0,3:3|3:0,0:0:0:0:
206,144,256421,2,0,B|225:248|169:335,1,194.999991073609,8|0,1:2|0:0,0:0:0:0:
85,378,256944,1,2,0:3:0:0:
8,317,257119,1,0,1:0:0:0:
107,127,257467,38,0,B|65:102|13:103,1,97.4999955368044,2|0,1:2|0:0,0:0:0:0:
182,189,257816,2,0,B|233:190|275:165,1,97.4999955368044,0|0,3:0|0:0,0:0:0:0:
347,99,258165,1,2,0:0:0:0:
448,131,258339,1,0,3:0:0:0:
448,131,258427,1,0,3:0:0:0:
448,131,258514,2,0,B|474:170|472:235,1,97.4999955368044,8|2,1:2|0:3,0:0:0:0:
510,313,258863,1,2,3:2:0:0:
431,370,259037,1,0,0:0:0:0:
393,281,259212,2,0,B|351:255|300:258,1,97.4999955368044,2|0,0:3|0:0,0:0:0:0:
133,218,259560,70,0,B|66:257|-17:208|19:120,1,194.999991073609,2|2,1:2|1:2,0:0:0:0:
104,14,260084,1,8,0:0:0:0:
232,82,260258,2,0,B|287:92|331:60,1,97.4999955368044,0|2,1:0|0:3,0:0:0:0:
325,63,260520,1,2,0:3:0:0:
325,63,260607,1,8,0:0:0:0:
295,161,260781,1,2,0:0:0:0:
437,127,260956,1,0,0:0:0:0:
479,266,261130,1,8,0:0:0:0:
417,342,261305,2,0,B|368:347|309:317,1,97.4999955368044,8|2,0:0|0:3,0:0:0:0:
248,252,261653,54,0,B|248:197|220:133,2,112.500004291535,4|0|0,0:0|0:0|0:0,0:0:0:0:
181,342,262700,1,2,0:0:0:0:
81,288,263049,1,0,0:0:0:0:
148,198,263398,1,0,0:0:0:0:
248,252,263747,38,0,B|310:269|361:218,1,112.500004291535,2|0,0:0|0:0,0:0:0:0:
425,140,264444,1,0,0:0:0:0:
357,50,264793,2,0,B|243:10|126:83,1,225.000008583069,2|0,0:0|0:0,0:0:0:0:
70,162,265839,70,0,B|68:221|20:266,2,112.500004291535,2|0|0,0:0|0:0|0:0,0:0:0:0:
22,59,266886,1,2,0:0:0:0:
130,29,267235,1,0,0:0:0:0:
179,132,267584,1,0,0:0:0:0:
270,66,267933,38,0,B|319:32|381:40,1,112.500004291535,2|0,0:0|0:0,0:0:0:0:
405,144,268630,70,0,B|356:178|294:170,1,112.500004291535,0|2,0:0|0:0,0:0:0:0:
206,84,270249,38,0,B|201:54|165:9,1,56.2500021457673,2|0,0:0|0:0,0:0:0:0:
128,87,270665,2,0,B|106:65|58:53,1,52.4999983978272
72,137,271047,2,0,B|41:132|-1:149,1,48.7499977684022
51,215,271452,2,0,B|8:257|21:321,2,89.9999972534181,2|0|0,0:0|0:0|0:0,0:0:0:0:
204,144,272739,70,0,B|221:164|256:172,1,52.4999983978272,2|0,0:0|0:0,0:0:0:0:
278,242,273167,2,0,B|302:232|320:202,1,48.7499977684022
394,207,273547,2,0,B|392:180|370:154,1,44.999998626709
450,133,273955,2,0,B|426:95|384:84,2,82.5000025177003,2|0|0,0:0|0:0|0:0,0:0:0:0:
512,266,275490,38,0,B|461:264|422:302,1,89.9999972534181,2|0,0:0|0:0,0:0:0:0:
325,358,276561,70,0,B|282:359|236:321,1,82.5000025177003
184,227,277884,38,0,B|180:184|144:144,1,75,2|0,0:0|0:0,0:0:0:0:
38,67,279085,70,0,B|28:65|13:56,2,17.4999994659424,2|0|0,0:0|0:0|0:0,0:0:0:0:
63,77,279348,2,0,B|91:63|130:59,2,41.2500012588501,2|0|0,3:2|3:0|3:0,0:0:0:0:
69,94,281300,38,0,B|91:90|105:81,1,37.5,2|2,0:0|0:1,0:0:0:0:
