osu file format v14

[General]
AudioFilename: audio.mp3
AudioLeadIn: 0
PreviewTime: 72759
Countdown: 0
SampleSet: None
StackLeniency: 0.7
Mode: 0
LetterboxInBreaks: 0
WidescreenStoryboard: 0

[Editor]
Bookmarks: 15480,39661
DistanceSpacing: 1.2
BeatDivisor: 4
GridSize: 32
TimelineZoom: 2.2

[Metadata]
Title:ReANSWER
TitleUnicode:ReANSWER
Artist:Sakakibara Yui
ArtistUnicode:榊原ゆい
Creator:Shirasaka Koume
Version:Extra
Source:新・白銀のソレイユ -ReANSWER-
Tags:eroge opening op SkyFish Shin Shirogane no Soleil
BeatmapID:1407346
BeatmapSetID:664935

[Difficulty]
HPDrainRate:5
CircleSize:4
OverallDifficulty:9
ApproachRate:9.5
SliderMultiplier:2
SliderTickRate:1

[Events]
//Background and Video events
0,0,"BG.jpg",0,0
//Break Periods
//Storyboard Layer 0 (Background)
//Storyboard Layer 1 (Fail)
//Storyboard Layer 2 (Pass)
//Storyboard Layer 3 (Foreground)
//Storyboard Sound Samples

[TimingPoints]
13062,302.267002518892,4,2,1,75,1,0
38603,-133.333333333333,4,2,1,55,0,0
44346,-100,4,2,1,75,0,0
51298,-133.333333333333,4,2,1,55,0,0
54019,-100,4,2,1,75,0,0
60971,-200,4,2,1,55,0,0
61424,-100,4,2,1,75,0,0
66260,-133.333333333333,4,2,1,55,0,0
71097,-100,4,2,1,75,0,0
72759,-100,4,2,0,65,0,0
73515,-100,4,2,1,80,0,1
102533,-100,4,2,1,80,0,0
114472,-200,4,2,1,65,0,0
115228,-200,4,2,1,55,0,0
115832,-200,4,2,1,45,0,0
116437,-200,4,2,1,35,0,0
117041,-200,4,2,1,25,0,0
117646,-200,4,2,1,15,0,0
118250,-200,4,2,1,5,0,0

[HitObjects]
101,42,13062,5,8,0:0:0:0:
422,79,13213,1,8,0:0:0:0:
68,140,13515,5,8,0:0:0:0:
449,157,13666,1,8,0:0:0:0:
61,243,13968,5,8,0:0:0:0:
447,239,14119,1,8,0:0:0:0:
80,344,14422,6,0,L|182:331,1,100,8|0,0:0|0:0,0:0:0:0:
369,275,14724,1,8,0:0:0:0:
179,128,14875,1,8,0:0:0:0:
367,363,15026,5,2,0:0:0:0:
421,344,15101,1,2,0:0:0:0:
452,296,15177,1,2,0:0:0:0:
447,239,15252,1,2,0:0:0:0:
407,198,15328,1,2,0:0:0:0:
351,189,15403,1,2,0:0:0:0:
301,218,15480,6,0,P|259:238|194:236,1,100,6|0,0:0|0:0,0:0:0:0:
24,63,15782,2,0,B|89:52|89:52|138:96|138:96|217:84,1,200,8|0,0:0|0:0,0:0:0:0:
416,122,16235,1,2,0:0:0:0:
257,314,16386,1,8,0:0:0:0:
510,254,16538,6,0,L|402:239,1,100,2|0,0:0|0:0,0:0:0:0:
184,368,16840,1,2,0:0:0:0:
316,135,16991,2,0,L|416:122,1,100,8|0,0:0|0:0,0:0:0:0:
362,313,17293,5,2,0:0:0:0:
204,183,17444,1,2,0:0:0:0:
184,368,17596,1,8,0:0:0:0:
327,239,17747,1,0,0:0:0:0:
184,368,17898,6,0,P|81:342|69:249,2,200,2|8|2,0:0|0:0|0:0,0:0:0:0:
340,191,18653,1,2,0:0:0:0:
156,280,18805,1,8,0:0:0:0:
306,102,18956,6,0,P|350:95|399:116,1,100,2|0,0:0|0:0,0:0:0:0:
436,306,19258,1,2,0:0:0:0:
215,145,19409,2,0,L|230:39,1,100,8|0,0:0|0:0,0:0:0:0:
283,271,19711,5,2,0:0:0:0:
439,76,19863,1,2,0:0:0:0:
500,216,20014,1,8,0:0:0:0:
337,28,20165,1,0,0:0:0:0:
420,338,20316,6,0,B|434:268|434:268|409:235|409:235|426:149,2,200,6|8|2,0:0|0:0|0:0,0:0:0:0:
209,233,21072,1,2,0:0:0:0:
322,383,21223,1,8,0:0:0:0:
128,198,21374,6,0,P|158:159|205:146,1,100,2|0,0:0|0:0,0:0:0:0:
345,289,21676,1,2,0:0:0:0:
142,354,21827,2,0,L|43:337,1,100,8|0,0:0|0:0,0:0:0:0:
205,146,22130,2,0,L|304:129,1,100,2|2,0:0|0:0,0:0:0:0:
76,58,22432,1,8,0:0:0:0:
209,233,22583,1,0,0:0:0:0:
294,31,22734,5,8,0:0:0:0:
29,181,22885,2,0,L|128:198,1,100,8|0,0:0|0:0,0:0:0:0:
303,129,23187,5,8,0:0:0:0:
512,256,23338,2,0,L|413:273,1,100,8|0,0:0|0:0,0:0:0:0:
205,146,23641,5,8,0:0:0:0:
0,306,23792,2,0,L|99:323,1,100,8|0,0:0|0:0,0:0:0:0:
365,198,24094,5,8,0:0:0:0:
512,384,24245,1,8,0:0:0:0:
273,282,24397,1,8,0:0:0:0:
273,282,24472,1,8,0:0:0:0:
273,282,24548,1,8,0:0:0:0:
481,125,24699,1,2,0:0:0:0:
328,371,24850,5,2,0:0:0:0:
255,385,24925,1,2,0:0:0:0:
191,349,25001,1,2,0:0:0:0:
166,280,25076,1,2,0:0:0:0:
192,211,25152,6,0,L|295:194,1,100,6|0,0:0|0:0,0:0:0:0:
460,88,25454,2,0,P|421:27|290:33,1,200,8|0,0:0|0:0,0:0:0:0:
92,214,25908,1,2,0:0:0:0:
304,127,26059,1,8,0:0:0:0:
103,15,26210,6,0,L|116:130,1,100,2|0,0:0|0:0,0:0:0:0:
273,282,26512,1,2,0:0:0:0:
401,95,26664,2,0,L|388:210,1,100,8|0,0:0|0:0,0:0:0:0:
155,384,26966,5,2,0:0:0:0:
208,172,27117,1,2,0:0:0:0:
365,324,27268,1,8,0:0:0:0:
133,242,27419,1,0,0:0:0:0:
434,383,27570,6,0,P|454:313|369:235,2,200,2|8|2,0:0|0:0|0:0,0:0:0:0:
273,282,28326,1,2,0:0:0:0:
505,189,28477,1,8,0:0:0:0:
314,72,28628,6,0,L|328:184,1,100,2|0,0:0|0:0,0:0:0:0:
488,304,28931,1,2,0:0:0:0:
230,360,29082,2,0,P|197:329|184:269,1,100,8|0,0:0|0:0,0:0:0:0:
154,81,29384,5,2,0:0:0:0:
34,278,29535,1,2,0:0:0:0:
246,189,29686,1,8,0:0:0:0:
22,136,29837,1,0,0:0:0:0:
256,281,29988,6,0,B|314:278|332:226|332:226|380:261|432:226,2,200,6|8|2,0:0|0:0|0:0,0:0:0:0:
111,200,30744,1,2,0:0:0:0:
230,360,30895,1,8,0:0:0:0:
22,136,31046,6,0,L|124:116,1,100,2|0,0:0|0:0,0:0:0:0:
256,281,31349,1,2,0:0:0:0:
464,57,31500,2,0,L|362:37,1,100,8|0,0:0|0:0,0:0:0:0:
111,200,31802,5,2,0:0:0:0:
329,98,31953,1,2,0:0:0:0:
153,17,32104,1,8,0:0:0:0:
369,166,32255,1,0,0:0:0:0:
78,291,32407,5,8,0:0:0:0:
329,98,32558,2,0,P|387:89|439:129,1,100,8|0,0:0|0:0,0:0:0:0:
197,380,32860,2,0,L|188:276,1,100,8|0,0:0|0:0,0:0:0:0:
242,27,33162,1,2,0:0:0:0:
18,170,33313,5,8,0:0:0:0:
375,306,33465,2,0,L|384:202,1,100,8|0,0:0|0:0,0:0:0:0:
151,59,33767,2,0,L|159:158,1,100,8|0,0:0|0:0,0:0:0:0:
275,364,34069,1,8,0:0:0:0:
502,164,34220,5,8,0:0:0:0:
235,229,34371,1,2,0:0:0:0:
375,60,34522,1,2,0:0:0:0:
451,265,34674,1,2,0:0:0:0:
193,108,34825,6,0,P|139:108|92:154,1,100,12|0,0:0|0:0,0:0:0:0:
9,272,35127,1,2,0:0:0:0:
383,357,35278,6,0,L|372:244,1,100,8|0,0:0|0:0,0:0:0:0:
283,53,35580,1,2,0:0:0:0:
91,332,35732,6,0,L|197:315,1,100,12|0,0:0|0:0,0:0:0:0:
464,143,36034,1,2,0:0:0:0:
284,384,36185,6,0,P|273:330|289:270,1,100,8|0,0:0|0:0,0:0:0:0:
394,49,36487,1,2,0:0:0:0:
501,235,36638,2,0,L|395:220,1,100,8|0,0:0|0:0,0:0:0:0:
109,139,36941,2,0,L|215:124,1,100,8|0,0:0|0:0,0:0:0:0:
507,147,37243,5,12,0:0:0:0:
201,276,37394,1,2,0:0:0:0:
376,7,37545,1,2,0:0:0:0:
412,350,37696,5,8,0:0:0:0:
109,139,37847,1,2,0:0:0:0:
369,220,37999,1,2,0:0:0:0:
71,368,38150,5,8,0:0:0:0:
354,121,38301,1,2,0:0:0:0:
0,0,38452,1,2,0:0:0:0:
224,289,38603,6,0,B|273:294|302:248|302:248|300:289|335:326|335:326|335:289|360:228|449:235|493:301|466:378|402:383,1,450.000017166138,8|0,0:0|0:0,0:0:0:0:
261,377,39661,5,2,0:0:0:0:
108,81,41626,6,0,L|97:165,1,75.0000028610231,2|0,0:0|0:0,0:0:0:0:
16,222,41928,1,2,0:0:0:0:
346,15,44044,6,0,L|357:99,1,75.0000028610231,2|0,0:0|0:0,0:0:0:0:
438,156,44346,2,0,P|394:109|261:146,1,200,6|2,0:0|0:0,0:0:0:0:
184,284,44800,2,0,B|250:276|250:276|289:221|289:221|355:214,1,200,8|2,0:0|0:0,0:0:0:0:
387,367,45253,2,0,L|254:352,1,100,8|0,0:0|0:0,0:0:0:0:
202,197,45555,1,2,0:0:0:0:
97,372,45706,6,0,P|73:326|86:273,1,100,0|2,0:0|0:0,0:0:0:0:
186,105,46009,2,0,P|209:148|202:197,1,100,8|0,0:0|0:0,0:0:0:0:
0,179,46311,2,0,L|132:164,2,100,0|2|8,0:0|0:0|0:0,0:0:0:0:
184,284,46764,1,0,0:0:0:0:
306,100,46915,5,2,0:0:0:0:
412,235,47067,2,0,L|312:223,1,100,0|8,0:0|0:0,0:0:0:0:
229,35,47369,1,0,0:0:0:0:
139,200,47520,1,2,0:0:0:0:
389,136,47671,2,0,P|393:78|366:33,1,100,8|0,0:0|0:0,0:0:0:0:
184,284,47973,6,0,B|238:216|238:216|362:229,1,200,2|8,0:0|0:0,0:0:0:0:
453,359,48427,1,2,0:0:0:0:
273,300,48578,1,2,0:0:0:0:
438,160,48729,1,8,0:0:0:0:
288,380,48880,2,0,P|244:378|199:331,1,100,0|2,0:0|0:0,0:0:0:0:
138,107,49182,1,2,0:0:0:0:
24,384,49334,1,6,0:0:0:0:
138,107,51298,6,0,L|212:116,1,75.0000028610231,2|0,0:0|0:0,0:0:0:0:
282,196,51601,1,2,0:0:0:0:
345,375,53716,6,0,L|419:365,1,75.0000028610231,2|0,0:0|0:0,0:0:0:0:
489,286,54019,2,0,P|464:214|342:219,1,200,6|2,0:0|0:0,0:0:0:0:
169,136,54472,2,0,B|266:160|266:160|344:98,1,200
512,0,54925,2,0,P|472:20|455:84,1,100,8|0,0:0|0:0,0:0:0:0:
512,182,55228,1,2,0:0:0:0:
294,263,55379,5,0,0:0:0:0:
410,371,55530,2,0,B|455:322|455:322|427:168,1,200,8|2,0:0|0:0,0:0:0:0:
289,82,55983,2,0,P|251:112|232:175,1,100,8|0,0:0|0:0,0:0:0:0:
157,342,56286,1,2,0:0:0:0:
294,263,56437,1,2,0:0:0:0:
79,163,56588,6,0,L|60:272,1,100,6|0,0:0|0:0,0:0:0:0:
238,372,56890,1,0,0:0:0:0:
161,140,57041,2,0,P|133:97|80:80,1,100,8|0,0:0|0:0,0:0:0:0:
294,263,57344,2,0,P|345:260|386:222,1,100,2|0,0:0|0:0,0:0:0:0:
345,14,57646,2,0,L|326:123,1,100,8|0,0:0|0:0,0:0:0:0:
490,260,57948,5,2,0:0:0:0:
249,168,58099,1,8,0:0:0:0:
389,384,58250,1,2,0:0:0:0:
389,384,58326,1,2,0:0:0:0:
389,384,58402,5,8,0:0:0:0:
402,126,58553,1,8,0:0:0:0:
240,328,58704,1,2,0:0:0:0:
158,30,58855,1,2,0:0:0:0:
2,239,59006,6,0,L|116:222,1,100,6|0,0:0|0:0,0:0:0:0:
304,83,59308,1,8,0:0:0:0:
428,313,59459,2,0,B|362:303|362:303|331:243|331:243|265:233,1,200,6|8,0:0|0:0,0:0:0:0:
79,382,59913,1,6,0:0:0:0:
79,382,60971,5,2,0:0:0:0:
224,61,61122,2,0,L|232:150,1,75,2|0,0:0|0:0,0:0:0:0:
200,215,61424,6,0,P|260:139|363:149,1,200,6|8,0:0|0:0,0:0:0:0:
512,351,61878,2,0,L|405:336,1,100,2|0,0:0|0:0,0:0:0:0:
298,218,62180,1,8,0:0:0:0:
140,384,62331,2,0,B|82:337|82:337|108:208,1,200,2|0,0:0|0:0,0:0:0:0:
260,40,62784,5,0,0:0:0:0:
2,144,62936,2,0,L|107:127,1,100,2|2,0:0|0:0,0:0:0:0:
100,128,63162,1,2,0:0:0:0:
100,128,63238,1,8,0:0:0:0:
204,316,63389,1,8,0:0:0:0:
260,40,63540,1,2,0:0:0:0:
55,248,63691,1,0,0:0:0:0:
340,110,63842,6,0,P|396:116|434:161,1,100,2|0,0:0|0:0,0:0:0:0:
476,338,64145,1,8,0:0:0:0:
228,237,64296,2,0,L|260:40,1,200,2|2,0:0|0:0,0:0:0:0:
320,384,64749,1,2,0:0:0:0:
3,102,65505,5,8,0:0:0:0:
3,102,65581,1,8,0:0:0:0:
3,102,65657,1,8,0:0:0:0:
183,57,65807,1,8,0:0:0:0:
46,282,65958,1,2,0:0:0:0:
228,237,66109,1,2,0:0:0:0:
114,169,66260,6,0,P|95:85|98:18,2,150.000005722046,2|0|8,0:0|0:0|0:0,0:0:0:0:
228,237,67016,2,0,L|308:215,1,75.0000028610231
491,117,67318,2,0,P|454:64|357:71,1,150.000005722046,2|8,0:0|0:0,0:0:0:0:
289,303,67772,5,2,0:0:0:0:
418,244,67923,1,2,0:0:0:0:
224,147,68074,2,0,P|202:194|205:234,1,75.0000028610231,8|0,0:0|0:0,0:0:0:0:
351,378,68376,5,2,0:0:0:0:
93,260,68527,1,2,0:0:0:0:
325,96,68679,2,0,B|378:134|378:134|361:251,1,150.000005722046,2|0,0:0|0:0,0:0:0:0:
289,303,69132,1,2,0:0:0:0:
131,164,69283,2,0,P|59:156|3:218,1,150.000005722046,8|0,0:0|0:0,0:0:0:0:
116,364,69737,6,0,B|166:360|166:360|193:318|193:318|258:313,1,150.000005722046,2|8,0:0|0:0,0:0:0:0:
411,243,70190,2,0,P|386:204|345:188,1,75.0000028610231,2|2,0:0|0:0,0:0:0:0:
204,137,70492,2,0,P|250:134|284:107,1,75.0000028610231,8|0,0:0|0:0,0:0:0:0:
399,10,70794,2,0,P|377:51|384:94,1,75.0000028610231,2|0,0:0|0:0,0:0:0:0:
505,244,71097,5,8,0:0:0:0:
214,380,71248,2,0,L|116:364,1,100,8|0,0:0|0:0,0:0:0:0:
0,130,71550,2,0,P|35:56|146:63,1,200,12|0,0:0|0:0,0:0:0:0:
295,320,72004,5,8,0:0:0:0:
512,52,72155,2,0,L|413:35,1,100,8|0,0:0|0:0,0:0:0:0:
107,168,72457,1,12,0:0:0:0:
107,168,72759,5,2,0:0:0:0:
309,246,72910,1,2,0:0:0:0:
100,302,73061,1,2,0:0:0:0:
236,133,73212,1,2,0:0:0:0:
224,349,73364,1,2,0:0:0:0:
0,135,73515,6,0,P|81:139|130:89,1,150,6|0,0:0|0:0,0:0:0:0:
188,11,73817,2,0,B|149:68|149:68|175:207,1,200,8|2,0:0|0:0,0:0:0:0:
296,327,74271,1,0,0:0:0:0:
406,124,74422,1,8,0:0:0:0:
512,273,74573,6,0,L|389:253,1,100,2|0,0:0|0:0,0:0:0:0:
264,81,74875,1,2,0:0:0:0:
125,365,75026,2,0,L|224:349,1,100,8|0,0:0|0:0,0:0:0:0:
406,124,75329,1,2,0:0:0:0:
199,253,75480,1,2,0:0:0:0:
283,4,75631,1,8,0:0:0:0:
457,202,75782,1,2,0:0:0:0:
101,185,75933,6,0,B|69:59|69:59|131:-2,2,200,2|8|2,0:0|0:0|0:0,0:0:0:0:
276,346,76689,1,2,0:0:0:0:
28,264,76840,1,8,0:0:0:0:
266,184,76991,6,0,P|328:186|369:226,1,100,2|0,0:0|0:0,0:0:0:0:
407,366,77293,1,2,0:0:0:0:
512,136,77444,2,0,L|409:116,1,100,8|0,0:0|0:0,0:0:0:0:
276,346,77747,1,2,0:0:0:0:
464,275,77898,1,2,0:0:0:0:
209,54,78049,2,0,P|180:91|177:149,1,100,8|0,0:0|0:0,0:0:0:0:
173,293,78351,6,0,P|120:213|24:216,2,200,6|8|2,0:0|0:0|0:0,0:0:0:0:
346,379,79107,2,0,L|359:276,1,100,8|0,0:0|0:0,0:0:0:0:
209,54,79409,2,0,B|274:63|274:63|312:118|312:118|378:128,1,200,8|2,0:0|0:0,0:0:0:0:
508,285,79863,6,0,P|464:284|411:308,1,100,8|0,0:0|0:0,0:0:0:0:
239,384,80165,1,2,0:0:0:0:
456,206,80316,1,2,0:0:0:0:
138,151,80467,2,0,L|149:260,1,100,8|0,0:0|0:0,0:0:0:0:
413,306,80769,5,8,0:0:0:0:
169,74,80920,2,0,P|113:72|64:116,1,100,8|0,0:0|0:0,0:0:0:0:
239,384,81223,2,0,L|265:156,1,200,12|2,0:0|0:0,0:0:0:0:
422,29,81676,5,8,0:0:0:0:
49,265,81827,2,0,L|157:249,1,100,8|0,0:0|0:0,0:0:0:0:
493,144,82130,2,0,B|438:124|395:130|395:130|360:95|276:98,1,200,12|0,0:0|0:0,0:0:0:0:
126,366,82583,5,2,0:0:0:0:
491,284,82734,1,8,0:0:0:0:
452,231,82809,1,8,0:0:0:0:
389,214,82885,1,8,0:0:0:0:
329,241,82960,1,8,0:0:0:0:
269,267,83036,1,8,0:0:0:0:
206,248,83112,1,8,0:0:0:0:
171,194,83187,6,0,L|193:92,1,100,6|0,0:0|0:0,0:0:0:0:
511,74,83490,2,0,B|445:67|445:67|396:21|396:21|327:14,1,200,8|2,0:0|0:0,0:0:0:0:
107,252,83943,1,2,0:0:0:0:
346,113,84094,1,8,0:0:0:0:
126,366,84245,6,0,L|14:344,1,100,2|0,0:0|0:0,0:0:0:0:
240,53,84548,1,2,0:0:0:0:
465,197,84699,2,0,P|470:250|444:300,1,100,8|0,0:0|0:0,0:0:0:0:
212,384,85001,5,2,0:0:0:0:
403,118,85152,1,2,0:0:0:0:
512,334,85303,1,8,0:0:0:0:
249,194,85454,1,2,0:0:0:0:
501,36,85606,6,0,L|477:241,2,200,2|8|2,0:0|0:0|0:0,0:0:0:0:
299,302,86361,2,0,P|344:321|396:329,1,100,2|8,0:0|0:0,0:0:0:0:
185,118,86664,6,0,P|135:125|89:144,1,100,2|0,0:0|0:0,0:0:0:0:
17,334,86966,1,2,0:0:0:0:
293,153,87117,2,0,L|281:45,1,100,8|0,0:0|0:0,0:0:0:0:
122,272,87419,1,2,0:0:0:0:
394,178,87570,1,2,0:0:0:0:
207,353,87721,2,0,L|219:245,1,100,8|0,0:0|0:0,0:0:0:0:
178,61,88024,6,0,B|134:74|98:48|98:48|63:89|63:89|32:80|-16:91,2,200,6|8|2,0:0|0:0|0:0,0:0:0:0:
394,178,88779,2,0,L|381:285,1,100,8|0,0:0|0:0,0:0:0:0:
134,371,89082,2,0,L|121:271,1,100,2|0,0:0|0:0,0:0:0:0:
302,85,89384,1,2,0:0:0:0:
463,310,89535,6,0,P|432:349|384:363,1,100,8|0,0:0|0:0,0:0:0:0:
302,85,89837,2,0,P|350:92|386:126,1,100,2|2,0:0|0:0,0:0:0:0:
187,337,90140,2,0,P|169:291|180:243,1,100,8|0,0:0|0:0,0:0:0:0:
469,189,90442,5,8,0:0:0:0:
114,27,90593,2,0,L|128:134,1,100,8|0,0:0|0:0,0:0:0:0:
314,344,90895,2,0,P|287:267|164:250,1,200,12|2,0:0|0:0,0:0:0:0:
68,335,91349,5,8,0:0:0:0:
382,84,91500,2,0,L|368:191,1,100,8|0,0:0|0:0,0:0:0:0:
474,300,91802,1,8,0:0:0:0:
274,375,91953,2,0,P|225:368|179:324,1,100,2|0,0:0|0:0,0:0:0:0:
11,82,92255,5,8,0:0:0:0:
248,204,92407,1,8,0:0:0:0:
73,234,92558,1,2,0:0:0:0:
285,112,92709,1,2,0:0:0:0:
25,348,92860,6,0,L|245:311,1,200,6|8,0:0|0:0,0:0:0:0:
455,184,93313,2,0,P|429:103|300:98,1,200,2|2,0:0|0:0,0:0:0:0:
118,200,93767,1,2,0:0:0:0:
118,200,94069,5,8,0:0:0:0:
382,351,94220,2,0,L|369:250,1,100,2|0,0:0|0:0,0:0:0:0:
241,60,94522,1,2,0:0:0:0:
207,67,94598,1,2,0:0:0:0:
173,74,94674,1,8,0:0:0:0:
455,184,94825,1,8,0:0:0:0:
175,267,94976,1,2,0:0:0:0:
327,22,95127,1,8,0:0:0:0:
458,305,95278,6,0,B|392:298|392:298|355:240|355:240|281:231,1,200,6|8,0:0|0:0,0:0:0:0:
76,122,95732,2,0,P|204:122|264:86,1,200,2|8,0:0|0:0,0:0:0:0:
487,52,96185,6,0,B|435:44|405:4|405:4|364:101|364:101|422:91|463:137|470:205|399:232,1,400,2|8,0:0|0:0,0:0:0:0:
147,210,96941,5,8,0:0:0:0:
183,204,97016,1,8,0:0:0:0:
219,198,97092,1,8,0:0:0:0:
25,377,97243,1,8,0:0:0:0:
257,329,97394,1,2,0:0:0:0:
49,267,97545,1,2,0:0:0:0:
356,378,97696,6,0,B|411:328|411:328|376:180,1,200,6|8,0:0|0:0,0:0:0:0:
191,57,98150,2,0,P|128:53|76:169,1,200,2|2,0:0|0:0,0:0:0:0:
257,329,98603,2,0,P|202:309|143:306,1,100,8|0,0:0|0:0,0:0:0:0:
133,314,98830,1,8,0:0:0:0:
113,335,98905,5,8,0:0:0:0:
306,246,99056,1,8,0:0:0:0:
62,180,99208,1,8,0:0:0:0:
257,329,99359,1,8,0:0:0:0:
105,88,99510,5,2,0:0:0:0:
209,245,99661,1,2,0:0:0:0:
188,29,99812,5,2,0:0:0:0:
257,161,99963,1,2,0:0:0:0:
468,81,100114,6,0,B|402:74|402:74|355:26|355:26|282:18,1,200,2|8,0:0|0:0,0:0:0:0:
91,226,100568,2,0,P|159:157|257:161,1,200,2|8,0:0|0:0,0:0:0:0:
482,294,101021,2,0,L|376:307,1,100,2|0,0:0|0:0,0:0:0:0:
382,306,101248,1,0,0:0:0:0:
382,306,101323,5,8,0:0:0:0:
445,156,101475,1,8,0:0:0:0:
272,353,101626,1,2,0:0:0:0:
498,219,101777,1,2,0:0:0:0:
268,90,101928,5,8,0:0:0:0:
428,379,102079,1,8,0:0:0:0:
388,17,102230,1,8,0:0:0:0:
167,282,102381,1,8,0:0:0:0:
51,98,102533,5,2,0:0:0:0:
287,181,102684,1,0,0:0:0:0:
8,342,102835,2,0,P|-5:276|109:224,1,200,8|0,0:0|0:0,0:0:0:0:
272,285,103288,2,0,L|260:386,1,100,2|8,0:0|0:0,0:0:0:0:
164,176,103590,2,0,L|152:76,1,100
398,235,103893,5,2,0:0:0:0:
345,7,104044,1,8,0:0:0:0:
283,185,104195,1,0,0:0:0:0:
512,113,104346,2,0,P|470:85|421:81,1,100,2|2,0:0|0:0,0:0:0:0:
272,285,104648,2,0,L|376:277,1,100,8|0,0:0|0:0,0:0:0:0:
212,17,104951,6,0,L|200:116,1,100,2|0,0:0|0:0,0:0:0:0:
30,215,105253,2,0,L|18:115,1,100,8|0,0:0|0:0,0:0:0:0:
283,185,105555,2,0,L|271:284,1,100,2|2,0:0|0:0,0:0:0:0:
101,383,105857,1,8,0:0:0:0:
217,124,106009,2,0,P|265:96|320:101,1,100,2|0,0:0|0:0,0:0:0:0:
467,266,106311,5,2,0:0:0:0:
214,352,106462,1,8,0:0:0:0:
449,163,106613,1,0,0:0:0:0:
449,163,106689,1,0,0:0:0:0:
449,163,106764,1,2,0:0:0:0:
367,384,106915,1,2,0:0:0:0:
217,124,107067,1,8,0:0:0:0:
467,266,107218,1,0,0:0:0:0:
126,150,107369,6,0,P|128:87|246:36,1,200,6|8,0:0|0:0,0:0:0:0:
160,253,107822,2,0,L|61:236,1,100,2|0,0:0|0:0,0:0:0:0:
306,97,108124,1,2,0:0:0:0:
367,384,108276,2,0,L|465:367,1,100,8|0,0:0|0:0,0:0:0:0:
217,124,108578,5,0,0:0:0:0:
467,266,108729,2,0,P|498:213|493:164,1,100,2|8,0:0|0:0,0:0:0:0:
279,8,109031,1,0,0:0:0:0:
187,284,109182,5,2,0:0:0:0:
380,163,109334,1,2,0:0:0:0:
217,124,109485,1,8,0:0:0:0:
394,240,109636,1,0,0:0:0:0:
63,176,109787,5,8,0:0:0:0:
398,81,109938,1,2,0:0:0:0:
187,284,110089,1,2,0:0:0:0:
295,27,110240,5,8,0:0:0:0:
354,339,110391,1,2,0:0:0:0:
445,155,110543,1,2,0:0:0:0:
198,317,110694,5,8,0:0:0:0:
477,226,110845,1,8,0:0:0:0:
258,29,110996,1,2,0:0:0:0:
286,370,111147,5,8,0:0:0:0:
437,125,111298,1,8,0:0:0:0:
150,117,111449,1,2,0:0:0:0:
510,302,111601,5,8,0:0:0:0:
258,29,111752,1,8,0:0:0:0:
148,384,111903,2,0,L|247:369,1,100,2|2,0:0|0:0,0:0:0:0:
481,121,112205,5,8,0:0:0:0:
194,234,112356,1,8,0:0:0:0:
379,32,112507,1,8,0:0:0:0:
461,293,112658,2,0,P|420:226|301:206,1,200,6|0,0:0|0:0,0:0:0:0:
53,319,113112,5,8,0:0:0:0:
314,118,113263,1,8,0:0:0:0:
90,186,113414,1,8,0:0:0:0:
331,371,113565,2,0,B|389:319|389:319|357:186,1,200,6|0,0:0|0:0,0:0:0:0:
254,1,114019,5,8,0:0:0:0:
147,288,114170,1,8,0:0:0:0:
468,111,114321,1,8,0:0:0:0:
175,366,114472,2,0,B|95:398|9:298|70:198|159:206|159:206|217:252|262:223|262:223|239:189|241:128|241:128|279:147|315:139|315:139|327:185|350:210|350:210|301:273|360:341|434:318|457:275|442:232|442:232|469:186|469:186|394:184|369:105|407:65|407:65|353:83|311:61|301:20,1,1250,6|0,0:0|0:0,0:0:0:0:
