osu file format v14

[General]
AudioFilename: audio.mp3
AudioLeadIn: 0
PreviewTime: 77630
Countdown: 0
SampleSet: None
StackLeniency: 0.7
Mode: 3
LetterboxInBreaks: 0
SpecialStyle: 0
WidescreenStoryboard: 0

[Editor]
DistanceSpacing: 0.8
BeatDivisor: 4
GridSize: 8
TimelineZoom: 1.7

[Metadata]
Title:Nyanderful!
TitleUnicode:Nyanderful!
Artist:Sakakibara Yui
ArtistUnicode:Sakakibara Yui
Creator:IControl
Version:Hyperful!
Source:
Tags:
BeatmapID:1925344
BeatmapSetID:921969

[Difficulty]
HPDrainRate:8
CircleSize:4
OverallDifficulty:8
ApproachRate:5
SliderMultiplier:1.4
SliderTickRate:1

[Events]
//Background and Video events
0,0,"224725.jpg",0,0
//Break Periods
//Storyboard Layer 0 (Background)
//Storyboard Layer 1 (Fail)
//Storyboard Layer 2 (Pass)
//Storyboard Layer 3 (Foreground)
//Storyboard Sound Samples

[TimingPoints]
2630,375,4,1,0,0,1,0

[HitObjects]
320,192,2630,128,0,5255:0:0:0:0:
64,192,2630,1,0,0:0:0:0:
192,192,3005,1,0,0:0:0:0:
64,192,3380,1,0,0:0:0:0:
64,192,3567,1,0,0:0:0:0:
192,192,3755,1,0,0:0:0:0:
448,192,3942,1,0,0:0:0:0:
192,192,3942,1,0,0:0:0:0:
448,192,4130,128,0,4505:0:0:0:0:
64,192,4130,1,0,0:0:0:0:
64,192,4317,128,0,4505:0:0:0:0:
192,192,4692,1,0,0:0:0:0:
64,192,4880,1,0,0:0:0:0:
192,192,5067,1,0,0:0:0:0:
64,192,5067,1,0,0:0:0:0:
448,192,5255,1,0,0:0:0:0:
320,192,5442,1,0,0:0:0:0:
64,192,5630,128,0,8630:0:0:0:0:
192,192,5630,1,0,0:0:0:0:
192,192,6005,1,0,0:0:0:0:
320,192,6192,1,0,0:0:0:0:
320,192,6380,128,0,8442:0:0:0:0:
448,192,6755,1,0,0:0:0:0:
192,192,6942,1,0,0:0:0:0:
192,192,7692,1,0,0:0:0:0:
448,192,8067,1,0,0:0:0:0:
192,192,8442,1,0,0:0:0:0:
448,192,8630,1,0,0:0:0:0:
192,192,8630,128,0,10130:0:0:0:0:
320,192,8630,1,0,0:0:0:0:
448,192,9005,1,0,0:0:0:0:
64,192,9380,1,0,0:0:0:0:
448,192,9567,1,0,0:0:0:0:
320,192,9755,1,0,0:0:0:0:
64,192,9942,1,0,0:0:0:0:
448,192,9942,1,0,0:0:0:0:
320,192,10130,1,0,0:0:0:0:
64,192,10130,128,0,10505:0:0:0:0:
448,192,10317,128,0,10505:0:0:0:0:
192,192,10692,1,0,0:0:0:0:
64,192,10880,1,0,0:0:0:0:
192,192,11067,1,0,0:0:0:0:
448,192,11255,1,0,0:0:0:0:
320,192,11442,1,0,0:0:0:0:
64,192,11630,1,0,0:0:0:0:
192,192,11630,1,0,0:0:0:0:
448,192,11630,128,0,17067:0:0:0:0:
64,192,12192,1,0,0:0:0:0:
64,192,12380,128,0,13880:0:0:0:0:
320,192,12380,128,0,13317:0:0:0:0:
192,192,13880,128,0,14255:0:0:0:0:
320,192,14255,128,0,16317:0:0:0:0:
64,192,14630,128,0,16130:0:0:0:0:
192,192,14630,1,0,0:0:0:0:
64,192,16317,1,0,0:0:0:0:
192,192,16411,1,0,0:0:0:0:
320,192,16505,1,0,0:0:0:0:
64,192,16880,1,0,0:0:0:0:
320,192,16973,1,0,0:0:0:0:
192,192,17067,1,0,0:0:0:0:
64,192,17255,1,0,0:0:0:0:
192,192,17348,1,0,0:0:0:0:
320,192,17442,1,0,0:0:0:0:
64,192,17536,1,0,0:0:0:0:
320,192,17630,1,0,0:0:0:0:
448,192,17630,1,0,0:0:0:0:
192,192,17630,128,0,18005:0:0:0:0:
320,192,18005,1,0,0:0:0:0:
64,192,18005,1,0,0:0:0:0:
192,192,18192,1,0,0:0:0:0:
320,192,18380,1,0,0:0:0:0:
192,192,18567,1,0,0:0:0:0:
320,192,18567,1,0,0:0:0:0:
448,192,18942,1,0,0:0:0:0:
64,192,18942,1,0,0:0:0:0:
192,192,18942,128,0,19317:0:0:0:0:
320,192,19317,1,0,0:0:0:0:
448,192,19317,1,0,0:0:0:0:
64,192,19505,1,0,0:0:0:0:
192,192,19692,1,0,0:0:0:0:
320,192,19692,128,0,20067:0:0:0:0:
64,192,19692,1,0,0:0:0:0:
64,192,20067,1,0,0:0:0:0:
448,192,20067,1,0,0:0:0:0:
64,192,20255,1,0,0:0:0:0:
192,192,20255,1,0,0:0:0:0:
320,192,20442,1,0,0:0:0:0:
448,192,20630,1,0,0:0:0:0:
320,192,20630,1,0,0:0:0:0:
192,192,21005,1,0,0:0:0:0:
64,192,21005,1,0,0:0:0:0:
448,192,21005,128,0,21098:0:0:0:0:
192,192,21192,1,0,0:0:0:0:
64,192,21380,128,0,21942:0:0:0:0:
192,192,21567,128,0,21755:0:0:0:0:
448,192,21567,1,0,0:0:0:0:
448,192,21942,128,0,22317:0:0:0:0:
320,192,21942,1,0,0:0:0:0:
64,192,22317,1,0,0:0:0:0:
192,192,22317,128,0,22692:0:0:0:0:
448,192,22505,1,0,0:0:0:0:
448,192,22692,1,0,0:0:0:0:
320,192,22692,128,0,23067:0:0:0:0:
448,192,23067,1,0,0:0:0:0:
64,192,23067,128,0,23630:0:0:0:0:
192,192,23255,1,0,0:0:0:0:
320,192,23348,1,0,0:0:0:0:
448,192,23442,1,0,0:0:0:0:
320,192,23536,1,0,0:0:0:0:
448,192,23630,1,0,0:0:0:0:
192,192,23630,1,0,0:0:0:0:
448,192,24005,1,0,0:0:0:0:
320,192,24005,128,0,24098:0:0:0:0:
64,192,24192,1,0,0:0:0:0:
192,192,24192,128,0,24286:0:0:0:0:
320,192,24380,1,0,0:0:0:0:
448,192,24380,128,0,24473:0:0:0:0:
192,192,24567,1,0,0:0:0:0:
320,192,24567,128,0,24848:0:0:0:0:
192,192,24942,1,0,0:0:0:0:
64,192,24942,128,0,25317:0:0:0:0:
320,192,24942,1,0,0:0:0:0:
448,192,25317,1,0,0:0:0:0:
192,192,25317,1,0,0:0:0:0:
320,192,25505,1,0,0:0:0:0:
192,192,25505,1,0,0:0:0:0:
448,192,25692,1,0,0:0:0:0:
320,192,25692,1,0,0:0:0:0:
64,192,25692,128,0,26067:0:0:0:0:
448,192,26067,1,0,0:0:0:0:
192,192,26067,1,0,0:0:0:0:
320,192,26255,1,0,0:0:0:0:
64,192,26255,1,0,0:0:0:0:
64,192,26442,1,0,0:0:0:0:
320,192,26442,1,0,0:0:0:0:
192,192,26442,128,0,27005:0:0:0:0:
448,192,26817,1,0,0:0:0:0:
64,192,26817,1,0,0:0:0:0:
320,192,27005,1,0,0:0:0:0:
64,192,27192,128,0,27755:0:0:0:0:
320,192,27192,1,0,0:0:0:0:
448,192,27192,1,0,0:0:0:0:
192,192,27567,1,0,0:0:0:0:
448,192,27567,1,0,0:0:0:0:
320,192,27755,1,0,0:0:0:0:
448,192,27755,1,0,0:0:0:0:
320,192,27942,1,0,0:0:0:0:
192,192,27942,128,0,28317:0:0:0:0:
448,192,28317,1,0,0:0:0:0:
64,192,28317,1,0,0:0:0:0:
64,192,28505,1,0,0:0:0:0:
192,192,28505,1,0,0:0:0:0:
320,192,28505,1,0,0:0:0:0:
320,192,28692,1,0,0:0:0:0:
448,192,28692,1,0,0:0:0:0:
448,192,29067,1,0,0:0:0:0:
64,192,29067,1,0,0:0:0:0:
192,192,29067,1,0,0:0:0:0:
64,192,29442,1,0,0:0:0:0:
192,192,29536,1,0,0:0:0:0:
448,192,29630,1,0,0:0:0:0:
64,192,29630,1,0,0:0:0:0:
320,192,29630,1,0,0:0:0:0:
192,192,29817,1,0,0:0:0:0:
192,192,30005,1,0,0:0:0:0:
320,192,30192,1,0,0:0:0:0:
320,192,30380,1,0,0:0:0:0:
448,192,30567,1,0,0:0:0:0:
448,192,30755,1,0,0:0:0:0:
192,192,30942,1,0,0:0:0:0:
320,192,31130,128,0,31223:0:0:0:0:
192,192,31317,128,0,31411:0:0:0:0:
64,192,31505,128,0,31692:0:0:0:0:
192,192,31692,128,0,31973:0:0:0:0:
320,192,32067,1,0,0:0:0:0:
448,192,32067,1,0,0:0:0:0:
192,192,32442,1,0,0:0:0:0:
64,192,32442,1,0,0:0:0:0:
64,192,32817,1,0,0:0:0:0:
64,192,33005,1,0,0:0:0:0:
192,192,33192,1,0,0:0:0:0:
192,192,33380,1,0,0:0:0:0:
320,192,33567,1,0,0:0:0:0:
192,192,33755,1,0,0:0:0:0:
320,192,33942,1,0,0:0:0:0:
448,192,34130,128,0,34223:0:0:0:0:
320,192,34317,128,0,34411:0:0:0:0:
192,192,34505,128,0,34692:0:0:0:0:
448,192,34692,128,0,34973:0:0:0:0:
192,192,34786,1,0,0:0:0:0:
320,192,34880,1,0,0:0:0:0:
448,192,35067,1,0,0:0:0:0:
192,192,35067,1,0,0:0:0:0:
320,192,35255,1,0,0:0:0:0:
64,192,35442,1,0,0:0:0:0:
192,192,35442,1,0,0:0:0:0:
192,192,35817,1,0,0:0:0:0:
320,192,36005,1,0,0:0:0:0:
448,192,36192,1,0,0:0:0:0:
320,192,36380,1,0,0:0:0:0:
192,192,36567,1,0,0:0:0:0:
320,192,36755,128,0,36848:0:0:0:0:
64,192,36942,1,0,0:0:0:0:
192,192,36942,1,0,0:0:0:0:
448,192,37317,1,0,0:0:0:0:
320,192,37505,1,0,0:0:0:0:
192,192,37692,1,0,0:0:0:0:
64,192,37880,128,0,38067:0:0:0:0:
192,192,38067,1,0,0:0:0:0:
320,192,38255,1,0,0:0:0:0:
192,192,38255,128,0,38348:0:0:0:0:
64,192,38348,1,0,0:0:0:0:
448,192,38442,1,0,0:0:0:0:
192,192,38630,1,0,0:0:0:0:
448,192,38630,1,0,0:0:0:0:
64,192,38630,128,0,38817:0:0:0:0:
448,192,38817,1,0,0:0:0:0:
320,192,38817,128,0,39005:0:0:0:0:
192,192,39005,1,0,0:0:0:0:
448,192,39005,128,0,39380:0:0:0:0:
64,192,39192,1,0,0:0:0:0:
192,192,39286,1,0,0:0:0:0:
320,192,39380,1,0,0:0:0:0:
192,192,39567,1,0,0:0:0:0:
320,192,39567,1,0,0:0:0:0:
64,192,39942,1,0,0:0:0:0:
192,192,39942,1,0,0:0:0:0:
320,192,40130,128,0,40223:0:0:0:0:
448,192,40130,1,0,0:0:0:0:
192,192,40317,128,0,40598:0:0:0:0:
448,192,40505,1,0,0:0:0:0:
64,192,40505,1,0,0:0:0:0:
64,192,40692,1,0,0:0:0:0:
192,192,40692,1,0,0:0:0:0:
320,192,41067,1,0,0:0:0:0:
448,192,41067,1,0,0:0:0:0:
64,192,41067,128,0,41630:0:0:0:0:
448,192,41442,1,0,0:0:0:0:
320,192,41536,1,0,0:0:0:0:
192,192,41630,1,0,0:0:0:0:
448,192,41630,1,0,0:0:0:0:
192,192,41817,1,0,0:0:0:0:
448,192,42005,1,0,0:0:0:0:
192,192,42005,1,0,0:0:0:0:
192,192,42192,1,0,0:0:0:0:
448,192,42380,128,0,42567:0:0:0:0:
320,192,42380,1,0,0:0:0:0:
192,192,42473,1,0,0:0:0:0:
320,192,42567,128,0,42755:0:0:0:0:
64,192,42567,1,0,0:0:0:0:
192,192,42755,1,0,0:0:0:0:
448,192,42755,128,0,42942:0:0:0:0:
192,192,42942,128,0,43130:0:0:0:0:
64,192,43130,1,0,0:0:0:0:
448,192,43130,1,0,0:0:0:0:
320,192,43317,1,0,0:0:0:0:
320,192,43505,1,0,0:0:0:0:
192,192,43692,128,0,44067:0:0:0:0:
448,192,43692,128,0,43880:0:0:0:0:
320,192,43692,1,0,0:0:0:0:
64,192,43880,1,0,0:0:0:0:
320,192,44067,1,0,0:0:0:0:
320,192,44255,1,0,0:0:0:0:
64,192,44255,128,0,44442:0:0:0:0:
192,192,44442,1,0,0:0:0:0:
320,192,44630,1,0,0:0:0:0:
192,192,44630,1,0,0:0:0:0:
448,192,44817,1,0,0:0:0:0:
64,192,45005,1,0,0:0:0:0:
448,192,45005,1,0,0:0:0:0:
192,192,45192,1,0,0:0:0:0:
64,192,45192,128,0,45567:0:0:0:0:
320,192,45286,1,0,0:0:0:0:
448,192,45380,128,0,45567:0:0:0:0:
320,192,45567,1,0,0:0:0:0:
192,192,45755,1,0,0:0:0:0:
320,192,45755,1,0,0:0:0:0:
448,192,45942,1,0,0:0:0:0:
192,192,45942,1,0,0:0:0:0:
320,192,46130,128,0,46317:0:0:0:0:
448,192,46130,1,0,0:0:0:0:
192,192,46317,128,0,46505:0:0:0:0:
448,192,46505,128,0,46692:0:0:0:0:
64,192,46505,1,0,0:0:0:0:
192,192,46598,1,0,0:0:0:0:
320,192,46692,128,0,46786:0:0:0:0:
448,192,46786,128,0,46880:0:0:0:0:
192,192,46786,128,0,46880:0:0:0:0:
64,192,46880,128,0,47067:0:0:0:0:
192,192,47067,128,0,47255:0:0:0:0:
320,192,47067,1,0,0:0:0:0:
320,192,47255,128,0,47348:0:0:0:0:
192,192,47442,128,0,47630:0:0:0:0:
448,192,47442,1,0,0:0:0:0:
64,192,47630,1,0,0:0:0:0:
320,192,47630,1,0,0:0:0:0:
64,192,47817,1,0,0:0:0:0:
448,192,47817,128,0,48005:0:0:0:0:
320,192,47817,1,0,0:0:0:0:
192,192,48005,1,0,0:0:0:0:
64,192,48192,1,0,0:0:0:0:
448,192,48286,1,0,0:0:0:0:
320,192,48380,1,0,0:0:0:0:
192,192,48380,128,0,48942:0:0:0:0:
320,192,48567,1,0,0:0:0:0:
448,192,48567,1,0,0:0:0:0:
64,192,48755,128,0,48942:0:0:0:0:
448,192,48755,1,0,0:0:0:0:
320,192,48942,1,0,0:0:0:0:
448,192,49223,1,0,0:0:0:0:
320,192,49317,1,0,0:0:0:0:
192,192,49317,1,0,0:0:0:0:
64,192,49505,1,0,0:0:0:0:
192,192,49505,1,0,0:0:0:0:
448,192,49505,1,0,0:0:0:0:
64,192,49692,1,0,0:0:0:0:
320,192,49692,1,0,0:0:0:0:
192,192,49880,128,0,50067:0:0:0:0:
320,192,49880,1,0,0:0:0:0:
448,192,49880,1,0,0:0:0:0:
64,192,50161,1,0,0:0:0:0:
320,192,50255,1,0,0:0:0:0:
320,192,50442,1,0,0:0:0:0:
320,192,50630,1,0,0:0:0:0:
448,192,50630,1,0,0:0:0:0:
192,192,50630,128,0,50817:0:0:0:0:
64,192,51005,1,0,0:0:0:0:
192,192,51005,1,0,0:0:0:0:
320,192,51005,128,0,51192:0:0:0:0:
192,192,51380,1,0,0:0:0:0:
448,192,51380,128,0,51473:0:0:0:0:
64,192,51567,1,0,0:0:0:0:
192,192,51567,1,0,0:0:0:0:
320,192,51755,128,0,51942:0:0:0:0:
448,192,51942,1,0,0:0:0:0:
64,192,51942,128,0,52317:0:0:0:0:
320,192,52130,1,0,0:0:0:0:
192,192,52317,1,0,0:0:0:0:
320,192,52317,128,0,52505:0:0:0:0:
448,192,52505,1,0,0:0:0:0:
192,192,52692,1,0,0:0:0:0:
448,192,52692,1,0,0:0:0:0:
320,192,52692,1,0,0:0:0:0:
192,192,52880,1,0,0:0:0:0:
320,192,52880,1,0,0:0:0:0:
64,192,53067,1,0,0:0:0:0:
448,192,53067,1,0,0:0:0:0:
192,192,53067,128,0,53630:0:0:0:0:
448,192,53255,1,0,0:0:0:0:
320,192,53442,1,0,0:0:0:0:
320,192,53630,1,0,0:0:0:0:
448,192,53630,128,0,54005:0:0:0:0:
192,192,53817,1,0,0:0:0:0:
320,192,54005,128,0,54380:0:0:0:0:
192,192,54005,1,0,0:0:0:0:
64,192,54192,1,0,0:0:0:0:
192,192,54380,128,0,54755:0:0:0:0:
64,192,54380,1,0,0:0:0:0:
448,192,54567,1,0,0:0:0:0:
64,192,54755,128,0,54942:0:0:0:0:
448,192,54755,1,0,0:0:0:0:
320,192,54942,1,0,0:0:0:0:
192,192,54942,128,0,55223:0:0:0:0:
448,192,55130,1,0,0:0:0:0:
320,192,55317,128,0,55505:0:0:0:0:
64,192,55317,128,0,55692:0:0:0:0:
448,192,55317,1,0,0:0:0:0:
192,192,55692,1,0,0:0:0:0:
320,192,55692,128,0,55880:0:0:0:0:
448,192,55880,1,0,0:0:0:0:
64,192,55880,128,0,56067:0:0:0:0:
192,192,56067,1,0,0:0:0:0:
320,192,56067,1,0,0:0:0:0:
448,192,56067,128,0,56161:0:0:0:0:
192,192,56255,1,0,0:0:0:0:
448,192,56255,1,0,0:0:0:0:
64,192,56255,128,0,56536:0:0:0:0:
320,192,56442,1,0,0:0:0:0:
320,192,56630,1,0,0:0:0:0:
192,192,56630,1,0,0:0:0:0:
64,192,56630,128,0,57005:0:0:0:0:
448,192,56817,1,0,0:0:0:0:
320,192,57005,128,0,57380:0:0:0:0:
448,192,57005,1,0,0:0:0:0:
192,192,57192,1,0,0:0:0:0:
192,192,57380,1,0,0:0:0:0:
64,192,57380,128,0,57755:0:0:0:0:
320,192,57567,1,0,0:0:0:0:
320,192,57755,1,0,0:0:0:0:
448,192,57755,128,0,57942:0:0:0:0:
192,192,57942,128,0,58317:0:0:0:0:
64,192,57942,1,0,0:0:0:0:
320,192,57942,128,0,58505:0:0:0:0:
448,192,58317,1,0,0:0:0:0:
64,192,58317,128,0,58692:0:0:0:0:
320,192,58692,1,0,0:0:0:0:
448,192,58692,1,0,0:0:0:0:
192,192,58692,128,0,58880:0:0:0:0:
320,192,58880,128,0,59067:0:0:0:0:
192,192,59067,1,0,0:0:0:0:
64,192,59067,128,0,59255:0:0:0:0:
192,192,59255,1,0,0:0:0:0:
448,192,59255,1,0,0:0:0:0:
320,192,59255,128,0,59536:0:0:0:0:
64,192,59442,1,0,0:0:0:0:
448,192,59442,1,0,0:0:0:0:
64,192,59630,1,0,0:0:0:0:
192,192,59630,1,0,0:0:0:0:
448,192,59630,128,0,60005:0:0:0:0:
320,192,59817,1,0,0:0:0:0:
320,192,60005,1,0,0:0:0:0:
64,192,60005,128,0,60380:0:0:0:0:
448,192,60192,1,0,0:0:0:0:
448,192,60380,1,0,0:0:0:0:
192,192,60380,128,0,60755:0:0:0:0:
64,192,60567,1,0,0:0:0:0:
64,192,60755,1,0,0:0:0:0:
320,192,60755,1,0,0:0:0:0:
192,192,60942,1,0,0:0:0:0:
448,192,60942,128,0,61317:0:0:0:0:
64,192,61130,1,0,0:0:0:0:
320,192,61317,128,0,61692:0:0:0:0:
64,192,61317,1,0,0:0:0:0:
192,192,61505,1,0,0:0:0:0:
448,192,61692,1,0,0:0:0:0:
64,192,61692,128,0,62067:0:0:0:0:
320,192,61880,1,0,0:0:0:0:
192,192,62067,1,0,0:0:0:0:
448,192,62067,1,0,0:0:0:0:
320,192,62255,1,0,0:0:0:0:
64,192,62255,1,0,0:0:0:0:
448,192,62442,1,0,0:0:0:0:
192,192,62442,1,0,0:0:0:0:
64,192,62442,128,0,62630:0:0:0:0:
320,192,62630,128,0,63755:0:0:0:0:
192,192,62630,1,0,0:0:0:0:
448,192,63380,128,0,64130:0:0:0:0:
64,192,63473,128,0,63755:0:0:0:0:
192,192,63755,128,0,64130:0:0:0:0:
192,192,64317,128,0,64505:0:0:0:0:
64,192,64317,1,0,0:0:0:0:
320,192,64505,128,0,64692:0:0:0:0:
448,192,64692,128,0,65067:0:0:0:0:
64,192,64880,128,0,65067:0:0:0:0:
320,192,64880,1,0,0:0:0:0:
192,192,65067,128,0,65255:0:0:0:0:
64,192,65255,128,0,65442:0:0:0:0:
192,192,65442,1,0,0:0:0:0:
320,192,65536,1,0,0:0:0:0:
64,192,65630,1,0,0:0:0:0:
192,192,65630,1,0,0:0:0:0:
448,192,65630,128,0,66098:0:0:0:0:
320,192,65817,1,0,0:0:0:0:
192,192,65911,1,0,0:0:0:0:
64,192,66005,1,0,0:0:0:0:
320,192,66192,1,0,0:0:0:0:
64,192,66192,128,0,66755:0:0:0:0:
448,192,66192,1,0,0:0:0:0:
192,192,66380,1,0,0:0:0:0:
320,192,66473,1,0,0:0:0:0:
448,192,66567,1,0,0:0:0:0:
320,192,66755,1,0,0:0:0:0:
192,192,66755,1,0,0:0:0:0:
320,192,67317,1,0,0:0:0:0:
192,192,67411,1,0,0:0:0:0:
64,192,67505,1,0,0:0:0:0:
448,192,67880,1,0,0:0:0:0:
320,192,67973,1,0,0:0:0:0:
192,192,68067,1,0,0:0:0:0:
192,192,68442,1,0,0:0:0:0:
320,192,68536,1,0,0:0:0:0:
448,192,68630,1,0,0:0:0:0:
64,192,68630,1,0,0:0:0:0:
192,192,68630,128,0,69192:0:0:0:0:
320,192,68817,1,0,0:0:0:0:
448,192,68911,1,0,0:0:0:0:
64,192,69005,1,0,0:0:0:0:
320,192,69192,128,0,69755:0:0:0:0:
64,192,69192,1,0,0:0:0:0:
192,192,69380,1,0,0:0:0:0:
64,192,69473,1,0,0:0:0:0:
448,192,69567,1,0,0:0:0:0:
448,192,69755,1,0,0:0:0:0:
64,192,69755,1,0,0:0:0:0:
192,192,70317,1,0,0:0:0:0:
64,192,70411,1,0,0:0:0:0:
192,192,70505,1,0,0:0:0:0:
320,192,70598,1,0,0:0:0:0:
192,192,70692,1,0,0:0:0:0:
64,192,70786,1,0,0:0:0:0:
320,192,70880,1,0,0:0:0:0:
448,192,70880,1,0,0:0:0:0:
192,192,70973,1,0,0:0:0:0:
64,192,71067,1,0,0:0:0:0:
192,192,71161,1,0,0:0:0:0:
448,192,71255,1,0,0:0:0:0:
448,192,71442,1,0,0:0:0:0:
192,192,71536,1,0,0:0:0:0:
64,192,71630,1,0,0:0:0:0:
320,192,71630,1,0,0:0:0:0:
448,192,71630,128,0,72005:0:0:0:0:
64,192,71817,1,0,0:0:0:0:
192,192,72005,1,0,0:0:0:0:
64,192,72005,1,0,0:0:0:0:
320,192,72098,1,0,0:0:0:0:
448,192,72192,1,0,0:0:0:0:
64,192,72192,1,0,0:0:0:0:
320,192,72192,128,0,72567:0:0:0:0:
192,192,72380,1,0,0:0:0:0:
64,192,72473,1,0,0:0:0:0:
192,192,72567,1,0,0:0:0:0:
448,192,72567,1,0,0:0:0:0:
192,192,72755,1,0,0:0:0:0:
320,192,72755,1,0,0:0:0:0:
64,192,72755,128,0,73130:0:0:0:0:
192,192,72942,1,0,0:0:0:0:
320,192,73036,1,0,0:0:0:0:
448,192,73130,1,0,0:0:0:0:
320,192,73317,1,0,0:0:0:0:
192,192,73317,1,0,0:0:0:0:
448,192,73317,128,0,73692:0:0:0:0:
320,192,73505,1,0,0:0:0:0:
192,192,73598,1,0,0:0:0:0:
320,192,73692,1,0,0:0:0:0:
64,192,73692,1,0,0:0:0:0:
448,192,73880,1,0,0:0:0:0:
192,192,73880,1,0,0:0:0:0:
64,192,73880,1,0,0:0:0:0:
192,192,74067,1,0,0:0:0:0:
320,192,74255,1,0,0:0:0:0:
64,192,74255,1,0,0:0:0:0:
448,192,74255,1,0,0:0:0:0:
320,192,74442,1,0,0:0:0:0:
64,192,74536,1,0,0:0:0:0:
320,192,74630,1,0,0:0:0:0:
192,192,74630,1,0,0:0:0:0:
448,192,74630,128,0,75005:0:0:0:0:
64,192,74817,1,0,0:0:0:0:
192,192,75005,1,0,0:0:0:0:
192,192,75192,1,0,0:0:0:0:
320,192,75192,1,0,0:0:0:0:
64,192,75192,128,0,75567:0:0:0:0:
448,192,75380,1,0,0:0:0:0:
320,192,75567,1,0,0:0:0:0:
448,192,75755,1,0,0:0:0:0:
320,192,75755,1,0,0:0:0:0:
64,192,75755,1,0,0:0:0:0:
192,192,75755,128,0,77255:0:0:0:0:
64,192,76692,1,0,0:0:0:0:
448,192,76692,1,0,0:0:0:0:
320,192,77067,128,0,77630:0:0:0:0:
448,192,77255,1,0,0:0:0:0:
64,192,77442,1,0,0:0:0:0:
192,192,77536,1,0,0:0:0:0:
64,192,77630,128,0,78005:0:0:0:0:
448,192,77630,1,0,0:0:0:0:
192,192,78005,128,0,78380:0:0:0:0:
320,192,78005,1,0,0:0:0:0:
448,192,78005,1,0,0:0:0:0:
448,192,78286,1,0,0:0:0:0:
320,192,78380,1,0,0:0:0:0:
64,192,78380,128,0,78755:0:0:0:0:
192,192,78567,1,0,0:0:0:0:
448,192,78755,1,0,0:0:0:0:
192,192,78755,1,0,0:0:0:0:
448,192,78942,128,0,79317:0:0:0:0:
64,192,78942,1,0,0:0:0:0:
320,192,78942,1,0,0:0:0:0:
192,192,79130,1,0,0:0:0:0:
192,192,79317,128,0,79598:0:0:0:0:
64,192,79317,1,0,0:0:0:0:
320,192,79692,128,0,79880:0:0:0:0:
64,192,79692,1,0,0:0:0:0:
448,192,79692,1,0,0:0:0:0:
192,192,79880,1,0,0:0:0:0:
448,192,80067,1,0,0:0:0:0:
64,192,80067,1,0,0:0:0:0:
64,192,80255,1,0,0:0:0:0:
320,192,80255,1,0,0:0:0:0:
64,192,80442,1,0,0:0:0:0:
192,192,80442,1,0,0:0:0:0:
192,192,80536,1,0,0:0:0:0:
64,192,80630,128,0,81380:0:0:0:0:
320,192,80630,1,0,0:0:0:0:
448,192,80630,128,0,80817:0:0:0:0:
192,192,81005,1,0,0:0:0:0:
448,192,81005,1,0,0:0:0:0:
320,192,81192,1,0,0:0:0:0:
448,192,81286,128,0,81755:0:0:0:0:
320,192,81380,1,0,0:0:0:0:
192,192,81473,1,0,0:0:0:0:
320,192,81567,1,0,0:0:0:0:
192,192,81567,1,0,0:0:0:0:
192,192,81942,1,0,0:0:0:0:
64,192,81942,1,0,0:0:0:0:
448,192,81942,1,0,0:0:0:0:
320,192,82317,1,0,0:0:0:0:
192,192,82317,1,0,0:0:0:0:
448,192,82317,1,0,0:0:0:0:
64,192,82692,1,0,0:0:0:0:
320,192,82692,1,0,0:0:0:0:
448,192,82692,1,0,0:0:0:0:
320,192,83067,1,0,0:0:0:0:
64,192,83067,1,0,0:0:0:0:
192,192,83067,128,0,83536:0:0:0:0:
64,192,83442,1,0,0:0:0:0:
320,192,83536,1,0,0:0:0:0:
64,192,83630,1,0,0:0:0:0:
192,192,83630,1,0,0:0:0:0:
448,192,83630,128,0,84005:0:0:0:0:
64,192,84005,128,0,84380:0:0:0:0:
192,192,84005,1,0,0:0:0:0:
448,192,84286,1,0,0:0:0:0:
192,192,84380,128,0,84755:0:0:0:0:
320,192,84380,1,0,0:0:0:0:
64,192,84567,1,0,0:0:0:0:
320,192,84755,1,0,0:0:0:0:
64,192,84942,128,0,85317:0:0:0:0:
448,192,84942,1,0,0:0:0:0:
320,192,84942,1,0,0:0:0:0:
320,192,85130,1,0,0:0:0:0:
192,192,85317,128,0,85598:0:0:0:0:
448,192,85317,1,0,0:0:0:0:
448,192,85692,1,0,0:0:0:0:
192,192,85692,1,0,0:0:0:0:
64,192,85880,1,0,0:0:0:0:
320,192,85880,1,0,0:0:0:0:
192,192,86067,1,0,0:0:0:0:
320,192,86067,1,0,0:0:0:0:
64,192,86255,1,0,0:0:0:0:
448,192,86255,1,0,0:0:0:0:
320,192,86442,1,0,0:0:0:0:
448,192,86442,1,0,0:0:0:0:
64,192,86536,1,0,0:0:0:0:
320,192,86630,1,0,0:0:0:0:
448,192,86630,1,0,0:0:0:0:
192,192,86630,128,0,87005:0:0:0:0:
448,192,87005,128,0,87192:0:0:0:0:
64,192,87005,1,0,0:0:0:0:
320,192,87192,128,0,87567:0:0:0:0:
64,192,87192,1,0,0:0:0:0:
192,192,87286,1,0,0:0:0:0:
448,192,87380,1,0,0:0:0:0:
192,192,87567,1,0,0:0:0:0:
448,192,87567,1,0,0:0:0:0:
64,192,87755,1,0,0:0:0:0:
320,192,87755,1,0,0:0:0:0:
64,192,87942,1,0,0:0:0:0:
192,192,87942,1,0,0:0:0:0:
320,192,88130,128,0,88692:0:0:0:0:
64,192,88130,1,0,0:0:0:0:
448,192,88130,1,0,0:0:0:0:
192,192,88317,1,0,0:0:0:0:
64,192,88317,1,0,0:0:0:0:
192,192,88505,1,0,0:0:0:0:
448,192,88692,128,0,88880:0:0:0:0:
192,192,88880,1,0,0:0:0:0:
320,192,88880,1,0,0:0:0:0:
320,192,89067,1,0,0:0:0:0:
64,192,89067,1,0,0:0:0:0:
192,192,89161,1,0,0:0:0:0:
64,192,89255,1,0,0:0:0:0:
448,192,89348,1,0,0:0:0:0:
320,192,89442,1,0,0:0:0:0:
448,192,89536,1,0,0:0:0:0:
64,192,89630,128,0,90005:0:0:0:0:
192,192,89630,1,0,0:0:0:0:
320,192,89630,1,0,0:0:0:0:
192,192,90005,128,0,90380:0:0:0:0:
448,192,90005,1,0,0:0:0:0:
64,192,90286,1,0,0:0:0:0:
448,192,90380,128,0,90755:0:0:0:0:
320,192,90380,1,0,0:0:0:0:
64,192,90567,1,0,0:0:0:0:
320,192,90567,1,0,0:0:0:0:
192,192,90755,1,0,0:0:0:0:
320,192,90942,128,0,91317:0:0:0:0:
64,192,90942,1,0,0:0:0:0:
448,192,90942,1,0,0:0:0:0:
192,192,91317,1,0,0:0:0:0:
64,192,91317,1,0,0:0:0:0:
448,192,91505,1,0,0:0:0:0:
320,192,91505,1,0,0:0:0:0:
64,192,91505,1,0,0:0:0:0:
192,192,91692,1,0,0:0:0:0:
320,192,91692,1,0,0:0:0:0:
320,192,91880,1,0,0:0:0:0:
448,192,91880,1,0,0:0:0:0:
64,192,92067,1,0,0:0:0:0:
192,192,92067,1,0,0:0:0:0:
192,192,92255,1,0,0:0:0:0:
448,192,92255,1,0,0:0:0:0:
448,192,92442,1,0,0:0:0:0:
64,192,92442,1,0,0:0:0:0:
320,192,92536,1,0,0:0:0:0:
64,192,92630,128,0,92817:0:0:0:0:
192,192,92817,1,0,0:0:0:0:
320,192,92817,128,0,93005:0:0:0:0:
448,192,93005,1,0,0:0:0:0:
64,192,93005,128,0,93192:0:0:0:0:
320,192,93192,1,0,0:0:0:0:
448,192,93192,128,0,93380:0:0:0:0:
192,192,93286,1,0,0:0:0:0:
192,192,93380,128,0,93567:0:0:0:0:
64,192,93380,1,0,0:0:0:0:
448,192,93567,128,0,93755:0:0:0:0:
64,192,93567,1,0,0:0:0:0:
192,192,93755,128,0,93942:0:0:0:0:
320,192,93755,1,0,0:0:0:0:
448,192,93942,1,0,0:0:0:0:
64,192,93942,1,0,0:0:0:0:
64,192,94317,1,0,0:0:0:0:
448,192,94317,1,0,0:0:0:0:
320,192,94317,128,0,94505:0:0:0:0:
192,192,94692,1,0,0:0:0:0:
320,192,94692,1,0,0:0:0:0:
64,192,94692,1,0,0:0:0:0:
448,192,95067,1,0,0:0:0:0:
320,192,95067,1,0,0:0:0:0:
192,192,95067,128,0,95442:0:0:0:0:
448,192,95442,1,0,0:0:0:0:
320,192,95536,1,0,0:0:0:0:
64,192,95630,128,0,96005:0:0:0:0:
192,192,95630,1,0,0:0:0:0:
192,192,95817,1,0,0:0:0:0:
192,192,96005,128,0,96380:0:0:0:0:
448,192,96005,1,0,0:0:0:0:
448,192,96192,1,0,0:0:0:0:
64,192,96286,1,0,0:0:0:0:
448,192,96380,128,0,96661:0:0:0:0:
320,192,96380,1,0,0:0:0:0:
192,192,96567,1,0,0:0:0:0:
64,192,96567,1,0,0:0:0:0:
320,192,96755,1,0,0:0:0:0:
64,192,96942,128,0,97505:0:0:0:0:
448,192,96942,1,0,0:0:0:0:
320,192,96942,1,0,0:0:0:0:
448,192,97317,1,0,0:0:0:0:
320,192,97317,128,0,97692:0:0:0:0:
192,192,97505,1,0,0:0:0:0:
448,192,97598,1,0,0:0:0:0:
64,192,97692,1,0,0:0:0:0:
192,192,97786,1,0,0:0:0:0:
448,192,97880,128,0,98067:0:0:0:0:
320,192,97880,1,0,0:0:0:0:
320,192,98067,128,0,98255:0:0:0:0:
64,192,98067,1,0,0:0:0:0:
448,192,98255,1,0,0:0:0:0:
64,192,98255,128,0,98442:0:0:0:0:
448,192,98442,1,0,0:0:0:0:
192,192,98630,128,0,99192:0:0:0:0:
448,192,98630,1,0,0:0:0:0:
320,192,98817,1,0,0:0:0:0:
448,192,98817,1,0,0:0:0:0:
64,192,99005,1,0,0:0:0:0:
320,192,99005,1,0,0:0:0:0:
64,192,99192,1,0,0:0:0:0:
320,192,99192,128,0,99380:0:0:0:0:
448,192,99380,1,0,0:0:0:0:
192,192,99380,1,0,0:0:0:0:
64,192,99567,128,0,99755:0:0:0:0:
320,192,99567,1,0,0:0:0:0:
448,192,99567,1,0,0:0:0:0:
192,192,99755,1,0,0:0:0:0:
448,192,99755,1,0,0:0:0:0:
448,192,99942,1,0,0:0:0:0:
320,192,99942,1,0,0:0:0:0:
64,192,99942,1,0,0:0:0:0:
448,192,100317,1,0,0:0:0:0:
192,192,100317,1,0,0:0:0:0:
320,192,100317,128,0,100505:0:0:0:0:
64,192,100692,1,0,0:0:0:0:
192,192,100692,1,0,0:0:0:0:
448,192,100692,128,0,100880:0:0:0:0:
320,192,100880,1,0,0:0:0:0:
192,192,100973,1,0,0:0:0:0:
64,192,101067,1,0,0:0:0:0:
320,192,101067,1,0,0:0:0:0:
448,192,101067,128,0,101255:0:0:0:0:
320,192,101255,1,0,0:0:0:0:
192,192,101255,1,0,0:0:0:0:
192,192,101348,1,0,0:0:0:0:
64,192,101442,1,0,0:0:0:0:
320,192,101536,1,0,0:0:0:0:
64,192,101630,1,0,0:0:0:0:
448,192,101630,128,0,102005:0:0:0:0:
192,192,101630,128,0,101817:0:0:0:0:
320,192,102005,128,0,102380:0:0:0:0:
64,192,102005,128,0,102192:0:0:0:0:
192,192,102192,128,0,102380:0:0:0:0:
64,192,102286,1,0,0:0:0:0:
448,192,102380,128,0,102755:0:0:0:0:
320,192,102567,1,0,0:0:0:0:
320,192,102755,1,0,0:0:0:0:
64,192,102755,1,0,0:0:0:0:
448,192,102942,1,0,0:0:0:0:
192,192,102942,1,0,0:0:0:0:
64,192,102942,128,0,103317:0:0:0:0:
320,192,103130,1,0,0:0:0:0:
320,192,103317,128,0,103598:0:0:0:0:
448,192,103317,1,0,0:0:0:0:
192,192,103692,128,0,103880:0:0:0:0:
64,192,103692,1,0,0:0:0:0:
448,192,103692,1,0,0:0:0:0:
320,192,103880,1,0,0:0:0:0:
448,192,104067,1,0,0:0:0:0:
64,192,104067,1,0,0:0:0:0:
448,192,104255,1,0,0:0:0:0:
192,192,104255,1,0,0:0:0:0:
320,192,104442,1,0,0:0:0:0:
448,192,104442,1,0,0:0:0:0:
64,192,104536,1,0,0:0:0:0:
448,192,104630,1,0,0:0:0:0:
192,192,104630,128,0,104817:0:0:0:0:
448,192,104817,1,0,0:0:0:0:
64,192,105005,1,0,0:0:0:0:
192,192,105005,128,0,105192:0:0:0:0:
320,192,105192,128,0,105380:0:0:0:0:
448,192,105192,1,0,0:0:0:0:
192,192,105380,1,0,0:0:0:0:
64,192,105380,128,0,105755:0:0:0:0:
192,192,105567,1,0,0:0:0:0:
448,192,105567,128,0,105755:0:0:0:0:
192,192,105755,1,0,0:0:0:0:
64,192,105942,1,0,0:0:0:0:
448,192,105942,1,0,0:0:0:0:
192,192,105942,128,0,106130:0:0:0:0:
192,192,106317,1,0,0:0:0:0:
64,192,106317,1,0,0:0:0:0:
320,192,106317,1,0,0:0:0:0:
64,192,106692,1,0,0:0:0:0:
192,192,106692,1,0,0:0:0:0:
448,192,106692,1,0,0:0:0:0:
192,192,107067,1,0,0:0:0:0:
448,192,107067,1,0,0:0:0:0:
320,192,107067,128,0,107536:0:0:0:0:
448,192,107442,1,0,0:0:0:0:
192,192,107536,1,0,0:0:0:0:
448,192,107630,1,0,0:0:0:0:
320,192,107630,1,0,0:0:0:0:
64,192,107630,128,0,108005:0:0:0:0:
320,192,108005,1,0,0:0:0:0:
448,192,108005,128,0,108380:0:0:0:0:
64,192,108286,1,0,0:0:0:0:
320,192,108380,128,0,108755:0:0:0:0:
192,192,108380,128,0,108567:0:0:0:0:
448,192,108567,128,0,108755:0:0:0:0:
192,192,108755,1,0,0:0:0:0:
448,192,108942,128,0,109317:0:0:0:0:
64,192,108942,1,0,0:0:0:0:
192,192,108942,1,0,0:0:0:0:
192,192,109130,1,0,0:0:0:0:
64,192,109317,1,0,0:0:0:0:
320,192,109317,1,0,0:0:0:0:
64,192,109692,1,0,0:0:0:0:
192,192,109692,1,0,0:0:0:0:
448,192,109692,1,0,0:0:0:0:
64,192,109880,128,0,110255:0:0:0:0:
448,192,110067,1,0,0:0:0:0:
320,192,110067,128,0,110255:0:0:0:0:
448,192,110255,1,0,0:0:0:0:
64,192,110442,1,0,0:0:0:0:
192,192,110442,1,0,0:0:0:0:
320,192,110630,1,0,0:0:0:0:
448,192,110630,1,0,0:0:0:0:
192,192,110630,128,0,111005:0:0:0:0:
448,192,111005,1,0,0:0:0:0:
64,192,111005,128,0,111192:0:0:0:0:
192,192,111192,128,0,111473:0:0:0:0:
448,192,111192,1,0,0:0:0:0:
64,192,111380,1,0,0:0:0:0:
64,192,111567,1,0,0:0:0:0:
192,192,111567,1,0,0:0:0:0:
64,192,111942,1,0,0:0:0:0:
192,192,111942,1,0,0:0:0:0:
448,192,111942,1,0,0:0:0:0:
192,192,112130,128,0,112692:0:0:0:0:
64,192,112130,1,0,0:0:0:0:
448,192,112130,1,0,0:0:0:0:
320,192,112317,1,0,0:0:0:0:
64,192,112317,1,0,0:0:0:0:
320,192,112505,1,0,0:0:0:0:
448,192,112692,128,0,113067:0:0:0:0:
192,192,112880,1,0,0:0:0:0:
320,192,113067,1,0,0:0:0:0:
64,192,113067,128,0,113442:0:0:0:0:
192,192,113255,1,0,0:0:0:0:
448,192,113348,1,0,0:0:0:0:
320,192,113442,1,0,0:0:0:0:
64,192,113536,1,0,0:0:0:0:
448,192,113630,128,0,114005:0:0:0:0:
192,192,113630,1,0,0:0:0:0:
320,192,113630,1,0,0:0:0:0:
320,192,114005,128,0,114380:0:0:0:0:
64,192,114005,1,0,0:0:0:0:
192,192,114192,1,0,0:0:0:0:
64,192,114380,128,0,114755:0:0:0:0:
448,192,114380,1,0,0:0:0:0:
192,192,114755,1,0,0:0:0:0:
320,192,114942,128,0,115130:0:0:0:0:
192,192,114942,1,0,0:0:0:0:
448,192,115223,1,0,0:0:0:0:
320,192,115223,1,0,0:0:0:0:
192,192,115317,1,0,0:0:0:0:
64,192,115317,1,0,0:0:0:0:
448,192,115317,1,0,0:0:0:0:
192,192,115692,1,0,0:0:0:0:
320,192,115692,1,0,0:0:0:0:
448,192,115880,1,0,0:0:0:0:
64,192,115880,1,0,0:0:0:0:
320,192,115880,128,0,116442:0:0:0:0:
64,192,116630,128,0,117192:0:0:0:0:
320,192,116630,1,0,0:0:0:0:
448,192,116630,1,0,0:0:0:0:
320,192,117005,1,0,0:0:0:0:
192,192,117192,1,0,0:0:0:0:
320,192,117380,1,0,0:0:0:0:
64,192,117380,128,0,117755:0:0:0:0:
448,192,117380,1,0,0:0:0:0:
320,192,117567,1,0,0:0:0:0:
192,192,117755,128,0,117942:0:0:0:0:
320,192,117755,1,0,0:0:0:0:
448,192,117942,1,0,0:0:0:0:
64,192,117942,1,0,0:0:0:0:
64,192,118317,1,0,0:0:0:0:
448,192,118317,1,0,0:0:0:0:
192,192,118317,128,0,118505:0:0:0:0:
192,192,118692,1,0,0:0:0:0:
320,192,118692,1,0,0:0:0:0:
448,192,118692,1,0,0:0:0:0:
64,192,119067,1,0,0:0:0:0:
192,192,119067,1,0,0:0:0:0:
320,192,119067,128,0,119630:0:0:0:0:
192,192,119255,1,0,0:0:0:0:
448,192,119348,1,0,0:0:0:0:
192,192,119442,1,0,0:0:0:0:
64,192,119536,1,0,0:0:0:0:
448,192,119630,128,0,120005:0:0:0:0:
192,192,119630,1,0,0:0:0:0:
192,192,120005,128,0,120380:0:0:0:0:
64,192,120005,1,0,0:0:0:0:
448,192,120380,128,0,120661:0:0:0:0:
320,192,120380,1,0,0:0:0:0:
192,192,120567,1,0,0:0:0:0:
64,192,120567,1,0,0:0:0:0:
320,192,120755,1,0,0:0:0:0:
448,192,120942,128,0,121505:0:0:0:0:
320,192,120942,1,0,0:0:0:0:
64,192,120942,1,0,0:0:0:0:
192,192,121317,1,0,0:0:0:0:
320,192,121317,128,0,121692:0:0:0:0:
64,192,121505,1,0,0:0:0:0:
448,192,121692,1,0,0:0:0:0:
192,192,121786,1,0,0:0:0:0:
448,192,121880,128,0,122067:0:0:0:0:
320,192,121880,1,0,0:0:0:0:
320,192,122067,128,0,122255:0:0:0:0:
64,192,122067,1,0,0:0:0:0:
64,192,122255,128,0,122442:0:0:0:0:
192,192,122255,1,0,0:0:0:0:
448,192,122442,1,0,0:0:0:0:
192,192,122630,128,0,123192:0:0:0:0:
448,192,122630,1,0,0:0:0:0:
64,192,122630,1,0,0:0:0:0:
64,192,122817,1,0,0:0:0:0:
320,192,123005,1,0,0:0:0:0:
448,192,123098,1,0,0:0:0:0:
64,192,123192,1,0,0:0:0:0:
320,192,123192,128,0,123380:0:0:0:0:
64,192,123380,1,0,0:0:0:0:
192,192,123567,1,0,0:0:0:0:
320,192,123567,128,0,123942:0:0:0:0:
64,192,123567,1,0,0:0:0:0:
448,192,123755,1,0,0:0:0:0:
192,192,123755,1,0,0:0:0:0:
448,192,123942,1,0,0:0:0:0:
64,192,123942,128,0,124317:0:0:0:0:
192,192,124130,1,0,0:0:0:0:
448,192,124130,1,0,0:0:0:0:
320,192,124317,1,0,0:0:0:0:
320,192,124505,1,0,0:0:0:0:
64,192,124692,1,0,0:0:0:0:
192,192,124692,1,0,0:0:0:0:
448,192,124692,128,0,124880:0:0:0:0:
320,192,124880,1,0,0:0:0:0:
192,192,124973,1,0,0:0:0:0:
64,192,125067,1,0,0:0:0:0:
320,192,125067,1,0,0:0:0:0:
448,192,125067,128,0,125442:0:0:0:0:
192,192,125348,1,0,0:0:0:0:
64,192,125442,1,0,0:0:0:0:
320,192,125536,1,0,0:0:0:0:
448,192,125630,1,0,0:0:0:0:
64,192,125630,1,0,0:0:0:0:
192,192,125630,1,0,0:0:0:0:
320,192,125723,1,0,0:0:0:0:
64,192,126005,1,0,0:0:0:0:
192,192,126005,1,0,0:0:0:0:
320,192,126005,1,0,0:0:0:0:
192,192,126192,1,0,0:0:0:0:
320,192,126380,1,0,0:0:0:0:
192,192,126567,1,0,0:0:0:0:
320,192,126567,1,0,0:0:0:0:
448,192,126942,1,0,0:0:0:0:
64,192,126942,1,0,0:0:0:0:
192,192,126942,128,0,127317:0:0:0:0:
320,192,127317,1,0,0:0:0:0:
448,192,127317,1,0,0:0:0:0:
64,192,127505,1,0,0:0:0:0:
192,192,127692,1,0,0:0:0:0:
320,192,127692,128,0,128067:0:0:0:0:
64,192,127692,1,0,0:0:0:0:
64,192,128067,1,0,0:0:0:0:
448,192,128067,1,0,0:0:0:0:
64,192,128255,1,0,0:0:0:0:
192,192,128255,1,0,0:0:0:0:
320,192,128442,1,0,0:0:0:0:
64,192,128536,1,0,0:0:0:0:
448,192,128630,1,0,0:0:0:0:
320,192,128630,1,0,0:0:0:0:
320,192,128817,1,0,0:0:0:0:
192,192,129005,1,0,0:0:0:0:
64,192,129005,1,0,0:0:0:0:
448,192,129005,128,0,129098:0:0:0:0:
192,192,129192,1,0,0:0:0:0:
64,192,129380,128,0,129942:0:0:0:0:
320,192,129473,1,0,0:0:0:0:
192,192,129567,128,0,129755:0:0:0:0:
448,192,129567,1,0,0:0:0:0:
448,192,129942,128,0,130317:0:0:0:0:
320,192,129942,1,0,0:0:0:0:
64,192,130317,1,0,0:0:0:0:
192,192,130317,128,0,130692:0:0:0:0:
448,192,130505,1,0,0:0:0:0:
448,192,130692,1,0,0:0:0:0:
320,192,130692,128,0,131067:0:0:0:0:
448,192,131067,1,0,0:0:0:0:
64,192,131067,128,0,131630:0:0:0:0:
192,192,131255,1,0,0:0:0:0:
320,192,131348,1,0,0:0:0:0:
448,192,131442,1,0,0:0:0:0:
320,192,131536,1,0,0:0:0:0:
448,192,131630,1,0,0:0:0:0:
192,192,131630,1,0,0:0:0:0:
448,192,132005,1,0,0:0:0:0:
320,192,132005,128,0,132098:0:0:0:0:
64,192,132192,1,0,0:0:0:0:
192,192,132192,128,0,132286:0:0:0:0:
320,192,132380,1,0,0:0:0:0:
448,192,132380,128,0,132473:0:0:0:0:
192,192,132567,1,0,0:0:0:0:
320,192,132567,128,0,132848:0:0:0:0:
192,192,132942,1,0,0:0:0:0:
64,192,132942,128,0,133317:0:0:0:0:
320,192,132942,1,0,0:0:0:0:
448,192,133317,1,0,0:0:0:0:
192,192,133317,1,0,0:0:0:0:
320,192,133505,1,0,0:0:0:0:
192,192,133505,1,0,0:0:0:0:
448,192,133692,1,0,0:0:0:0:
320,192,133692,1,0,0:0:0:0:
64,192,133692,128,0,134067:0:0:0:0:
448,192,134067,1,0,0:0:0:0:
192,192,134067,1,0,0:0:0:0:
320,192,134255,1,0,0:0:0:0:
64,192,134255,1,0,0:0:0:0:
64,192,134442,1,0,0:0:0:0:
320,192,134442,1,0,0:0:0:0:
192,192,134442,128,0,135005:0:0:0:0:
448,192,134817,1,0,0:0:0:0:
64,192,134817,1,0,0:0:0:0:
320,192,135005,1,0,0:0:0:0:
64,192,135192,128,0,135755:0:0:0:0:
320,192,135192,1,0,0:0:0:0:
448,192,135192,1,0,0:0:0:0:
192,192,135567,1,0,0:0:0:0:
448,192,135567,1,0,0:0:0:0:
320,192,135755,1,0,0:0:0:0:
448,192,135755,1,0,0:0:0:0:
320,192,135942,1,0,0:0:0:0:
192,192,135942,128,0,136317:0:0:0:0:
448,192,136317,1,0,0:0:0:0:
64,192,136317,1,0,0:0:0:0:
64,192,136505,1,0,0:0:0:0:
192,192,136505,1,0,0:0:0:0:
320,192,136505,1,0,0:0:0:0:
320,192,136692,1,0,0:0:0:0:
448,192,136692,1,0,0:0:0:0:
448,192,137067,1,0,0:0:0:0:
64,192,137067,1,0,0:0:0:0:
192,192,137067,1,0,0:0:0:0:
64,192,137442,1,0,0:0:0:0:
192,192,137536,1,0,0:0:0:0:
448,192,137630,1,0,0:0:0:0:
64,192,137630,1,0,0:0:0:0:
320,192,137630,1,0,0:0:0:0:
192,192,137817,1,0,0:0:0:0:
192,192,138005,1,0,0:0:0:0:
448,192,138005,1,0,0:0:0:0:
320,192,138192,1,0,0:0:0:0:
320,192,138380,1,0,0:0:0:0:
192,192,138380,1,0,0:0:0:0:
448,192,138567,1,0,0:0:0:0:
64,192,138755,1,0,0:0:0:0:
320,192,138755,1,0,0:0:0:0:
192,192,138942,1,0,0:0:0:0:
448,192,139130,1,0,0:0:0:0:
192,192,139130,1,0,0:0:0:0:
320,192,139317,1,0,0:0:0:0:
192,192,139505,1,0,0:0:0:0:
64,192,139505,1,0,0:0:0:0:
448,192,139692,1,0,0:0:0:0:
320,192,139692,1,0,0:0:0:0:
320,192,140067,1,0,0:0:0:0:
192,192,140255,1,0,0:0:0:0:
448,192,140255,128,0,140630:0:0:0:0:
64,192,140630,1,0,0:0:0:0:
320,192,140630,1,0,0:0:0:0:
448,192,140817,1,0,0:0:0:0:
64,192,141005,1,0,0:0:0:0:
448,192,141005,1,0,0:0:0:0:
192,192,141192,1,0,0:0:0:0:
64,192,141192,128,0,141567:0:0:0:0:
320,192,141286,1,0,0:0:0:0:
448,192,141380,128,0,141567:0:0:0:0:
320,192,141567,1,0,0:0:0:0:
192,192,141755,1,0,0:0:0:0:
320,192,141755,1,0,0:0:0:0:
448,192,141942,1,0,0:0:0:0:
192,192,141942,1,0,0:0:0:0:
320,192,142130,128,0,142317:0:0:0:0:
448,192,142130,1,0,0:0:0:0:
192,192,142317,128,0,142505:0:0:0:0:
448,192,142505,128,0,142692:0:0:0:0:
64,192,142505,1,0,0:0:0:0:
192,192,142598,1,0,0:0:0:0:
320,192,142692,128,0,142880:0:0:0:0:
448,192,142786,128,0,142880:0:0:0:0:
64,192,142880,128,0,143067:0:0:0:0:
192,192,143067,128,0,143442:0:0:0:0:
320,192,143067,1,0,0:0:0:0:
64,192,143255,1,0,0:0:0:0:
448,192,143442,1,0,0:0:0:0:
64,192,143630,1,0,0:0:0:0:
320,192,143630,1,0,0:0:0:0:
192,192,143630,1,0,0:0:0:0:
64,192,143817,1,0,0:0:0:0:
448,192,143817,128,0,144005:0:0:0:0:
320,192,143817,1,0,0:0:0:0:
192,192,144005,1,0,0:0:0:0:
64,192,144192,1,0,0:0:0:0:
448,192,144286,1,0,0:0:0:0:
320,192,144380,1,0,0:0:0:0:
192,192,144380,128,0,144942:0:0:0:0:
320,192,144567,1,0,0:0:0:0:
448,192,144567,1,0,0:0:0:0:
64,192,144755,128,0,144942:0:0:0:0:
448,192,144755,1,0,0:0:0:0:
320,192,144942,1,0,0:0:0:0:
448,192,145223,1,0,0:0:0:0:
320,192,145317,1,0,0:0:0:0:
192,192,145317,1,0,0:0:0:0:
64,192,145505,1,0,0:0:0:0:
192,192,145505,1,0,0:0:0:0:
448,192,145505,1,0,0:0:0:0:
64,192,145692,1,0,0:0:0:0:
320,192,145692,1,0,0:0:0:0:
192,192,145880,128,0,146067:0:0:0:0:
320,192,145880,1,0,0:0:0:0:
448,192,145880,1,0,0:0:0:0:
64,192,146161,1,0,0:0:0:0:
320,192,146255,1,0,0:0:0:0:
320,192,146442,1,0,0:0:0:0:
320,192,146630,1,0,0:0:0:0:
448,192,146630,1,0,0:0:0:0:
192,192,146630,128,0,146817:0:0:0:0:
64,192,147005,1,0,0:0:0:0:
192,192,147005,1,0,0:0:0:0:
320,192,147005,128,0,147192:0:0:0:0:
192,192,147380,1,0,0:0:0:0:
448,192,147380,128,0,147473:0:0:0:0:
64,192,147567,1,0,0:0:0:0:
192,192,147567,1,0,0:0:0:0:
320,192,147755,128,0,147942:0:0:0:0:
448,192,147942,1,0,0:0:0:0:
64,192,147942,128,0,148317:0:0:0:0:
320,192,148130,1,0,0:0:0:0:
192,192,148317,1,0,0:0:0:0:
320,192,148317,128,0,148505:0:0:0:0:
448,192,148505,1,0,0:0:0:0:
192,192,148692,1,0,0:0:0:0:
448,192,148692,1,0,0:0:0:0:
320,192,148692,1,0,0:0:0:0:
192,192,148880,1,0,0:0:0:0:
320,192,148880,1,0,0:0:0:0:
64,192,149067,1,0,0:0:0:0:
448,192,149067,1,0,0:0:0:0:
192,192,149067,128,0,149630:0:0:0:0:
448,192,149255,1,0,0:0:0:0:
320,192,149442,1,0,0:0:0:0:
320,192,149630,1,0,0:0:0:0:
448,192,149630,128,0,150005:0:0:0:0:
192,192,149817,1,0,0:0:0:0:
320,192,150005,128,0,150380:0:0:0:0:
192,192,150005,1,0,0:0:0:0:
64,192,150192,1,0,0:0:0:0:
192,192,150380,128,0,150755:0:0:0:0:
64,192,150380,1,0,0:0:0:0:
448,192,150567,1,0,0:0:0:0:
64,192,150755,128,0,150942:0:0:0:0:
448,192,150755,1,0,0:0:0:0:
320,192,150942,1,0,0:0:0:0:
192,192,150942,128,0,151223:0:0:0:0:
448,192,151130,1,0,0:0:0:0:
320,192,151317,128,0,151505:0:0:0:0:
64,192,151317,128,0,151692:0:0:0:0:
448,192,151317,1,0,0:0:0:0:
192,192,151692,1,0,0:0:0:0:
320,192,151692,128,0,151880:0:0:0:0:
448,192,151880,1,0,0:0:0:0:
64,192,151880,128,0,152067:0:0:0:0:
192,192,152067,1,0,0:0:0:0:
320,192,152067,1,0,0:0:0:0:
448,192,152067,128,0,152161:0:0:0:0:
192,192,152255,1,0,0:0:0:0:
448,192,152255,1,0,0:0:0:0:
64,192,152255,128,0,152536:0:0:0:0:
320,192,152442,1,0,0:0:0:0:
320,192,152630,1,0,0:0:0:0:
192,192,152630,1,0,0:0:0:0:
64,192,152630,128,0,153005:0:0:0:0:
448,192,152817,1,0,0:0:0:0:
320,192,153005,128,0,153380:0:0:0:0:
448,192,153005,1,0,0:0:0:0:
192,192,153192,1,0,0:0:0:0:
192,192,153380,1,0,0:0:0:0:
64,192,153380,128,0,153755:0:0:0:0:
320,192,153567,1,0,0:0:0:0:
320,192,153755,1,0,0:0:0:0:
448,192,153755,128,0,153942:0:0:0:0:
192,192,153942,128,0,154317:0:0:0:0:
64,192,153942,1,0,0:0:0:0:
320,192,153942,128,0,154505:0:0:0:0:
448,192,154317,1,0,0:0:0:0:
64,192,154317,128,0,154692:0:0:0:0:
320,192,154692,1,0,0:0:0:0:
448,192,154692,1,0,0:0:0:0:
192,192,154692,128,0,154880:0:0:0:0:
320,192,154880,128,0,155067:0:0:0:0:
448,192,154973,1,0,0:0:0:0:
192,192,155067,1,0,0:0:0:0:
64,192,155067,128,0,155255:0:0:0:0:
192,192,155255,1,0,0:0:0:0:
448,192,155255,1,0,0:0:0:0:
320,192,155255,128,0,155536:0:0:0:0:
64,192,155442,1,0,0:0:0:0:
448,192,155442,1,0,0:0:0:0:
64,192,155630,1,0,0:0:0:0:
192,192,155630,1,0,0:0:0:0:
448,192,155630,128,0,156005:0:0:0:0:
320,192,155817,1,0,0:0:0:0:
320,192,156005,1,0,0:0:0:0:
64,192,156005,128,0,156380:0:0:0:0:
448,192,156192,1,0,0:0:0:0:
448,192,156380,1,0,0:0:0:0:
192,192,156380,128,0,156755:0:0:0:0:
64,192,156567,1,0,0:0:0:0:
64,192,156755,1,0,0:0:0:0:
320,192,156755,1,0,0:0:0:0:
192,192,156942,1,0,0:0:0:0:
448,192,156942,128,0,157317:0:0:0:0:
64,192,157130,1,0,0:0:0:0:
320,192,157317,128,0,157692:0:0:0:0:
64,192,157317,1,0,0:0:0:0:
192,192,157505,1,0,0:0:0:0:
448,192,157692,1,0,0:0:0:0:
64,192,157692,128,0,158067:0:0:0:0:
320,192,157880,1,0,0:0:0:0:
192,192,158067,1,0,0:0:0:0:
448,192,158067,1,0,0:0:0:0:
320,192,158255,1,0,0:0:0:0:
64,192,158255,1,0,0:0:0:0:
448,192,158442,1,0,0:0:0:0:
192,192,158442,1,0,0:0:0:0:
64,192,158442,128,0,158630:0:0:0:0:
320,192,158630,128,0,159755:0:0:0:0:
192,192,158630,1,0,0:0:0:0:
448,192,159380,128,0,160130:0:0:0:0:
64,192,159473,128,0,159755:0:0:0:0:
192,192,159755,128,0,160130:0:0:0:0:
192,192,160317,128,0,160505:0:0:0:0:
64,192,160317,1,0,0:0:0:0:
320,192,160505,128,0,160692:0:0:0:0:
448,192,160692,128,0,161067:0:0:0:0:
64,192,160880,128,0,161067:0:0:0:0:
320,192,160880,1,0,0:0:0:0:
192,192,161067,128,0,161255:0:0:0:0:
64,192,161255,128,0,161442:0:0:0:0:
192,192,161442,1,0,0:0:0:0:
320,192,161536,1,0,0:0:0:0:
64,192,161630,1,0,0:0:0:0:
192,192,161630,1,0,0:0:0:0:
448,192,161630,128,0,162098:0:0:0:0:
320,192,161817,1,0,0:0:0:0:
192,192,161911,1,0,0:0:0:0:
64,192,162005,1,0,0:0:0:0:
320,192,162192,1,0,0:0:0:0:
64,192,162192,128,0,162755:0:0:0:0:
448,192,162192,1,0,0:0:0:0:
192,192,162380,1,0,0:0:0:0:
320,192,162473,1,0,0:0:0:0:
448,192,162567,1,0,0:0:0:0:
320,192,162755,1,0,0:0:0:0:
192,192,162755,1,0,0:0:0:0:
320,192,163317,128,0,163505:0:0:0:0:
192,192,163411,1,0,0:0:0:0:
64,192,163505,128,0,163692:0:0:0:0:
448,192,163880,128,0,164067:0:0:0:0:
320,192,163973,1,0,0:0:0:0:
192,192,164067,1,0,0:0:0:0:
192,192,164442,1,0,0:0:0:0:
320,192,164536,1,0,0:0:0:0:
448,192,164630,1,0,0:0:0:0:
64,192,164630,1,0,0:0:0:0:
192,192,164630,128,0,165192:0:0:0:0:
320,192,164817,1,0,0:0:0:0:
448,192,164911,1,0,0:0:0:0:
64,192,165005,1,0,0:0:0:0:
320,192,165192,128,0,165755:0:0:0:0:
64,192,165192,1,0,0:0:0:0:
192,192,165380,1,0,0:0:0:0:
64,192,165473,1,0,0:0:0:0:
448,192,165567,1,0,0:0:0:0:
448,192,165755,1,0,0:0:0:0:
64,192,165755,1,0,0:0:0:0:
192,192,166317,1,0,0:0:0:0:
64,192,166411,1,0,0:0:0:0:
192,192,166505,1,0,0:0:0:0:
320,192,166598,1,0,0:0:0:0:
192,192,166692,1,0,0:0:0:0:
64,192,166786,1,0,0:0:0:0:
320,192,166880,1,0,0:0:0:0:
448,192,166880,1,0,0:0:0:0:
192,192,166973,1,0,0:0:0:0:
64,192,167067,1,0,0:0:0:0:
192,192,167161,1,0,0:0:0:0:
448,192,167255,1,0,0:0:0:0:
192,192,167348,1,0,0:0:0:0:
448,192,167442,1,0,0:0:0:0:
192,192,167536,1,0,0:0:0:0:
64,192,167630,1,0,0:0:0:0:
320,192,167630,1,0,0:0:0:0:
448,192,167630,128,0,168005:0:0:0:0:
64,192,167817,1,0,0:0:0:0:
192,192,168005,1,0,0:0:0:0:
64,192,168005,1,0,0:0:0:0:
320,192,168098,1,0,0:0:0:0:
448,192,168192,1,0,0:0:0:0:
64,192,168192,1,0,0:0:0:0:
320,192,168192,128,0,168567:0:0:0:0:
192,192,168380,1,0,0:0:0:0:
64,192,168473,1,0,0:0:0:0:
192,192,168567,1,0,0:0:0:0:
448,192,168567,1,0,0:0:0:0:
192,192,168755,1,0,0:0:0:0:
320,192,168755,1,0,0:0:0:0:
64,192,168755,128,0,169130:0:0:0:0:
192,192,168942,1,0,0:0:0:0:
320,192,169036,1,0,0:0:0:0:
448,192,169130,1,0,0:0:0:0:
320,192,169317,1,0,0:0:0:0:
192,192,169317,1,0,0:0:0:0:
448,192,169317,128,0,169692:0:0:0:0:
320,192,169505,1,0,0:0:0:0:
192,192,169598,1,0,0:0:0:0:
320,192,169692,1,0,0:0:0:0:
64,192,169692,1,0,0:0:0:0:
448,192,169880,1,0,0:0:0:0:
192,192,169880,1,0,0:0:0:0:
64,192,169880,1,0,0:0:0:0:
192,192,170067,1,0,0:0:0:0:
320,192,170255,1,0,0:0:0:0:
64,192,170255,1,0,0:0:0:0:
448,192,170255,1,0,0:0:0:0:
320,192,170442,1,0,0:0:0:0:
64,192,170536,1,0,0:0:0:0:
320,192,170630,1,0,0:0:0:0:
192,192,170630,1,0,0:0:0:0:
448,192,170630,128,0,171005:0:0:0:0:
64,192,170817,1,0,0:0:0:0:
192,192,171005,1,0,0:0:0:0:
192,192,171192,1,0,0:0:0:0:
320,192,171192,1,0,0:0:0:0:
64,192,171192,128,0,171567:0:0:0:0:
448,192,171380,1,0,0:0:0:0:
320,192,171567,1,0,0:0:0:0:
448,192,171755,1,0,0:0:0:0:
320,192,171755,1,0,0:0:0:0:
64,192,171755,1,0,0:0:0:0:
192,192,171755,128,0,173255:0:0:0:0:
64,192,172692,1,0,0:0:0:0:
448,192,172692,1,0,0:0:0:0:
320,192,173067,128,0,173630:0:0:0:0:
448,192,173255,1,0,0:0:0:0:
64,192,173442,1,0,0:0:0:0:
192,192,173536,1,0,0:0:0:0:
64,192,173630,128,0,174005:0:0:0:0:
448,192,173630,1,0,0:0:0:0:
192,192,174005,128,0,174380:0:0:0:0:
320,192,174005,1,0,0:0:0:0:
448,192,174005,1,0,0:0:0:0:
448,192,174286,1,0,0:0:0:0:
320,192,174380,1,0,0:0:0:0:
64,192,174380,128,0,174755:0:0:0:0:
192,192,174567,1,0,0:0:0:0:
448,192,174755,1,0,0:0:0:0:
192,192,174755,1,0,0:0:0:0:
448,192,174942,128,0,175317:0:0:0:0:
64,192,174942,1,0,0:0:0:0:
320,192,174942,1,0,0:0:0:0:
192,192,175130,1,0,0:0:0:0:
192,192,175317,128,0,175598:0:0:0:0:
64,192,175317,1,0,0:0:0:0:
320,192,175692,128,0,175880:0:0:0:0:
64,192,175692,1,0,0:0:0:0:
448,192,175692,1,0,0:0:0:0:
192,192,175880,1,0,0:0:0:0:
448,192,175880,1,0,0:0:0:0:
448,192,176067,1,0,0:0:0:0:
64,192,176067,1,0,0:0:0:0:
64,192,176255,1,0,0:0:0:0:
320,192,176255,1,0,0:0:0:0:
64,192,176442,1,0,0:0:0:0:
192,192,176442,1,0,0:0:0:0:
192,192,176536,1,0,0:0:0:0:
64,192,176630,128,0,177380:0:0:0:0:
320,192,176630,1,0,0:0:0:0:
448,192,176630,128,0,176817:0:0:0:0:
192,192,177005,1,0,0:0:0:0:
448,192,177005,1,0,0:0:0:0:
320,192,177192,1,0,0:0:0:0:
448,192,177286,128,0,177755:0:0:0:0:
320,192,177380,1,0,0:0:0:0:
192,192,177473,1,0,0:0:0:0:
320,192,177567,1,0,0:0:0:0:
192,192,177567,1,0,0:0:0:0:
192,192,177942,1,0,0:0:0:0:
64,192,177942,1,0,0:0:0:0:
448,192,177942,1,0,0:0:0:0:
320,192,178317,1,0,0:0:0:0:
192,192,178317,1,0,0:0:0:0:
448,192,178317,1,0,0:0:0:0:
64,192,178692,1,0,0:0:0:0:
320,192,178692,1,0,0:0:0:0:
448,192,178692,1,0,0:0:0:0:
320,192,179067,1,0,0:0:0:0:
64,192,179067,1,0,0:0:0:0:
192,192,179067,128,0,179536:0:0:0:0:
64,192,179442,1,0,0:0:0:0:
320,192,179536,1,0,0:0:0:0:
64,192,179630,1,0,0:0:0:0:
192,192,179630,1,0,0:0:0:0:
448,192,179630,128,0,180005:0:0:0:0:
64,192,180005,128,0,180380:0:0:0:0:
192,192,180005,1,0,0:0:0:0:
448,192,180286,1,0,0:0:0:0:
192,192,180380,128,0,180755:0:0:0:0:
320,192,180380,1,0,0:0:0:0:
64,192,180567,1,0,0:0:0:0:
320,192,180755,1,0,0:0:0:0:
64,192,180942,128,0,181317:0:0:0:0:
448,192,180942,1,0,0:0:0:0:
320,192,180942,1,0,0:0:0:0:
320,192,181130,1,0,0:0:0:0:
192,192,181317,128,0,181598:0:0:0:0:
448,192,181317,1,0,0:0:0:0:
448,192,181692,1,0,0:0:0:0:
192,192,181692,1,0,0:0:0:0:
64,192,181880,1,0,0:0:0:0:
320,192,181880,1,0,0:0:0:0:
192,192,182067,1,0,0:0:0:0:
320,192,182067,1,0,0:0:0:0:
64,192,182255,1,0,0:0:0:0:
448,192,182255,1,0,0:0:0:0:
320,192,182442,1,0,0:0:0:0:
448,192,182442,1,0,0:0:0:0:
64,192,182536,1,0,0:0:0:0:
320,192,182630,1,0,0:0:0:0:
448,192,182630,1,0,0:0:0:0:
192,192,182630,128,0,183005:0:0:0:0:
448,192,183005,128,0,183192:0:0:0:0:
64,192,183005,1,0,0:0:0:0:
320,192,183192,128,0,183567:0:0:0:0:
64,192,183192,1,0,0:0:0:0:
192,192,183286,1,0,0:0:0:0:
448,192,183380,1,0,0:0:0:0:
192,192,183567,1,0,0:0:0:0:
448,192,183567,1,0,0:0:0:0:
64,192,183755,1,0,0:0:0:0:
320,192,183755,1,0,0:0:0:0:
64,192,183942,1,0,0:0:0:0:
192,192,183942,1,0,0:0:0:0:
320,192,184130,128,0,184692:0:0:0:0:
64,192,184130,1,0,0:0:0:0:
448,192,184130,1,0,0:0:0:0:
192,192,184317,1,0,0:0:0:0:
64,192,184317,1,0,0:0:0:0:
192,192,184505,1,0,0:0:0:0:
448,192,184692,128,0,184880:0:0:0:0:
192,192,184880,1,0,0:0:0:0:
320,192,184880,1,0,0:0:0:0:
320,192,185067,1,0,0:0:0:0:
64,192,185067,1,0,0:0:0:0:
192,192,185161,1,0,0:0:0:0:
64,192,185255,1,0,0:0:0:0:
448,192,185348,1,0,0:0:0:0:
320,192,185442,1,0,0:0:0:0:
448,192,185536,1,0,0:0:0:0:
64,192,185630,128,0,186005:0:0:0:0:
192,192,185630,1,0,0:0:0:0:
320,192,185630,1,0,0:0:0:0:
192,192,186005,128,0,186380:0:0:0:0:
448,192,186005,1,0,0:0:0:0:
64,192,186286,1,0,0:0:0:0:
448,192,186380,128,0,186755:0:0:0:0:
320,192,186380,1,0,0:0:0:0:
64,192,186567,1,0,0:0:0:0:
320,192,186567,1,0,0:0:0:0:
192,192,186755,1,0,0:0:0:0:
320,192,186942,128,0,187317:0:0:0:0:
64,192,186942,1,0,0:0:0:0:
448,192,186942,1,0,0:0:0:0:
192,192,187317,1,0,0:0:0:0:
64,192,187317,1,0,0:0:0:0:
448,192,187505,1,0,0:0:0:0:
320,192,187505,1,0,0:0:0:0:
64,192,187505,1,0,0:0:0:0:
192,192,187692,1,0,0:0:0:0:
320,192,187692,1,0,0:0:0:0:
320,192,187880,1,0,0:0:0:0:
448,192,187880,1,0,0:0:0:0:
64,192,188067,1,0,0:0:0:0:
192,192,188067,1,0,0:0:0:0:
192,192,188255,1,0,0:0:0:0:
448,192,188255,1,0,0:0:0:0:
448,192,188442,1,0,0:0:0:0:
64,192,188442,1,0,0:0:0:0:
320,192,188536,1,0,0:0:0:0:
64,192,188630,128,0,188817:0:0:0:0:
192,192,188817,1,0,0:0:0:0:
320,192,188817,128,0,189005:0:0:0:0:
448,192,189005,1,0,0:0:0:0:
64,192,189005,128,0,189192:0:0:0:0:
320,192,189192,1,0,0:0:0:0:
448,192,189192,128,0,189380:0:0:0:0:
192,192,189286,1,0,0:0:0:0:
192,192,189380,128,0,189567:0:0:0:0:
64,192,189380,1,0,0:0:0:0:
448,192,189567,128,0,189755:0:0:0:0:
64,192,189567,1,0,0:0:0:0:
192,192,189755,128,0,189942:0:0:0:0:
320,192,189755,1,0,0:0:0:0:
448,192,189942,1,0,0:0:0:0:
64,192,189942,1,0,0:0:0:0:
64,192,190317,1,0,0:0:0:0:
448,192,190317,1,0,0:0:0:0:
320,192,190317,128,0,190505:0:0:0:0:
192,192,190692,1,0,0:0:0:0:
320,192,190692,1,0,0:0:0:0:
64,192,190692,1,0,0:0:0:0:
448,192,191067,1,0,0:0:0:0:
320,192,191067,1,0,0:0:0:0:
192,192,191067,128,0,191442:0:0:0:0:
448,192,191442,1,0,0:0:0:0:
320,192,191536,1,0,0:0:0:0:
64,192,191630,128,0,192005:0:0:0:0:
192,192,191630,1,0,0:0:0:0:
192,192,191817,1,0,0:0:0:0:
192,192,192005,128,0,192380:0:0:0:0:
448,192,192005,1,0,0:0:0:0:
448,192,192192,1,0,0:0:0:0:
64,192,192286,1,0,0:0:0:0:
448,192,192380,128,0,192661:0:0:0:0:
320,192,192380,1,0,0:0:0:0:
192,192,192567,1,0,0:0:0:0:
64,192,192567,1,0,0:0:0:0:
320,192,192755,1,0,0:0:0:0:
64,192,192942,128,0,193505:0:0:0:0:
448,192,192942,1,0,0:0:0:0:
320,192,192942,1,0,0:0:0:0:
448,192,193317,1,0,0:0:0:0:
320,192,193317,128,0,193692:0:0:0:0:
192,192,193505,1,0,0:0:0:0:
448,192,193598,1,0,0:0:0:0:
64,192,193692,1,0,0:0:0:0:
192,192,193786,1,0,0:0:0:0:
448,192,193880,128,0,194067:0:0:0:0:
320,192,193880,1,0,0:0:0:0:
320,192,194067,128,0,194255:0:0:0:0:
64,192,194067,1,0,0:0:0:0:
448,192,194255,1,0,0:0:0:0:
64,192,194255,128,0,194442:0:0:0:0:
448,192,194442,1,0,0:0:0:0:
192,192,194630,128,0,195192:0:0:0:0:
448,192,194630,1,0,0:0:0:0:
320,192,194817,1,0,0:0:0:0:
448,192,194817,1,0,0:0:0:0:
64,192,195005,1,0,0:0:0:0:
320,192,195005,1,0,0:0:0:0:
64,192,195192,1,0,0:0:0:0:
320,192,195192,128,0,195380:0:0:0:0:
448,192,195380,1,0,0:0:0:0:
192,192,195380,1,0,0:0:0:0:
64,192,195567,128,0,195755:0:0:0:0:
320,192,195567,1,0,0:0:0:0:
448,192,195567,1,0,0:0:0:0:
192,192,195755,1,0,0:0:0:0:
448,192,195755,1,0,0:0:0:0:
448,192,195942,1,0,0:0:0:0:
320,192,195942,1,0,0:0:0:0:
64,192,195942,1,0,0:0:0:0:
192,192,196130,128,0,196317:0:0:0:0:
448,192,196317,1,0,0:0:0:0:
320,192,196317,128,0,196505:0:0:0:0:
64,192,196317,1,0,0:0:0:0:
192,192,196505,128,0,196692:0:0:0:0:
64,192,196692,1,0,0:0:0:0:
448,192,196692,128,0,196880:0:0:0:0:
320,192,196692,1,0,0:0:0:0:
320,192,196880,1,0,0:0:0:0:
192,192,196973,1,0,0:0:0:0:
64,192,197067,1,0,0:0:0:0:
320,192,197067,1,0,0:0:0:0:
448,192,197067,128,0,197255:0:0:0:0:
320,192,197255,1,0,0:0:0:0:
192,192,197255,1,0,0:0:0:0:
192,192,197348,1,0,0:0:0:0:
64,192,197442,1,0,0:0:0:0:
320,192,197536,1,0,0:0:0:0:
64,192,197630,1,0,0:0:0:0:
448,192,197630,128,0,198005:0:0:0:0:
192,192,197630,128,0,197817:0:0:0:0:
320,192,198005,128,0,198380:0:0:0:0:
64,192,198005,128,0,198192:0:0:0:0:
192,192,198192,128,0,198380:0:0:0:0:
64,192,198286,1,0,0:0:0:0:
448,192,198380,128,0,198755:0:0:0:0:
320,192,198567,1,0,0:0:0:0:
320,192,198755,1,0,0:0:0:0:
64,192,198755,1,0,0:0:0:0:
448,192,198942,1,0,0:0:0:0:
192,192,198942,1,0,0:0:0:0:
64,192,198942,128,0,199317:0:0:0:0:
320,192,199130,1,0,0:0:0:0:
320,192,199317,128,0,199598:0:0:0:0:
448,192,199317,1,0,0:0:0:0:
192,192,199692,128,0,199880:0:0:0:0:
64,192,199692,1,0,0:0:0:0:
448,192,199692,1,0,0:0:0:0:
320,192,199880,1,0,0:0:0:0:
448,192,200067,1,0,0:0:0:0:
64,192,200067,1,0,0:0:0:0:
448,192,200255,1,0,0:0:0:0:
192,192,200255,1,0,0:0:0:0:
320,192,200442,1,0,0:0:0:0:
448,192,200442,1,0,0:0:0:0:
64,192,200536,1,0,0:0:0:0:
448,192,200630,1,0,0:0:0:0:
192,192,200630,128,0,200817:0:0:0:0:
448,192,200817,1,0,0:0:0:0:
64,192,201005,1,0,0:0:0:0:
192,192,201005,128,0,201192:0:0:0:0:
320,192,201192,128,0,201380:0:0:0:0:
448,192,201192,1,0,0:0:0:0:
192,192,201380,1,0,0:0:0:0:
64,192,201380,128,0,201755:0:0:0:0:
192,192,201567,1,0,0:0:0:0:
448,192,201567,128,0,201755:0:0:0:0:
192,192,201755,1,0,0:0:0:0:
64,192,201942,1,0,0:0:0:0:
448,192,201942,1,0,0:0:0:0:
192,192,201942,128,0,202130:0:0:0:0:
192,192,202317,1,0,0:0:0:0:
64,192,202317,1,0,0:0:0:0:
320,192,202317,1,0,0:0:0:0:
64,192,202692,1,0,0:0:0:0:
192,192,202692,1,0,0:0:0:0:
448,192,202692,1,0,0:0:0:0:
192,192,203067,1,0,0:0:0:0:
448,192,203067,1,0,0:0:0:0:
320,192,203067,128,0,203536:0:0:0:0:
448,192,203442,1,0,0:0:0:0:
192,192,203536,1,0,0:0:0:0:
448,192,203630,1,0,0:0:0:0:
320,192,203630,1,0,0:0:0:0:
64,192,203630,128,0,204005:0:0:0:0:
320,192,204005,1,0,0:0:0:0:
448,192,204005,128,0,204380:0:0:0:0:
64,192,204286,1,0,0:0:0:0:
320,192,204380,128,0,204755:0:0:0:0:
192,192,204380,128,0,204567:0:0:0:0:
448,192,204567,128,0,204755:0:0:0:0:
192,192,204755,1,0,0:0:0:0:
448,192,204942,128,0,205317:0:0:0:0:
64,192,204942,1,0,0:0:0:0:
192,192,204942,1,0,0:0:0:0:
192,192,205130,1,0,0:0:0:0:
64,192,205317,1,0,0:0:0:0:
320,192,205317,1,0,0:0:0:0:
64,192,205692,1,0,0:0:0:0:
192,192,205692,1,0,0:0:0:0:
448,192,205692,1,0,0:0:0:0:
64,192,205880,128,0,206255:0:0:0:0:
448,192,206067,1,0,0:0:0:0:
320,192,206067,128,0,206255:0:0:0:0:
448,192,206255,1,0,0:0:0:0:
64,192,206442,1,0,0:0:0:0:
192,192,206442,1,0,0:0:0:0:
320,192,206630,1,0,0:0:0:0:
448,192,206630,1,0,0:0:0:0:
192,192,206630,128,0,207005:0:0:0:0:
448,192,207005,1,0,0:0:0:0:
64,192,207005,128,0,207192:0:0:0:0:
192,192,207192,128,0,207473:0:0:0:0:
448,192,207192,1,0,0:0:0:0:
64,192,207380,1,0,0:0:0:0:
64,192,207567,1,0,0:0:0:0:
192,192,207567,1,0,0:0:0:0:
64,192,207942,1,0,0:0:0:0:
448,192,207942,1,0,0:0:0:0:
192,192,207942,128,0,208505:0:0:0:0:
320,192,208317,1,0,0:0:0:0:
448,192,208317,1,0,0:0:0:0:
64,192,208505,1,0,0:0:0:0:
448,192,208692,128,0,209067:0:0:0:0:
320,192,208692,1,0,0:0:0:0:
64,192,208692,1,0,0:0:0:0:
192,192,208973,1,0,0:0:0:0:
320,192,209067,1,0,0:0:0:0:
64,192,209067,128,0,209442:0:0:0:0:
192,192,209255,1,0,0:0:0:0:
448,192,209348,1,0,0:0:0:0:
320,192,209442,1,0,0:0:0:0:
64,192,209536,1,0,0:0:0:0:
448,192,209630,128,0,210005:0:0:0:0:
192,192,209630,1,0,0:0:0:0:
320,192,209630,1,0,0:0:0:0:
320,192,210005,128,0,210380:0:0:0:0:
64,192,210005,1,0,0:0:0:0:
192,192,210192,1,0,0:0:0:0:
64,192,210380,128,0,210755:0:0:0:0:
448,192,210380,1,0,0:0:0:0:
192,192,210755,1,0,0:0:0:0:
320,192,210942,128,0,211130:0:0:0:0:
192,192,210942,1,0,0:0:0:0:
448,192,211223,1,0,0:0:0:0:
320,192,211223,1,0,0:0:0:0:
192,192,211317,1,0,0:0:0:0:
64,192,211317,1,0,0:0:0:0:
448,192,211317,1,0,0:0:0:0:
192,192,211692,1,0,0:0:0:0:
320,192,211692,1,0,0:0:0:0:
448,192,211880,1,0,0:0:0:0:
64,192,211880,1,0,0:0:0:0:
320,192,211880,128,0,212442:0:0:0:0:
192,192,212067,1,0,0:0:0:0:
64,192,212255,1,0,0:0:0:0:
448,192,212442,1,0,0:0:0:0:
64,192,212442,1,0,0:0:0:0:
64,192,212630,128,0,213192:0:0:0:0:
320,192,212630,1,0,0:0:0:0:
448,192,212630,1,0,0:0:0:0:
320,192,213005,1,0,0:0:0:0:
192,192,213192,1,0,0:0:0:0:
320,192,213380,1,0,0:0:0:0:
64,192,213380,128,0,213755:0:0:0:0:
448,192,213380,1,0,0:0:0:0:
320,192,213567,1,0,0:0:0:0:
192,192,213755,128,0,213942:0:0:0:0:
320,192,213755,1,0,0:0:0:0:
448,192,213942,1,0,0:0:0:0:
64,192,213942,1,0,0:0:0:0:
64,192,214317,1,0,0:0:0:0:
448,192,214317,1,0,0:0:0:0:
192,192,214317,128,0,214505:0:0:0:0:
192,192,214692,1,0,0:0:0:0:
320,192,214692,1,0,0:0:0:0:
448,192,214692,1,0,0:0:0:0:
64,192,215067,1,0,0:0:0:0:
192,192,215067,1,0,0:0:0:0:
320,192,215067,128,0,215630:0:0:0:0:
192,192,215255,1,0,0:0:0:0:
448,192,215348,1,0,0:0:0:0:
192,192,215442,1,0,0:0:0:0:
64,192,215536,1,0,0:0:0:0:
448,192,215630,128,0,216005:0:0:0:0:
192,192,215630,1,0,0:0:0:0:
192,192,216005,128,0,216380:0:0:0:0:
64,192,216005,1,0,0:0:0:0:
448,192,216380,128,0,216661:0:0:0:0:
320,192,216380,1,0,0:0:0:0:
192,192,216567,1,0,0:0:0:0:
64,192,216567,1,0,0:0:0:0:
320,192,216755,1,0,0:0:0:0:
448,192,216942,128,0,217505:0:0:0:0:
320,192,216942,1,0,0:0:0:0:
64,192,216942,1,0,0:0:0:0:
192,192,217317,1,0,0:0:0:0:
320,192,217317,128,0,217692:0:0:0:0:
64,192,217505,1,0,0:0:0:0:
448,192,217692,1,0,0:0:0:0:
192,192,217786,1,0,0:0:0:0:
448,192,217880,128,0,218067:0:0:0:0:
320,192,217880,1,0,0:0:0:0:
320,192,218067,128,0,218255:0:0:0:0:
64,192,218067,1,0,0:0:0:0:
64,192,218255,128,0,218442:0:0:0:0:
192,192,218255,1,0,0:0:0:0:
448,192,218442,1,0,0:0:0:0:
192,192,218630,128,0,219192:0:0:0:0:
448,192,218630,1,0,0:0:0:0:
64,192,218630,1,0,0:0:0:0:
64,192,218817,1,0,0:0:0:0:
320,192,219005,1,0,0:0:0:0:
64,192,219192,1,0,0:0:0:0:
320,192,219192,128,0,219942:0:0:0:0:
64,192,219380,1,0,0:0:0:0:
192,192,219567,1,0,0:0:0:0:
64,192,219567,1,0,0:0:0:0:
192,192,219755,1,0,0:0:0:0:
448,192,219942,1,0,0:0:0:0:
64,192,219942,128,0,220692:0:0:0:0:
320,192,220317,1,0,0:0:0:0:
320,192,220505,1,0,0:0:0:0:
192,192,220692,1,0,0:0:0:0:
448,192,220692,128,0,220880:0:0:0:0:
64,192,221067,1,0,0:0:0:0:
448,192,221067,128,0,221442:0:0:0:0:
320,192,221067,1,0,0:0:0:0:
192,192,221255,128,0,221442:0:0:0:0:
64,192,221442,1,0,0:0:0:0:
320,192,221536,1,0,0:0:0:0:
448,192,221630,1,0,0:0:0:0:
64,192,221630,1,0,0:0:0:0:
192,192,221630,1,0,0:0:0:0:
192,192,221817,1,0,0:0:0:0:
320,192,221817,1,0,0:0:0:0:
448,192,221817,1,0,0:0:0:0:
448,192,222005,1,0,0:0:0:0:
320,192,222192,1,0,0:0:0:0:
448,192,222192,1,0,0:0:0:0:
64,192,222380,1,0,0:0:0:0:
320,192,222380,1,0,0:0:0:0:
192,192,222380,128,0,223130:0:0:0:0:
448,192,222755,1,0,0:0:0:0:
448,192,222942,1,0,0:0:0:0:
320,192,222942,1,0,0:0:0:0:
448,192,223317,1,0,0:0:0:0:
192,192,223317,1,0,0:0:0:0:
320,192,223505,1,0,0:0:0:0:
64,192,223505,1,0,0:0:0:0:
448,192,223505,128,0,223692:0:0:0:0:
192,192,223692,128,0,224067:0:0:0:0:
320,192,223692,1,0,0:0:0:0:
448,192,223880,1,0,0:0:0:0:
448,192,224067,1,0,0:0:0:0:
64,192,224067,1,0,0:0:0:0:
320,192,224255,128,0,224536:0:0:0:0:
64,192,224255,128,0,224630:0:0:0:0:
192,192,224255,1,0,0:0:0:0:
192,192,224630,1,0,0:0:0:0:
448,192,224630,1,0,0:0:0:0:
64,192,224817,1,0,0:0:0:0:
192,192,224817,1,0,0:0:0:0:
320,192,224817,1,0,0:0:0:0:
192,192,225005,1,0,0:0:0:0:
448,192,225192,1,0,0:0:0:0:
320,192,225255,1,0,0:0:0:0:
192,192,225317,1,0,0:0:0:0:
64,192,225380,1,0,0:0:0:0:
320,192,225380,1,0,0:0:0:0:
448,192,225380,128,0,226130:0:0:0:0:
64,192,225755,1,0,0:0:0:0:
64,192,225942,1,0,0:0:0:0:
192,192,225942,1,0,0:0:0:0:
192,192,226317,1,0,0:0:0:0:
320,192,226317,1,0,0:0:0:0:
320,192,226505,1,0,0:0:0:0:
448,192,226505,1,0,0:0:0:0:
64,192,226505,128,0,227067:0:0:0:0:
448,192,226692,1,0,0:0:0:0:
192,192,226692,1,0,0:0:0:0:
192,192,227067,1,0,0:0:0:0:
320,192,227067,1,0,0:0:0:0:
192,192,227255,1,0,0:0:0:0:
448,192,227255,1,0,0:0:0:0:
320,192,227442,1,0,0:0:0:0:
192,192,227536,1,0,0:0:0:0:
320,192,227630,1,0,0:0:0:0:
448,192,227630,1,0,0:0:0:0:
64,192,227630,1,0,0:0:0:0:
320,192,227817,1,0,0:0:0:0:
192,192,227817,1,0,0:0:0:0:
448,192,227817,1,0,0:0:0:0:
64,192,228192,1,0,0:0:0:0:
192,192,228255,1,0,0:0:0:0:
320,192,228317,1,0,0:0:0:0:
64,192,228380,128,0,229130:0:0:0:0:
448,192,228380,1,0,0:0:0:0:
320,192,228755,1,0,0:0:0:0:
448,192,228942,1,0,0:0:0:0:
192,192,228942,1,0,0:0:0:0:
320,192,229130,1,0,0:0:0:0:
64,192,229317,1,0,0:0:0:0:
320,192,229317,1,0,0:0:0:0:
320,192,229505,1,0,0:0:0:0:
192,192,229505,1,0,0:0:0:0:
448,192,229598,1,0,0:0:0:0:
192,192,229692,128,0,230067:0:0:0:0:
320,192,229692,1,0,0:0:0:0:
64,192,229786,1,0,0:0:0:0:
320,192,229880,1,0,0:0:0:0:
448,192,229973,1,0,0:0:0:0:
64,192,230161,1,0,0:0:0:0:
320,192,230255,128,0,230630:0:0:0:0:
192,192,230255,1,0,0:0:0:0:
448,192,230255,1,0,0:0:0:0:
64,192,230630,1,0,0:0:0:0:
448,192,230630,1,0,0:0:0:0:
192,192,230817,1,0,0:0:0:0:
320,192,230817,1,0,0:0:0:0:
64,192,230817,1,0,0:0:0:0:
320,192,231192,1,0,0:0:0:0:
448,192,231192,1,0,0:0:0:0:
64,192,231380,1,0,0:0:0:0:
448,192,231380,1,0,0:0:0:0:
192,192,231380,128,0,231942:0:0:0:0:
320,192,231755,1,0,0:0:0:0:
448,192,231755,1,0,0:0:0:0:
448,192,231942,1,0,0:0:0:0:
320,192,232036,1,0,0:0:0:0:
64,192,232130,1,0,0:0:0:0:
448,192,232130,1,0,0:0:0:0:
192,192,232317,1,0,0:0:0:0:
320,192,232317,1,0,0:0:0:0:
192,192,232505,1,0,0:0:0:0:
448,192,232505,1,0,0:0:0:0:
448,192,232692,1,0,0:0:0:0:
320,192,232692,128,0,233067:0:0:0:0:
192,192,232692,1,0,0:0:0:0:
192,192,233067,1,0,0:0:0:0:
64,192,233161,1,0,0:0:0:0:
448,192,233255,1,0,0:0:0:0:
192,192,233255,1,0,0:0:0:0:
320,192,233348,1,0,0:0:0:0:
192,192,233442,128,0,233630:0:0:0:0:
320,192,233536,1,0,0:0:0:0:
448,192,233630,1,0,0:0:0:0:
64,192,233630,1,0,0:0:0:0:
320,192,233817,1,0,0:0:0:0:
320,192,234005,128,0,234192:0:0:0:0:
192,192,234005,1,0,0:0:0:0:
64,192,234192,1,0,0:0:0:0:
448,192,234286,1,0,0:0:0:0:
192,192,234380,1,0,0:0:0:0:
64,192,234380,1,0,0:0:0:0:
320,192,234473,1,0,0:0:0:0:
64,192,234567,1,0,0:0:0:0:
448,192,234567,1,0,0:0:0:0:
320,192,234755,1,0,0:0:0:0:
192,192,234942,1,0,0:0:0:0:
64,192,234942,1,0,0:0:0:0:
448,192,234942,1,0,0:0:0:0:
320,192,235130,1,0,0:0:0:0:
192,192,235317,1,0,0:0:0:0:
64,192,235317,1,0,0:0:0:0:
320,192,235505,1,0,0:0:0:0:
64,192,235598,1,0,0:0:0:0:
448,192,235692,1,0,0:0:0:0:
64,192,235880,1,0,0:0:0:0:
320,192,235880,1,0,0:0:0:0:
448,192,235973,1,0,0:0:0:0:
320,192,236067,1,0,0:0:0:0:
192,192,236255,1,0,0:0:0:0:
448,192,236255,1,0,0:0:0:0:
64,192,236255,128,0,236630:0:0:0:0:
320,192,236348,1,0,0:0:0:0:
192,192,236442,1,0,0:0:0:0:
448,192,236536,1,0,0:0:0:0:
320,192,236630,1,0,0:0:0:0:
320,192,236817,1,0,0:0:0:0:
448,192,236911,1,0,0:0:0:0:
320,192,237005,1,0,0:0:0:0:
64,192,237005,1,0,0:0:0:0:
192,192,237005,128,0,237192:0:0:0:0:
448,192,237286,1,0,0:0:0:0:
64,192,237380,1,0,0:0:0:0:
320,192,237380,1,0,0:0:0:0:
192,192,237473,1,0,0:0:0:0:
64,192,237567,1,0,0:0:0:0:
448,192,237567,1,0,0:0:0:0:
192,192,237755,1,0,0:0:0:0:
448,192,237942,1,0,0:0:0:0:
192,192,237942,1,0,0:0:0:0:
64,192,237942,1,0,0:0:0:0:
320,192,238036,1,0,0:0:0:0:
192,192,238130,1,0,0:0:0:0:
64,192,238223,1,0,0:0:0:0:
192,192,238317,1,0,0:0:0:0:
320,192,238411,1,0,0:0:0:0:
448,192,238505,1,0,0:0:0:0:
320,192,238598,1,0,0:0:0:0:
448,192,238692,1,0,0:0:0:0:
320,192,238786,1,0,0:0:0:0:
192,192,238880,1,0,0:0:0:0:
448,192,238880,1,0,0:0:0:0:
64,192,238973,1,0,0:0:0:0:
192,192,239067,1,0,0:0:0:0:
320,192,239161,1,0,0:0:0:0:
192,192,239255,1,0,0:0:0:0:
320,192,239348,1,0,0:0:0:0:
192,192,239442,128,0,239630:0:0:0:0:
448,192,239630,1,0,0:0:0:0:
64,192,239630,1,0,0:0:0:0:
448,192,240005,1,0,0:0:0:0:
320,192,240005,1,0,0:0:0:0:
192,192,240005,1,0,0:0:0:0:
64,192,240192,1,0,0:0:0:0:
64,192,240380,1,0,0:0:0:0:
192,192,240380,1,0,0:0:0:0:
448,192,240473,1,0,0:0:0:0:
320,192,240567,1,0,0:0:0:0:
192,192,240567,1,0,0:0:0:0:
320,192,240755,1,0,0:0:0:0:
64,192,240942,1,0,0:0:0:0:
320,192,240942,1,0,0:0:0:0:
192,192,240942,1,0,0:0:0:0:
448,192,241130,1,0,0:0:0:0:
448,192,241317,1,0,0:0:0:0:
320,192,241317,1,0,0:0:0:0:
192,192,241411,1,0,0:0:0:0:
64,192,241505,1,0,0:0:0:0:
320,192,241505,1,0,0:0:0:0:
320,192,241692,1,0,0:0:0:0:
448,192,241692,1,0,0:0:0:0:
64,192,241692,1,0,0:0:0:0:
192,192,241786,1,0,0:0:0:0:
64,192,241880,1,0,0:0:0:0:
320,192,241880,1,0,0:0:0:0:
192,192,241973,1,0,0:0:0:0:
64,192,242067,1,0,0:0:0:0:
192,192,242255,1,0,0:0:0:0:
320,192,242255,1,0,0:0:0:0:
64,192,242442,128,0,242630:0:0:0:0:
448,192,242442,1,0,0:0:0:0:
192,192,242536,1,0,0:0:0:0:
320,192,242630,1,0,0:0:0:0:
320,192,242817,1,0,0:0:0:0:
192,192,242817,1,0,0:0:0:0:
448,192,243005,1,0,0:0:0:0:
320,192,243005,1,0,0:0:0:0:
64,192,243005,1,0,0:0:0:0:
192,192,243192,128,0,243380:0:0:0:0:
448,192,243192,1,0,0:0:0:0:
320,192,243286,1,0,0:0:0:0:
64,192,243380,1,0,0:0:0:0:
448,192,243473,1,0,0:0:0:0:
320,192,243567,1,0,0:0:0:0:
192,192,243567,1,0,0:0:0:0:
64,192,243755,1,0,0:0:0:0:
448,192,243755,1,0,0:0:0:0:
448,192,243942,128,0,244130:0:0:0:0:
320,192,243942,1,0,0:0:0:0:
192,192,243942,1,0,0:0:0:0:
64,192,244130,1,0,0:0:0:0:
64,192,244317,1,0,0:0:0:0:
192,192,244411,1,0,0:0:0:0:
448,192,244505,1,0,0:0:0:0:
320,192,244505,1,0,0:0:0:0:
192,192,244598,1,0,0:0:0:0:
64,192,244692,1,0,0:0:0:0:
448,192,244692,1,0,0:0:0:0:
192,192,244880,1,0,0:0:0:0:
320,192,244880,1,0,0:0:0:0:
64,192,244973,1,0,0:0:0:0:
192,192,245067,1,0,0:0:0:0:
448,192,245067,1,0,0:0:0:0:
192,192,245255,1,0,0:0:0:0:
64,192,245255,1,0,0:0:0:0:
320,192,245348,1,0,0:0:0:0:
448,192,245442,1,0,0:0:0:0:
320,192,245536,1,0,0:0:0:0:
448,192,245630,1,0,0:0:0:0:
64,192,245630,1,0,0:0:0:0:
320,192,245817,1,0,0:0:0:0:
448,192,245911,1,0,0:0:0:0:
192,192,246005,1,0,0:0:0:0:
320,192,246005,1,0,0:0:0:0:
64,192,246005,128,0,246192:0:0:0:0:
192,192,246380,1,0,0:0:0:0:
448,192,246380,1,0,0:0:0:0:
64,192,246473,1,0,0:0:0:0:
192,192,246567,1,0,0:0:0:0:
320,192,246567,1,0,0:0:0:0:
448,192,246942,1,0,0:0:0:0:
192,192,246942,1,0,0:0:0:0:
320,192,246942,1,0,0:0:0:0:
192,192,247130,1,0,0:0:0:0:
320,192,247317,1,0,0:0:0:0:
192,192,247505,1,0,0:0:0:0:
448,192,247505,1,0,0:0:0:0:
320,192,247692,1,0,0:0:0:0:
448,192,247692,1,0,0:0:0:0:
64,192,247692,1,0,0:0:0:0:
320,192,247880,1,0,0:0:0:0:
192,192,247880,1,0,0:0:0:0:
192,192,248067,1,0,0:0:0:0:
448,192,248067,1,0,0:0:0:0:
320,192,248255,1,0,0:0:0:0:
64,192,248255,1,0,0:0:0:0:
192,192,248348,1,0,0:0:0:0:
448,192,248442,1,0,0:0:0:0:
320,192,248536,1,0,0:0:0:0:
192,192,248630,1,0,0:0:0:0:
64,192,248630,1,0,0:0:0:0:
448,192,248630,1,0,0:0:0:0:
320,192,248817,1,0,0:0:0:0:
192,192,248911,1,0,0:0:0:0:
64,192,249005,1,0,0:0:0:0:
320,192,249005,1,0,0:0:0:0:
448,192,249005,128,0,249192:0:0:0:0:
64,192,249380,1,0,0:0:0:0:
448,192,249473,1,0,0:0:0:0:
64,192,249567,1,0,0:0:0:0:
320,192,249567,1,0,0:0:0:0:
192,192,249942,1,0,0:0:0:0:
64,192,249942,1,0,0:0:0:0:
320,192,250036,1,0,0:0:0:0:
448,192,250130,1,0,0:0:0:0:
320,192,250223,1,0,0:0:0:0:
192,192,250317,1,0,0:0:0:0:
64,192,250411,1,0,0:0:0:0:
192,192,250505,1,0,0:0:0:0:
64,192,250598,1,0,0:0:0:0:
192,192,250692,1,0,0:0:0:0:
448,192,250692,128,0,250880:0:0:0:0:
320,192,250786,1,0,0:0:0:0:
64,192,250880,1,0,0:0:0:0:
320,192,250973,1,0,0:0:0:0:
192,192,251067,1,0,0:0:0:0:
64,192,251067,128,0,251255:0:0:0:0:
320,192,251161,1,0,0:0:0:0:
192,192,251255,1,0,0:0:0:0:
320,192,251442,1,0,0:0:0:0:
448,192,251442,1,0,0:0:0:0:
64,192,251442,128,0,251630:0:0:0:0:
448,192,251817,1,0,0:0:0:0:
320,192,251817,1,0,0:0:0:0:
192,192,251817,1,0,0:0:0:0:
192,192,252005,1,0,0:0:0:0:
320,192,252005,1,0,0:0:0:0:
64,192,252380,1,0,0:0:0:0:
448,192,252380,1,0,0:0:0:0:
192,192,252380,1,0,0:0:0:0:
448,192,253317,1,0,0:0:0:0:
320,192,253317,1,0,0:0:0:0:
320,192,253505,1,0,0:0:0:0:
192,192,253598,1,0,0:0:0:0:
64,192,253786,1,0,0:0:0:0:
192,192,253880,1,0,0:0:0:0:
320,192,253880,1,0,0:0:0:0:
448,192,254067,1,0,0:0:0:0:
64,192,254161,1,0,0:0:0:0:
448,192,254255,1,0,0:0:0:0:
320,192,254255,1,0,0:0:0:0:
64,192,254442,1,0,0:0:0:0:
320,192,254442,1,0,0:0:0:0:
448,192,254442,128,0,254630:0:0:0:0:
64,192,254817,1,0,0:0:0:0:
192,192,254817,1,0,0:0:0:0:
320,192,254817,1,0,0:0:0:0:
320,192,255005,1,0,0:0:0:0:
448,192,255005,1,0,0:0:0:0:
448,192,255380,1,0,0:0:0:0:
320,192,255380,1,0,0:0:0:0:
192,192,255380,1,0,0:0:0:0:
64,192,255567,1,0,0:0:0:0:
448,192,255755,1,0,0:0:0:0:
64,192,255942,1,0,0:0:0:0:
320,192,255942,1,0,0:0:0:0:
192,192,255942,1,0,0:0:0:0:
448,192,256130,1,0,0:0:0:0:
192,192,256317,1,0,0:0:0:0:
320,192,256317,1,0,0:0:0:0:
320,192,256505,1,0,0:0:0:0:
64,192,256692,128,0,258755:0:0:0:0:
448,192,256692,128,0,258755:0:0:0:0:
320,192,258942,1,0,0:0:0:0:
64,192,259036,1,0,0:0:0:0:
320,192,259130,128,0,261755:0:0:0:0:
448,192,259130,1,0,0:0:0:0:
192,192,259505,1,0,0:0:0:0:
64,192,259880,1,0,0:0:0:0:
192,192,260255,1,0,0:0:0:0:
448,192,260442,1,0,0:0:0:0:
64,192,260817,1,0,0:0:0:0:
64,192,261192,1,0,0:0:0:0:
192,192,261380,1,0,0:0:0:0:
64,192,261567,1,0,0:0:0:0:
448,192,261755,1,0,0:0:0:0:
320,192,261942,1,0,0:0:0:0:
64,192,262130,128,0,263630:0:0:0:0:
192,192,262130,1,0,0:0:0:0:
192,192,262505,1,0,0:0:0:0:
320,192,262692,1,0,0:0:0:0:
320,192,262880,128,0,264942:0:0:0:0:
448,192,262880,1,0,0:0:0:0:
192,192,263067,1,0,0:0:0:0:
448,192,263255,1,0,0:0:0:0:
192,192,263442,1,0,0:0:0:0:
448,192,263630,1,0,0:0:0:0:
192,192,263817,1,0,0:0:0:0:
64,192,264005,1,0,0:0:0:0:
192,192,264192,1,0,0:0:0:0:
448,192,264380,1,0,0:0:0:0:
64,192,264567,1,0,0:0:0:0:
192,192,264755,1,0,0:0:0:0:
448,192,265130,1,0,0:0:0:0:
192,192,265130,128,0,266630:0:0:0:0:
320,192,265130,1,0,0:0:0:0:
448,192,265505,1,0,0:0:0:0:
64,192,265880,1,0,0:0:0:0:
448,192,265880,1,0,0:0:0:0:
320,192,266067,1,0,0:0:0:0:
448,192,266255,1,0,0:0:0:0:
320,192,266630,1,0,0:0:0:0:
64,192,266630,128,0,267380:0:0:0:0:
320,192,266817,128,0,267005:0:0:0:0:
320,192,267192,1,0,0:0:0:0:
448,192,267380,1,0,0:0:0:0:
192,192,267567,1,0,0:0:0:0:
64,192,267755,1,0,0:0:0:0:
192,192,268130,1,0,0:0:0:0:
64,192,268130,128,0,268692:0:0:0:0:
320,192,268411,1,0,0:0:0:0:
192,192,268505,1,0,0:0:0:0:
320,192,268692,1,0,0:0:0:0:
448,192,268692,128,0,269442:0:0:0:0:
320,192,269067,1,0,0:0:0:0:
192,192,269161,1,0,0:0:0:0:
64,192,269255,1,0,0:0:0:0:
320,192,269442,1,0,0:0:0:0:
192,192,269442,128,0,270005:0:0:0:0:
320,192,269630,1,0,0:0:0:0:
448,192,269630,1,0,0:0:0:0:
64,192,269817,1,0,0:0:0:0:
448,192,270005,1,0,0:0:0:0:
64,192,270192,1,0,0:0:0:0:
448,192,270192,1,0,0:0:0:0:
192,192,270192,128,0,270380:0:0:0:0:
448,192,270473,1,0,0:0:0:0:
64,192,270567,1,0,0:0:0:0:
192,192,270567,1,0,0:0:0:0:
320,192,270567,1,0,0:0:0:0:
64,192,270755,1,0,0:0:0:0:
192,192,270848,1,0,0:0:0:0:
320,192,270942,1,0,0:0:0:0:
448,192,271036,1,0,0:0:0:0:
64,192,271130,128,0,271505:0:0:0:0:
192,192,271130,1,0,0:0:0:0:
320,192,271130,1,0,0:0:0:0:
192,192,271505,128,0,271880:0:0:0:0:
448,192,271505,1,0,0:0:0:0:
64,192,271786,1,0,0:0:0:0:
448,192,271880,128,0,272255:0:0:0:0:
320,192,271880,1,0,0:0:0:0:
64,192,272067,1,0,0:0:0:0:
320,192,272067,1,0,0:0:0:0:
192,192,272255,1,0,0:0:0:0:
320,192,272442,128,0,272817:0:0:0:0:
64,192,272442,1,0,0:0:0:0:
448,192,272442,1,0,0:0:0:0:
192,192,272817,1,0,0:0:0:0:
64,192,272817,1,0,0:0:0:0:
448,192,273005,1,0,0:0:0:0:
320,192,273005,1,0,0:0:0:0:
64,192,273005,1,0,0:0:0:0:
192,192,273192,1,0,0:0:0:0:
320,192,273192,1,0,0:0:0:0:
320,192,273380,1,0,0:0:0:0:
448,192,273380,1,0,0:0:0:0:
64,192,273567,1,0,0:0:0:0:
192,192,273567,1,0,0:0:0:0:
192,192,273755,1,0,0:0:0:0:
448,192,273755,1,0,0:0:0:0:
448,192,273942,1,0,0:0:0:0:
64,192,273942,1,0,0:0:0:0:
320,192,274036,1,0,0:0:0:0:
64,192,274130,128,0,274317:0:0:0:0:
192,192,274317,1,0,0:0:0:0:
320,192,274317,128,0,274505:0:0:0:0:
448,192,274505,1,0,0:0:0:0:
64,192,274505,128,0,274692:0:0:0:0:
320,192,274692,1,0,0:0:0:0:
448,192,274692,128,0,274880:0:0:0:0:
192,192,274786,1,0,0:0:0:0:
192,192,274880,128,0,275067:0:0:0:0:
64,192,274880,1,0,0:0:0:0:
448,192,275067,128,0,275255:0:0:0:0:
64,192,275067,1,0,0:0:0:0:
192,192,275255,128,0,275442:0:0:0:0:
320,192,275255,1,0,0:0:0:0:
448,192,275442,1,0,0:0:0:0:
64,192,275442,1,0,0:0:0:0:
64,192,275817,1,0,0:0:0:0:
448,192,275817,1,0,0:0:0:0:
320,192,275817,128,0,276005:0:0:0:0:
192,192,276192,1,0,0:0:0:0:
320,192,276192,1,0,0:0:0:0:
64,192,276192,1,0,0:0:0:0:
448,192,276567,1,0,0:0:0:0:
320,192,276567,1,0,0:0:0:0:
192,192,276567,128,0,276942:0:0:0:0:
448,192,276942,1,0,0:0:0:0:
320,192,277036,1,0,0:0:0:0:
64,192,277130,128,0,277505:0:0:0:0:
192,192,277130,1,0,0:0:0:0:
192,192,277317,1,0,0:0:0:0:
192,192,277505,128,0,277880:0:0:0:0:
448,192,277505,1,0,0:0:0:0:
448,192,277692,1,0,0:0:0:0:
64,192,277786,1,0,0:0:0:0:
448,192,277880,128,0,278161:0:0:0:0:
320,192,277880,1,0,0:0:0:0:
192,192,278067,1,0,0:0:0:0:
64,192,278067,1,0,0:0:0:0:
320,192,278255,1,0,0:0:0:0:
64,192,278442,128,0,279005:0:0:0:0:
448,192,278442,1,0,0:0:0:0:
320,192,278442,1,0,0:0:0:0:
448,192,278817,1,0,0:0:0:0:
320,192,278817,128,0,279192:0:0:0:0:
192,192,279005,1,0,0:0:0:0:
448,192,279098,1,0,0:0:0:0:
64,192,279192,1,0,0:0:0:0:
192,192,279286,1,0,0:0:0:0:
448,192,279380,128,0,279567:0:0:0:0:
320,192,279380,1,0,0:0:0:0:
320,192,279567,128,0,279755:0:0:0:0:
64,192,279567,1,0,0:0:0:0:
448,192,279755,1,0,0:0:0:0:
64,192,279755,128,0,279942:0:0:0:0:
448,192,279942,1,0,0:0:0:0:
192,192,280130,128,0,280692:0:0:0:0:
448,192,280130,1,0,0:0:0:0:
64,192,280505,1,0,0:0:0:0:
448,192,280598,1,0,0:0:0:0:
64,192,280692,1,0,0:0:0:0:
320,192,280692,1,0,0:0:0:0:
320,192,281067,1,0,0:0:0:0:
448,192,281067,1,0,0:0:0:0:
64,192,281067,1,0,0:0:0:0:
448,192,281442,1,0,0:0:0:0:
320,192,281442,1,0,0:0:0:0:
192,192,281442,1,0,0:0:0:0:
192,192,281630,1,0,0:0:0:0:
320,192,281630,1,0,0:0:0:0:
448,192,281817,1,0,0:0:0:0:
64,192,281817,1,0,0:0:0:0:
192,192,282005,1,0,0:0:0:0:
320,192,282005,1,0,0:0:0:0:
64,192,282192,1,0,0:0:0:0:
448,192,282192,128,0,282380:0:0:0:0:
320,192,282192,1,0,0:0:0:0:
320,192,282380,1,0,0:0:0:0:
192,192,282473,1,0,0:0:0:0:
64,192,282567,1,0,0:0:0:0:
320,192,282567,1,0,0:0:0:0:
448,192,282567,128,0,282755:0:0:0:0:
320,192,282755,1,0,0:0:0:0:
192,192,282755,1,0,0:0:0:0:
192,192,282848,1,0,0:0:0:0:
64,192,282942,1,0,0:0:0:0:
320,192,283036,1,0,0:0:0:0:
64,192,283130,1,0,0:0:0:0:
448,192,283130,128,0,283505:0:0:0:0:
192,192,283130,128,0,283317:0:0:0:0:
320,192,283505,128,0,283880:0:0:0:0:
64,192,283505,128,0,283692:0:0:0:0:
192,192,283692,128,0,283880:0:0:0:0:
64,192,283786,1,0,0:0:0:0:
448,192,283880,128,0,284255:0:0:0:0:
320,192,284067,1,0,0:0:0:0:
320,192,284255,1,0,0:0:0:0:
64,192,284255,1,0,0:0:0:0:
448,192,284442,1,0,0:0:0:0:
192,192,284442,1,0,0:0:0:0:
64,192,284442,128,0,284817:0:0:0:0:
320,192,284630,1,0,0:0:0:0:
320,192,284817,128,0,285098:0:0:0:0:
448,192,284817,1,0,0:0:0:0:
192,192,285192,128,0,285380:0:0:0:0:
64,192,285192,1,0,0:0:0:0:
448,192,285192,1,0,0:0:0:0:
320,192,285380,1,0,0:0:0:0:
448,192,285567,1,0,0:0:0:0:
64,192,285567,1,0,0:0:0:0:
448,192,285755,1,0,0:0:0:0:
192,192,285755,1,0,0:0:0:0:
320,192,285942,1,0,0:0:0:0:
448,192,285942,1,0,0:0:0:0:
64,192,286036,1,0,0:0:0:0:
448,192,286130,1,0,0:0:0:0:
192,192,286130,128,0,286317:0:0:0:0:
448,192,286317,1,0,0:0:0:0:
64,192,286505,1,0,0:0:0:0:
192,192,286505,128,0,286692:0:0:0:0:
320,192,286692,128,0,286880:0:0:0:0:
448,192,286692,1,0,0:0:0:0:
192,192,286880,1,0,0:0:0:0:
64,192,286880,128,0,287255:0:0:0:0:
192,192,287067,1,0,0:0:0:0:
448,192,287067,128,0,287255:0:0:0:0:
192,192,287255,1,0,0:0:0:0:
64,192,287442,1,0,0:0:0:0:
448,192,287442,1,0,0:0:0:0:
192,192,287442,128,0,287630:0:0:0:0:
192,192,287817,1,0,0:0:0:0:
64,192,287817,1,0,0:0:0:0:
320,192,287817,1,0,0:0:0:0:
64,192,288192,1,0,0:0:0:0:
192,192,288192,1,0,0:0:0:0:
448,192,288192,1,0,0:0:0:0:
192,192,288567,1,0,0:0:0:0:
448,192,288567,1,0,0:0:0:0:
320,192,288567,128,0,289036:0:0:0:0:
448,192,288942,1,0,0:0:0:0:
192,192,289036,1,0,0:0:0:0:
448,192,289130,1,0,0:0:0:0:
64,192,289130,1,0,0:0:0:0:
192,192,289317,1,0,0:0:0:0:
320,192,289505,1,0,0:0:0:0:
448,192,289505,128,0,289880:0:0:0:0:
192,192,289505,128,0,289692:0:0:0:0:
64,192,289786,1,0,0:0:0:0:
320,192,289880,128,0,290255:0:0:0:0:
192,192,289880,128,0,290067:0:0:0:0:
448,192,290067,128,0,290255:0:0:0:0:
192,192,290255,1,0,0:0:0:0:
448,192,290442,128,0,290817:0:0:0:0:
64,192,290442,1,0,0:0:0:0:
192,192,290442,1,0,0:0:0:0:
192,192,290630,1,0,0:0:0:0:
64,192,290817,1,0,0:0:0:0:
320,192,290817,1,0,0:0:0:0:
64,192,291192,1,0,0:0:0:0:
192,192,291192,1,0,0:0:0:0:
448,192,291192,1,0,0:0:0:0:
64,192,291380,128,0,291755:0:0:0:0:
448,192,291567,1,0,0:0:0:0:
320,192,291567,128,0,291755:0:0:0:0:
448,192,291755,1,0,0:0:0:0:
64,192,291942,1,0,0:0:0:0:
192,192,291942,1,0,0:0:0:0:
320,192,292130,1,0,0:0:0:0:
448,192,292130,1,0,0:0:0:0:
192,192,292130,128,0,292505:0:0:0:0:
448,192,292505,1,0,0:0:0:0:
64,192,292505,128,0,292692:0:0:0:0:
192,192,292692,128,0,292973:0:0:0:0:
448,192,292692,1,0,0:0:0:0:
64,192,292880,1,0,0:0:0:0:
64,192,293067,1,0,0:0:0:0:
192,192,293067,1,0,0:0:0:0:
64,192,293442,1,0,0:0:0:0:
448,192,293442,1,0,0:0:0:0:
192,192,293442,128,0,294005:0:0:0:0:
64,192,293630,1,0,0:0:0:0:
320,192,293630,1,0,0:0:0:0:
320,192,293817,1,0,0:0:0:0:
448,192,293817,1,0,0:0:0:0:
64,192,294005,1,0,0:0:0:0:
448,192,294192,128,0,294567:0:0:0:0:
320,192,294192,1,0,0:0:0:0:
64,192,294192,1,0,0:0:0:0:
192,192,294473,1,0,0:0:0:0:
320,192,294567,1,0,0:0:0:0:
64,192,294567,128,0,294942:0:0:0:0:
192,192,294755,1,0,0:0:0:0:
448,192,294848,1,0,0:0:0:0:
320,192,294942,1,0,0:0:0:0:
64,192,295036,1,0,0:0:0:0:
448,192,295130,128,0,295505:0:0:0:0:
192,192,295130,1,0,0:0:0:0:
320,192,295130,1,0,0:0:0:0:
320,192,295317,1,0,0:0:0:0:
192,192,295411,1,0,0:0:0:0:
320,192,295505,1,0,0:0:0:0:
64,192,295505,128,0,295692:0:0:0:0:
192,192,295598,1,0,0:0:0:0:
448,192,295692,1,0,0:0:0:0:
192,192,295786,1,0,0:0:0:0:
64,192,295880,128,0,296255:0:0:0:0:
448,192,295880,128,0,296067:0:0:0:0:
192,192,295973,1,0,0:0:0:0:
320,192,296067,1,0,0:0:0:0:
192,192,296161,1,0,0:0:0:0:
320,192,296255,1,0,0:0:0:0:
320,192,296442,128,0,296630:0:0:0:0:
192,192,296442,1,0,0:0:0:0:
192,192,296817,1,0,0:0:0:0:
64,192,296817,1,0,0:0:0:0:
448,192,296817,1,0,0:0:0:0:
192,192,297192,1,0,0:0:0:0:
320,192,297192,1,0,0:0:0:0:
448,192,297380,1,0,0:0:0:0:
64,192,297380,1,0,0:0:0:0:
320,192,297380,128,0,297567:0:0:0:0:
192,192,297567,1,0,0:0:0:0:
64,192,297755,1,0,0:0:0:0:
192,192,297755,128,0,297942:0:0:0:0:
448,192,297942,1,0,0:0:0:0:
64,192,298130,128,0,298692:0:0:0:0:
320,192,298130,1,0,0:0:0:0:
448,192,298130,1,0,0:0:0:0:
320,192,298505,1,0,0:0:0:0:
192,192,298692,1,0,0:0:0:0:
320,192,298786,1,0,0:0:0:0:
64,192,298880,128,0,299255:0:0:0:0:
448,192,298880,1,0,0:0:0:0:
448,192,299067,1,0,0:0:0:0:
192,192,299255,128,0,299442:0:0:0:0:
320,192,299255,1,0,0:0:0:0:
448,192,299442,1,0,0:0:0:0:
64,192,299442,1,0,0:0:0:0:
64,192,299817,1,0,0:0:0:0:
448,192,299817,1,0,0:0:0:0:
192,192,299817,128,0,300005:0:0:0:0:
192,192,300192,1,0,0:0:0:0:
320,192,300192,1,0,0:0:0:0:
448,192,300192,1,0,0:0:0:0:
64,192,300567,1,0,0:0:0:0:
192,192,300567,1,0,0:0:0:0:
320,192,300567,128,0,301130:0:0:0:0:
192,192,300755,1,0,0:0:0:0:
192,192,300942,1,0,0:0:0:0:
64,192,301036,1,0,0:0:0:0:
448,192,301130,128,0,301505:0:0:0:0:
192,192,301130,1,0,0:0:0:0:
192,192,301505,128,0,301880:0:0:0:0:
64,192,301505,1,0,0:0:0:0:
448,192,301880,128,0,302161:0:0:0:0:
320,192,301880,1,0,0:0:0:0:
192,192,302067,1,0,0:0:0:0:
64,192,302067,1,0,0:0:0:0:
320,192,302255,1,0,0:0:0:0:
320,192,302442,1,0,0:0:0:0:
64,192,302442,1,0,0:0:0:0:
448,192,302442,128,0,307130:0:0:0:0:
64,192,302817,128,0,303005:0:0:0:0:
192,192,303192,1,0,0:0:0:0:
320,192,303380,1,0,0:0:0:0:
192,192,303567,1,0,0:0:0:0:
64,192,303755,1,0,0:0:0:0:
64,192,303942,1,0,0:0:0:0:
192,192,304130,1,0,0:0:0:0:
320,192,304130,1,0,0:0:0:0:
64,192,304130,1,0,0:0:0:0:
64,192,304317,1,0,0:0:0:0:
64,192,304505,1,0,0:0:0:0:
64,192,304692,1,0,0:0:0:0:
64,192,304880,1,0,0:0:0:0:
64,192,305067,1,0,0:0:0:0:
64,192,305255,1,0,0:0:0:0:
64,192,305442,1,0,0:0:0:0:
64,192,305630,1,0,0:0:0:0:
192,192,305630,1,0,0:0:0:0:
64,192,305817,1,0,0:0:0:0:
192,192,305817,1,0,0:0:0:0:
64,192,306005,1,0,0:0:0:0:
192,192,306005,1,0,0:0:0:0:
64,192,306192,1,0,0:0:0:0:
192,192,306192,1,0,0:0:0:0:
64,192,306380,1,0,0:0:0:0:
192,192,306380,1,0,0:0:0:0:
64,192,306567,1,0,0:0:0:0:
192,192,306567,1,0,0:0:0:0:
64,192,306755,1,0,0:0:0:0:
192,192,306755,1,0,0:0:0:0:
192,192,306942,1,0,0:0:0:0:
64,192,306942,1,0,0:0:0:0:
192,192,307130,1,0,0:0:0:0:
64,192,307130,1,0,0:0:0:0:
320,192,307130,128,0,307692:0:0:0:0:
448,192,307692,128,0,308255:0:0:0:0:
320,192,308255,128,0,308817:0:0:0:0:
192,192,308442,1,0,0:0:0:0:
64,192,308536,1,0,0:0:0:0:
192,192,308630,1,0,0:0:0:0:
448,192,308723,1,0,0:0:0:0:
192,192,308817,128,0,309380:0:0:0:0:
64,192,308817,1,0,0:0:0:0:
320,192,308911,1,0,0:0:0:0:
448,192,309005,1,0,0:0:0:0:
320,192,309098,1,0,0:0:0:0:
64,192,309192,1,0,0:0:0:0:
320,192,309286,1,0,0:0:0:0:
64,192,309380,128,0,309755:0:0:0:0:
448,192,309380,1,0,0:0:0:0:
320,192,309473,1,0,0:0:0:0:
448,192,309567,1,0,0:0:0:0:
320,192,309661,1,0,0:0:0:0:
448,192,309755,1,0,0:0:0:0:
192,192,309755,1,0,0:0:0:0:
64,192,310130,1,0,0:0:0:0:
192,192,310130,1,0,0:0:0:0:
320,192,310130,1,0,0:0:0:0:
320,192,310317,1,0,0:0:0:0:
64,192,310411,1,0,0:0:0:0:
320,192,310505,1,0,0:0:0:0:
448,192,310505,1,0,0:0:0:0:
192,192,310505,1,0,0:0:0:0:
192,192,310880,1,0,0:0:0:0:
320,192,310973,1,0,0:0:0:0:
448,192,311067,1,0,0:0:0:0:
192,192,311067,1,0,0:0:0:0:
320,192,311255,1,0,0:0:0:0:
64,192,311255,1,0,0:0:0:0:
320,192,311442,1,0,0:0:0:0:
448,192,311442,1,0,0:0:0:0:
64,192,311442,128,0,312005:0:0:0:0:
320,192,311817,1,0,0:0:0:0:
448,192,312005,1,0,0:0:0:0:
320,192,312005,1,0,0:0:0:0:
448,192,312192,1,0,0:0:0:0:
64,192,312192,128,0,312567:0:0:0:0:
192,192,312380,1,0,0:0:0:0:
320,192,312567,1,0,0:0:0:0:
448,192,312567,1,0,0:0:0:0:
448,192,312755,128,0,313130:0:0:0:0:
320,192,312755,1,0,0:0:0:0:
192,192,312755,1,0,0:0:0:0:
64,192,312942,1,0,0:0:0:0:
192,192,313036,1,0,0:0:0:0:
64,192,313130,1,0,0:0:0:0:
320,192,313130,1,0,0:0:0:0:
64,192,313317,1,0,0:0:0:0:
192,192,313411,1,0,0:0:0:0:
320,192,313505,1,0,0:0:0:0:
192,192,313598,1,0,0:0:0:0:
320,192,313692,1,0,0:0:0:0:
448,192,313786,1,0,0:0:0:0:
320,192,313880,1,0,0:0:0:0:
64,192,313880,1,0,0:0:0:0:
192,192,313973,1,0,0:0:0:0:
64,192,314067,1,0,0:0:0:0:
192,192,314161,1,0,0:0:0:0:
64,192,314255,1,0,0:0:0:0:
448,192,314255,1,0,0:0:0:0:
320,192,314442,1,0,0:0:0:0:
448,192,314442,1,0,0:0:0:0:
192,192,314442,1,0,0:0:0:0:
64,192,315005,1,0,0:0:0:0:
320,192,315005,1,0,0:0:0:0:
192,192,315192,1,0,0:0:0:0:
448,192,315192,128,0,315567:0:0:0:0:
320,192,315192,1,0,0:0:0:0:
192,192,315380,1,0,0:0:0:0:
64,192,315473,1,0,0:0:0:0:
320,192,315567,1,0,0:0:0:0:
192,192,315755,1,0,0:0:0:0:
64,192,315755,128,0,316130:0:0:0:0:
320,192,315848,1,0,0:0:0:0:
192,192,315942,1,0,0:0:0:0:
320,192,316036,1,0,0:0:0:0:
192,192,316130,1,0,0:0:0:0:
448,192,316130,1,0,0:0:0:0:
192,192,316317,1,0,0:0:0:0:
64,192,316411,1,0,0:0:0:0:
448,192,316505,1,0,0:0:0:0:
192,192,316505,1,0,0:0:0:0:
448,192,316692,1,0,0:0:0:0:
64,192,316786,1,0,0:0:0:0:
192,192,316880,1,0,0:0:0:0:
320,192,316880,1,0,0:0:0:0:
64,192,316973,1,0,0:0:0:0:
448,192,317067,1,0,0:0:0:0:
320,192,317067,1,0,0:0:0:0:
448,192,317255,1,0,0:0:0:0:
192,192,317442,128,0,318005:0:0:0:0:
320,192,317442,1,0,0:0:0:0:
448,192,317442,1,0,0:0:0:0:
320,192,317817,1,0,0:0:0:0:
448,192,318005,1,0,0:0:0:0:
64,192,318005,1,0,0:0:0:0:
64,192,318192,1,0,0:0:0:0:
320,192,318192,128,0,318567:0:0:0:0:
192,192,318286,1,0,0:0:0:0:
448,192,318380,1,0,0:0:0:0:
192,192,318473,1,0,0:0:0:0:
448,192,318567,1,0,0:0:0:0:
64,192,318567,1,0,0:0:0:0:
192,192,318755,128,0,318942:0:0:0:0:
448,192,318755,1,0,0:0:0:0:
64,192,318942,1,0,0:0:0:0:
320,192,318942,1,0,0:0:0:0:
448,192,319130,1,0,0:0:0:0:
320,192,319317,1,0,0:0:0:0:
192,192,319505,1,0,0:0:0:0:
64,192,319692,1,0,0:0:0:0:
320,192,319692,1,0,0:0:0:0:
448,192,319692,1,0,0:0:0:0:
192,192,319880,1,0,0:0:0:0:
320,192,320067,1,0,0:0:0:0:
448,192,320255,1,0,0:0:0:0:
448,192,320442,1,0,0:0:0:0:
192,192,320442,1,0,0:0:0:0:
64,192,320442,1,0,0:0:0:0:
320,192,320630,1,0,0:0:0:0:
192,192,320817,1,0,0:0:0:0:
64,192,321005,1,0,0:0:0:0:
192,192,321192,1,0,0:0:0:0:
320,192,321192,1,0,0:0:0:0:
448,192,321192,1,0,0:0:0:0:
64,192,321380,1,0,0:0:0:0:
448,192,321473,1,0,0:0:0:0:
192,192,321567,1,0,0:0:0:0:
320,192,321755,1,0,0:0:0:0:
320,192,321942,1,0,0:0:0:0:
64,192,321942,128,0,325130:0:0:0:0:
448,192,321942,1,0,0:0:0:0:
448,192,322880,1,0,0:0:0:0:
448,192,323067,1,0,0:0:0:0:
448,192,323255,1,0,0:0:0:0:
448,192,323442,1,0,0:0:0:0:
320,192,323630,1,0,0:0:0:0:
448,192,323630,1,0,0:0:0:0:
320,192,323817,1,0,0:0:0:0:
448,192,323817,1,0,0:0:0:0:
320,192,324005,1,0,0:0:0:0:
448,192,324005,1,0,0:0:0:0:
320,192,324192,1,0,0:0:0:0:
448,192,324192,1,0,0:0:0:0:
192,192,324380,1,0,0:0:0:0:
448,192,324380,1,0,0:0:0:0:
192,192,324567,1,0,0:0:0:0:
448,192,324567,1,0,0:0:0:0:
192,192,324755,1,0,0:0:0:0:
448,192,324755,1,0,0:0:0:0:
192,192,324942,1,0,0:0:0:0:
448,192,324942,1,0,0:0:0:0:
448,192,325130,1,0,0:0:0:0:
320,192,325130,1,0,0:0:0:0:
448,192,325317,1,0,0:0:0:0:
320,192,325411,1,0,0:0:0:0:
192,192,325505,1,0,0:0:0:0:
64,192,325598,1,0,0:0:0:0:
192,192,325692,1,0,0:0:0:0:
320,192,325786,1,0,0:0:0:0:
448,192,325880,1,0,0:0:0:0:
320,192,325973,1,0,0:0:0:0:
192,192,326067,1,0,0:0:0:0:
64,192,326161,1,0,0:0:0:0:
192,192,326255,1,0,0:0:0:0:
448,192,326255,1,0,0:0:0:0:
320,192,326442,1,0,0:0:0:0:
192,192,326442,1,0,0:0:0:0:
64,192,326442,1,0,0:0:0:0:
