osu file format v14

[General]
AudioFilename: koi no honoo.mp3
AudioLeadIn: 2000
PreviewTime: 46687
Countdown: 0
SampleSet: Normal
StackLeniency: 0.7
Mode: 0
LetterboxInBreaks: 0
WidescreenStoryboard: 0

[Editor]
Bookmarks: 209397,251406
DistanceSpacing: 1
BeatDivisor: 2
GridSize: 4
TimelineZoom: 2.599999

[Metadata]
Title:Koi no Honoo
TitleUnicode:恋の炎
Artist:Sakakibara Yui
ArtistUnicode:榊原ゆい
Creator:LQA20Ans
Version:Beomsan's Easy
Source:Kanokon
Tags:かのこん ending GHUROOVY Karia Fast Beomsan
BeatmapID:707569
BeatmapSetID:70842

[Difficulty]
HPDrainRate:2
CircleSize:3
OverallDifficulty:2
ApproachRate:3
SliderMultiplier:0.9
SliderTickRate:2

[Events]
//Background and Video events
0,0,"BG.jpg",0,0
//Break Periods
2,72348,77197
2,165048,170797
//Storyboard Layer 0 (Background)
//Storyboard Layer 1 (Fail)
//Storyboard Layer 2 (Pass)
//Storyboard Layer 3 (Foreground)
//Storyboard Sound Samples

[TimingPoints]
1098,300,4,1,0,80,1,0
1837,300,4,1,0,80,1,0
12937,-100,4,2,10,60,0,0
23137,-100,4,1,0,60,0,0
23437,-100,4,2,10,60,0,0
25537,-100,4,1,0,60,0,0
25837,-100,4,2,10,60,0,0
27937,-100,4,1,10,60,0,0
28237,-100,4,2,10,60,0,0
28687,-100,4,2,2,60,0,0
29137,-100,4,2,10,60,0,0
30637,-100,4,1,10,60,0,0
47437,-100,4,2,10,80,0,1
47887,-100,4,2,2,80,0,1
47987,-100,4,2,10,80,0,1
49087,-100,4,2,2,80,0,1
49162,-100,4,2,10,80,0,1
50287,-100,4,2,2,80,0,1
50362,-100,4,2,10,80,0,1
51487,-100,4,2,2,80,0,1
51562,-100,4,2,10,80,0,1
57487,-100,4,2,2,80,0,1
57562,-100,4,2,10,80,0,1
58387,-100,4,2,2,80,0,1
58462,-100,4,2,10,80,0,1
59887,-100,4,2,2,80,0,1
59962,-100,4,2,10,80,0,1
60787,-100,4,2,2,80,0,1
60862,-100,4,2,10,80,0,1
63487,-100,4,2,2,80,0,1
63562,-100,4,2,10,80,0,1
69037,-100,4,1,0,80,0,0
78637,-100,4,2,10,60,0,0
117037,-100,4,2,10,80,0,1
117487,-100,4,2,2,80,0,1
117562,-100,4,2,10,80,0,1
118387,-100,4,2,2,80,0,1
118837,-100,4,2,10,80,0,1
119887,-100,4,2,2,80,0,1
119962,-100,4,2,10,80,0,1
120787,-100,4,2,2,80,0,1
120862,-100,4,2,10,80,0,1
127087,-100,4,2,2,80,0,1
127537,-100,4,2,10,80,0,1
127987,-100,4,2,2,80,0,1
128137,-100,4,2,10,80,0,1
129487,-100,4,2,2,80,0,1
129637,-100,4,2,10,80,0,1
130387,-100,4,2,2,80,0,1
130537,-100,4,2,10,80,0,1
137737,-100,4,1,0,80,0,0
141037,-100,4,1,10,80,0,0
172237,-100,4,2,10,60,0,0
179437,-100,4,1,10,60,0,0
184237,-100,4,1,0,80,0,1
204937,-100,4,1,0,80,0,0
210637,-100,4,1,0,80,0,1
250537,-100,4,1,0,80,0,0

[Colours]
Combo1 : 191,188,185
Combo2 : 250,23,5
Combo3 : 255,128,0
Combo4 : 255,255,0

[HitObjects]
84,200,1837,6,0,P|112:284|204:296,1,180
348,208,3037,2,0,B|380:176|420:168|420:168|384:128|376:68,1,180
200,68,4237,6,0,P|180:159|96:193,1,180
116,104,5137,1,0,0:0:0:0:
60,36,5437,2,0,P|32:76|28:128,1,90
24,204,6037,2,0,L|24:308,1,90
100,344,6637,6,0,P|148:264|240:220,1,180
316,68,7837,2,0,P|384:123|407:209,1,180
256,192,9037,12,0,11437,0:0:0:0:
448,64,12937,5,0,0:0:0:0:
424,152,13237,2,0,P|420:240|340:288,1,180
260,280,14137,5,0,0:0:0:0:
172,264,14437,2,0,P|88:192|100:96,2,180
260,280,15937,2,0,L|336:200,1,90
320,124,16537,5,0,0:0:0:0:
368,48,16837,2,0,P|436:104|444:192,2,180
320,124,18337,1,0,0:0:0:0:
321,214,18637,6,0,B|295:214|295:214|195:298|195:298|171:298,1,180,4|4,0:0|0:0,0:0:0:0:
128,220,19537,1,4,0:0:0:0:
48,180,19837,2,0,P|40:93|112:32,1,180,0|4,0:0|0:0,0:0:0:0:
284,40,21037,6,0,B|257:130|330:172|404:219|388:273,2,270,8|8|8,0:0|0:0|0:0,0:0:0:0:
196,64,23137,1,2,0:0:0:0:
156,144,23437,2,0,P|64:180|16:44,2,270,8|8|8,0:0|0:0|0:0,0:0:0:0:
232,192,25537,1,2,0:0:0:0:
236,280,25837,6,0,B|376:296|376:296|512:268,2,270,8|8|8,0:0|0:0|0:0,0:0:0:0:
200,196,27937,1,4,0:0:0:0:
136,132,28237,6,0,P|84:212|104:320,1,180,8|0,0:0|0:0,0:0:0:0:
172,328,29137,1,8,0:0:0:0:
260,352,29437,2,0,L|344:284,1,90,8|8,0:0|0:0,0:0:0:0:
392,232,30037,2,0,L|392:128,1,90,0|8,0:0|0:0,0:0:0:0:
312,104,30637,6,0,P|376:48|460:88,2,180,4|0|0,0:0|0:0|0:0,0:0:0:0:
268,184,32137,1,0,0:0:0:0:
188,144,32437,2,0,L|104:76,1,90
32,116,33037,6,0,P|40:200|128:240,2,180,4|0|0,0:0|0:0|0:0,0:0:0:0:
116,148,34537,1,0,0:0:0:0:
204,172,34837,2,0,L|312:172,1,90
344,248,35437,2,0,P|380:168|336:88,1,180
252,84,36337,1,0,0:0:0:0:
168,56,36637,2,0,P|124:64|64:100,1,90
92,172,37237,2,0,P|57:200|23:262,1,90
112,280,37837,6,0,P|204:348|352:304,1,270
432,336,39037,2,0,P|432:292|408:240,1,90
328,224,39637,6,0,P|292:144|324:48,1,180,0|4,0:0|0:0,0:0:0:0:
136,60,40837,2,0,B|132:104|132:104|148:152,1,90
184,228,41437,1,0,0:0:0:0:
256,284,41737,2,0,B|300:280|300:280|344:260,1,90
416,212,42337,1,0,0:0:0:0:
380,128,42637,6,0,P|292:144|236:68,1,180
160,124,43537,2,0,P|156:168|168:220,1,90
196,296,44137,1,0,0:0:0:0:
284,304,44437,2,0,L|400:304,1,90,0|8,0:0|2:0,0:0:0:0:
256,192,45037,12,0,46087,0:0:0:0:
404,356,47437,6,0,P|360:260|436:124,1,270,8|8,0:0|0:0,0:0:0:0:
360,76,48637,1,8,0:0:0:0:
276,40,48937,2,0,L|184:40,1,90
108,84,49537,1,8,0:0:0:0:
184,128,49837,6,0,P|228:224|152:360,1,270,8|8,0:0|0:0,0:0:0:0:
112,280,51037,1,8,0:0:0:0:
104,192,51337,2,0,L|60:112,1,90
132,56,51937,1,8,0:0:0:0:
220,80,52237,6,0,B|280:119|332:67|332:67|388:15|468:63,1,270,4|0,0:0|0:0,0:0:0:0:
420,140,53437,2,0,P|392:222|310:252,1,180,4|0,0:0|0:0,0:0:0:0:
224,224,54337,1,0,0:0:0:0:
180,304,54637,6,0,P|81:227|136:115,2,270,4|4|4,0:0|0:0|0:0,0:0:0:0:
300,168,57037,6,0,P|356:240|368:332,1,180,8|0,0:0|0:0,0:0:0:0:
284,296,57937,2,0,P|228:224|216:132,1,180,8|0,0:0|0:0,0:0:0:0:
268,64,58837,2,0,P|224:48|176:52,1,90,8|0,0:0|0:0,0:0:0:0:
104,100,59437,2,0,P|132:184|96:276,1,180,8|0,0:0|0:0,0:0:0:0:
152,344,60337,2,0,P|240:332|292:248,1,180,8|0,0:0|0:0,0:0:0:0:
344,188,61237,2,0,P|388:204|432:204,1,90,8|0,0:0|0:0,0:0:0:0:
400,120,61837,5,4,0:0:0:0:
324,76,62137,2,0,L|216:76,1,90,8|8,0:0|0:0,0:0:0:0:
144,76,62737,1,0,0:0:0:0:
64,36,63037,2,0,P|64:124|156:164,1,180,8|0,0:0|0:0,0:0:0:0:
224,168,63937,1,8,0:0:0:0:
280,240,64237,2,0,P|320:260|384:268,1,90,8|0,0:0|0:0,0:0:0:0:
404,140,64987,1,0,0:0:0:0:
368,56,65287,2,0,P|319:111|321:175,1,135,8|4,0:0|0:0,0:0:0:0:
104,332,66637,6,0,B|148:276|108:215|108:215|108:160,2,180,8|8|8,0:0|0:0|0:0,0:0:0:0:
192,344,68137,1,8,0:0:0:0:
272,304,68437,2,0,P|316:308|364:304,1,90
256,192,69037,12,0,71437,0:0:0:0:
392,356,78637,6,0,B|440:272|440:272|448:168,1,180
448,100,79537,1,0,0:0:0:0:
364,68,79837,2,0,P|296:128|192:124,1,180
128,92,80737,1,0,0:0:0:0:
40,116,81037,6,0,P|28:208|32:312,1,180
108,340,81937,1,0,0:0:0:0:
196,360,82237,2,0,B|280:332|280:332|380:332,1,180
460,332,83137,1,0,0:0:0:0:
412,256,83437,6,0,P|380:144|412:88,2,180,4|0|0,0:0|0:0|0:0,0:0:0:0:
460,332,84937,1,0,0:0:0:0:
372,340,85237,2,0,P|328:340|280:332,1,90
200,364,85837,6,0,P|160:276|212:200,1,180
260,144,86737,1,0,0:0:0:0:
348,128,87037,2,0,P|428:96|468:12,2,180,0|0|4,0:0|0:0|0:0,0:0:0:0:
260,144,88537,5,0,0:0:0:0:
180,104,88837,2,0,B|128:180|128:180|28:224,1,180
88,296,89737,1,0,0:0:0:0:
156,352,90037,2,0,L|208:272,1,90
256,204,90637,6,0,P|328:252|424:228,1,180
392,148,91537,1,0,0:0:0:0:
340,76,91837,2,0,P|300:52|256:36,1,90
168,36,92437,2,0,P|125:51|87:75,1,90
56,160,93037,6,0,P|56:244|132:304,1,180,4|0,0:0|0:0,0:0:0:0:
184,232,93937,1,0,0:0:0:0:
272,256,94237,2,0,P|292:296|332:340,1,90
392,276,94837,2,0,P|429:300|485:318,1,90
464,228,95437,6,0,B|448:184|448:184|448:84|448:84|432:40,2,180,4|0|0,0:0|0:0|0:0,0:0:0:0:
392,276,96937,1,0,0:0:0:0:
312,316,97237,2,0,B|280:284|224:308|160:332|124:304,1,180,4|0,0:0|0:0,0:0:0:0:
44,156,98437,6,0,L|116:88,1,90,8|0,0:0|0:0,0:0:0:0:
176,36,99037,1,0,0:0:0:0:
260,68,99337,2,0,L|356:80,1,90,8|0,0:0|0:0,0:0:0:0:
436,96,99937,1,8,0:0:0:0:
384,168,100237,6,0,P|404:268|468:312,1,180,0|8,0:0|0:0,0:0:0:0:
400,372,101137,2,0,B|324:372|272:340|272:340|212:348,1,180,0|8,0:0|0:0,0:0:0:0:
144,384,102037,2,0,P|112:348|96:304,1,90,0|8,0:0|0:0,0:0:0:0:
60,228,102637,6,0,P|69:142|153:102,1,180,0|8,0:0|0:0,0:0:0:0:
196,180,103537,2,0,B|288:184|288:184|380:156,1,180,0|8,0:0|0:0,0:0:0:0:
400,80,104437,2,0,P|436:108|452:160,1,90,0|8,0:0|0:0,0:0:0:0:
448,240,105037,6,0,B|436:284|388:312|388:312|344:308|292:340,1,180,0|8,0:0|0:0,0:0:0:0:
220,344,105937,2,0,P|128:328|96:240,1,180,0|8,0:0|0:0,0:0:0:0:
180,224,106837,2,0,L|192:120,1,90,0|8,0:0|0:0,0:0:0:0:
100,124,107437,6,0,P|148:52|240:60,1,180,0|8,0:0|0:0,0:0:0:0:
304,112,108337,6,0,P|390:115|437:43,1,180,0|8,0:0|0:0,0:0:0:0:
504,104,109237,2,0,P|504:152|488:212,1,90
416,240,109837,2,0,P|392:281|348:325,1,90
280,280,110437,2,0,L|188:280,1,90,0|8,0:0|0:0,0:0:0:0:
124,344,111037,2,0,P|92:260|132:180,1,180,0|8,0:0|0:0,0:0:0:0:
220,180,111937,1,0,0:0:0:0:
300,220,112237,6,0,P|296:136|204:88,2,180
236,284,113737,1,0,0:0:0:0:
160,332,114037,2,0,L|64:332,1,90,0|8,0:0|0:0,0:0:0:0:
256,192,114637,12,0,115687,0:0:0:0:
340,56,117037,6,0,B|364:188|364:188|404:216,1,180,8|0,0:0|0:0,0:0:0:0:
484,252,117937,2,0,P|424:332|328:352,1,180,8|0,0:0|0:0,0:0:0:0:
272,308,118837,2,0,L|180:324,1,90,8|0,0:0|0:0,0:0:0:0:
96,300,119437,6,0,B|108:256|144:240|144:240|148:180|148:180|92:144,1,180,8|0,0:0|0:0,0:0:0:0:
68,80,120337,2,0,P|156:84|224:144,1,180,8|0,0:0|0:0,0:0:0:0:
260,224,121237,2,0,L|356:208,1,90,8|0,0:0|0:0,0:0:0:0:
436,192,121837,5,4,0:0:0:0:
340,344,122437,1,0,0:0:0:0:
160,332,123037,2,0,P|112:344|60:328,1,90
116,256,123637,2,0,L|136:156,1,90
160,80,124237,6,0,P|248:96|284:188,1,180,4|0,0:0|0:0,0:0:0:0:
284,260,125137,1,0,0:0:0:0:
288,348,125437,2,0,P|245:363|191:356,1,90,8|0,0:0|0:0,0:0:0:0:
197,272,126037,2,0,P|239:255|283:259,1,90,8|0,0:0|0:0,0:0:0:0:
288,348,126637,6,0,P|376:348|436:272,1,180,8|0,0:0|0:0,0:0:0:0:
448,196,127537,2,0,B|400:68|400:68|428:24,1,180,8|0,0:0|0:0,0:0:0:0:
332,28,128437,2,0,L|240:28,1,90,8|0,0:0|0:0,0:0:0:0:
152,48,129037,6,0,P|68:84|60:168,1,180,8|0,0:0|0:0,0:0:0:0:
140,200,129937,2,0,B|224:304|224:304|200:352,1,180,8|0,0:0|0:0,0:0:0:0:
292,348,130837,2,0,L|384:348,1,90,8|0,0:0|0:0,0:0:0:0:
388,260,131437,6,0,P|396:152|456:164,1,180,4|0,0:0|0:0,0:0:0:0:
292,48,132637,2,0,P|208:88|124:36,1,180,4|0,0:0|0:0,0:0:0:0:
56,92,133537,1,0,0:0:0:0:
80,180,133837,6,0,L|48:268,1,90,4|0,0:0|0:0,0:0:0:0:
112,328,134437,2,0,B|156:308|200:320|200:320|232:264|300:272,1,180,4|4,0:0|0:0,0:0:0:0:
284,360,135337,1,4,0:0:0:0:
432,256,135937,6,0,L|420:160,1,90
408,76,136537,1,0,0:0:0:0:
332,128,136837,2,0,B|300:136|300:136|188:96|188:96|136:104,1,180
72,120,137737,1,0,0:0:0:0:
256,192,138637,12,0,139837,0:0:0:0:
408,88,141037,6,0,P|304:136|268:96,1,180,0|8,0:0|0:0,0:0:0:0:
128,212,142237,2,0,B|204:272|220:212|304:268,1,180,0|8,0:0|0:0,0:0:0:0:
120,296,143437,6,0,P|72:280|48:224,2,90,0|4|4,0:0|0:0|0:0,0:0:0:0:
296,332,144637,2,0,L|388:332,1,90,0|8,0:0|0:0,0:0:0:0:
416,248,145237,2,0,P|404:160|472:108,1,180,4|8,0:0|0:0,0:0:0:0:
296,56,146437,6,0,L|200:56,1,90,0|8,0:0|0:0,0:0:0:0:
132,108,147037,2,0,P|156:148|168:196,1,90,0|8,0:0|0:0,0:0:0:0:
132,272,147637,2,0,P|144:316|172:352,1,90,0|8,0:0|0:0,0:0:0:0:
256,320,148237,6,0,L|348:320,2,90,0|4|4,0:0|0:0|0:0,0:0:0:0:
112,212,149437,2,0,L|140:116,1,90,0|8,0:0|0:0,0:0:0:0:
228,128,150037,2,0,L|300:58,1,90,0|8,0:0|0:0,0:0:0:0:
380,92,150637,6,0,P|448:148|440:244,2,180,0|8|0,0:0|0:0|0:0,0:0:0:0:
248,120,152287,2,0,L|92:120,1,135,8|0,0:0|0:0,0:0:0:0:
116,208,153037,6,0,L|208:224,2,90,0|4|4,0:0|0:0|0:0,0:0:0:0:
68,36,154237,2,0,P|88:76|144:96,1,90,0|8,0:0|0:0,0:0:0:0:
216,88,154837,2,0,P|255:107|275:147,1,90,4|8,0:0|0:0,0:0:0:0:
356,188,155437,6,0,P|420:132|400:36,2,180,0|8|8,0:0|0:0|0:0,0:0:0:0:
260,284,157087,2,0,L|120:300,1,135,0|8,0:0|0:0,0:0:0:0:
256,192,157837,12,4,159637,0:0:0:0:
256,192,160237,12,4,162637,0:0:0:0:
376,100,172237,6,0,B|396:188|396:188|460:276,1,180
388,328,173137,2,0,P|304:352|208:328,1,180
156,264,174037,2,0,L|56:264,1,90
80,176,174637,6,0,P|136:100|232:100,1,180
280,156,175537,2,0,B|340:152|384:192|384:192|400:148|436:136,1,180
472,216,176437,2,0,P|472:264|456:308,1,90
368,312,177037,6,0,P|280:296|196:344,1,180
92,192,178237,2,0,P|148:124|140:16,1,180
256,192,179437,12,0,181237,0:0:0:0:
256,192,181837,12,0,183037,0:0:0:0:
436,88,184237,6,0,P|392:104|328:104,1,90,0|4,0:0|0:0,0:0:0:0:
216,80,184987,2,0,L|228:228,1,135,0|4,0:0|0:0,0:0:0:0:
108,348,186037,2,0,L|100:252,1,90,8|0,0:0|0:0,0:0:0:0:
124,172,186637,5,0,0:0:0:0:
196,116,186937,2,0,L|336:96,2,135,4|0|4,0:0|0:0|0:0,0:0:0:0:
124,172,188137,2,0,L|28:188,2,90,0|4|0,0:0|0:0|0:0,0:0:0:0:
196,116,189037,1,4,0:0:0:0:
392,332,191437,6,0,B|408:288|408:288|408:128,1,180,8|0,0:0|0:0,0:0:0:0:
352,84,192337,1,8,0:0:0:0:
264,96,192637,2,0,L|164:108,1,90,0|8,0:0|0:0,0:0:0:0:
104,160,193237,2,0,L|4:172,1,90,0|8,0:0|0:0,0:0:0:0:
48,256,193837,6,0,P|92:332|192:336,1,180
248,284,194737,2,0,B|304:280|332:256|332:256|364:284|424:284,1,180
428,196,195637,2,0,L|380:108,1,90
304,72,196237,6,0,P|224:108|136:60,1,180
108,152,197137,2,0,P|92:240|140:320,1,180
220,284,198037,2,0,L|312:280,1,90
372,212,198637,6,0,B|324:80|324:80|276:60,1,180
200,220,199837,2,0,B|248:352|248:352|296:372,1,180
364,324,200737,1,0,0:0:0:0:
400,240,201037,6,0,P|452:240|492:224,1,90
428,156,201637,2,0,P|352:112|328:24,1,180
244,56,202537,1,0,0:0:0:0:
32,220,203437,6,0,P|20:308|80:388,1,180
148,340,204337,1,0,0:0:0:0:
236,320,204637,2,0,L|332:320,1,90
256,192,205837,12,0,207937,0:0:0:0:
256,192,208237,12,0,209437,0:0:0:0:
372,72,210637,6,0,B|404:156|404:156|484:212,1,180
424,280,211537,2,0,B|352:332|352:332|236:352,1,180
204,280,212437,2,0,L|100:280,1,90
76,200,213037,6,0,P|52:116|112:44,1,180
180,96,213937,2,0,P|268:104|344:32,1,180
424,68,214837,2,0,L|468:148,1,90
460,236,215437,6,0,B|360:224|392:296|268:288,1,180
204,284,216337,1,0,0:0:0:0:
136,344,216637,2,0,P|114:279|132:235,1,90
164,184,217237,2,0,P|166:139|146:100,1,90
228,60,217837,6,0,B|260:60|260:60|368:96|368:96|424:92,1,180
468,212,218887,2,0,B|376:248|376:248|304:200|256:232,1,225
172,240,219937,1,0,0:0:0:0:
84,260,220237,6,0,P|136:328|228:312,1,180
256,232,221137,2,0,P|204:160|110:179,1,180
84,252,222037,2,0,P|80:296|84:364,1,90
172,344,222637,6,0,B|260:344|260:344|344:280,1,180
380,212,223537,2,0,B|416:128|416:128|492:72,1,180
404,36,224437,2,0,B|304:32|308:32,1,90
236,76,225037,6,0,P|192:192|80:136,1,270
36,224,226237,2,0,P|156:280|280:232,1,270
332,164,227437,6,0,P|396:184|428:248,1,135
360,300,228187,2,0,L|296:364,1,90
76,316,229237,2,0,L|76:128,1,180
204,92,230287,6,0,P|288:108|332:80,1,135
408,124,231037,2,0,L|376:220,1,90
312,272,231637,2,0,L|280:368,1,90
192,356,232237,2,0,P|124:276|140:196,1,180
192,140,233137,2,0,B|272:100|272:100|364:104,1,180
388,192,234037,2,0,P|396:280|332:344,1,180
160,300,235237,5,0,0:0:0:0:
148,120,235837,2,0,L|240:92,1,90
324,96,236437,2,0,L|416:68,1,90
428,160,237037,6,0,B|432:208|460:244|460:244|436:280|444:344,1,180
352,328,237937,1,0,0:0:0:0:
268,296,238237,2,0,P|228:276|176:276,1,90
92,280,238837,2,0,P|47:278|8:252,1,90
72,196,239437,6,0,P|112:116|208:100,1,180
284,112,240337,2,0,L|444:224,1,180
400,300,241237,2,0,L|320:244,1,90
236,228,241837,6,0,P|192:304|96:304,1,180
96,220,242737,2,0,B|120:132|120:132|100:32,1,180
192,60,243637,2,0,B|236:76|236:76|280:76,1,90
368,72,244237,6,0,P|444:144|324:196,1,270
248,180,245437,2,0,P|140:222|213:311,1,270
304,308,246637,6,0,B|408:316|408:316|440:344,1,135
504,284,247387,2,0,B|472:256|472:256|508:156|468:80,1,225
200,56,249037,6,0,P|132:108|120:168,1,135
148,240,249787,1,0,0:0:0:0:
140,328,250087,2,0,P|188:320|236:240,1,135
208,168,250837,2,0,P|251:163|291:184,1,90
256,192,251437,12,0,253837,0:0:0:0:
380,92,255037,6,0,L|276:72,1,90
200,84,255637,2,0,L|92:84,1,90
96,172,256237,6,0,P|156:308|196:180,1,360
284,148,257737,2,0,L|396:148,2,90
300,236,258637,6,0,L|456:236,2,135
