osu file format v14

[General]
AudioFilename: audio.mp3
AudioLeadIn: 0
PreviewTime: 69321
Countdown: 0
SampleSet: Soft
StackLeniency: 0.4
Mode: 0
LetterboxInBreaks: 0
WidescreenStoryboard: 1

[Editor]
DistanceSpacing: 0.5
BeatDivisor: 4
GridSize: 4
TimelineZoom: 1.3

[Metadata]
Title:Kanpeki na Sekai
TitleUnicode:完璧な世界
Artist:Sakakibara Yui
ArtistUnicode:榊原ゆい
Creator:Garden
Version:nika's Expert
Source:青い空のカミュ
Tags:kai opening short aoi sora no camus visual novel eroge video game pop japanese fushimi rio imoutosan my angel yayoi nika mika sodarose
BeatmapID:2472811
BeatmapSetID:1130365

[Difficulty]
HPDrainRate:6.9
CircleSize:5.9
OverallDifficulty:8.9
ApproachRate:8.9
SliderMultiplier:1.2
SliderTickRate:1

[Events]
//Background and Video events
0,0,"CG43e-L.jpg",0,0
//Break Periods
//Storyboard Layer 0 (Background)
//Storyboard Layer 1 (Fail)
//Storyboard Layer 2 (Pass)
//Storyboard Layer 3 (Foreground)
//Storyboard Layer 4 (Overlay)
//Storyboard Sound Samples

[TimingPoints]
6484,405.405405405405,4,2,1,50,1,0
68105,-400,4,2,1,50,0,0
71348,-80,4,2,1,70,0,1
82700,-400,4,2,1,50,0,0
84119,-80,4,2,1,70,0,1
95673,-200,4,2,1,70,0,1
97294,-370.37037037037,4,2,1,60,0,0
97497,-370.37037037037,4,2,1,5,0,0

[Colours]
Combo1 : 255,255,164
Combo2 : 201,201,228

[HitObjects]
15,359,6484,5,4,0:1:0:0:
29,356,6686,1,0,0:0:0:0:
44,353,6889,1,0,0:0:0:0:
57,292,7091,5,2,0:0:0:0:
71,296,7192,1,2,0:0:0:0:
83,300,7294,1,2,0:0:0:0:
162,365,7497,5,0,0:0:0:0:
176,362,7699,1,0,0:0:0:0:
204,296,7902,5,2,0:0:0:0:
218,300,8003,1,2,0:0:0:0:
230,304,8105,1,2,0:0:0:0:
308,370,8308,5,0,0:0:0:0:
322,367,8510,1,0,0:0:0:0:
336,364,8713,1,0,0:0:0:0:
191,359,8916,1,0,0:0:0:0:
343,302,9119,5,2,0:0:0:0:
357,306,9220,1,2,0:0:0:0:
369,310,9322,1,2,0:0:0:0:
444,368,9524,5,0,0:0:0:0:
456,272,9727,5,4,0:1:0:0:
459,195,9929,5,2,0:0:0:0:
455,180,10031,1,2,0:0:0:0:
464,209,10132,2,0,P|492:221|512:242,1,60,2|0,0:0|0:0,0:0:0:0:
394,147,10538,5,0,0:0:0:0:
403,64,10740,5,2,0:0:0:0:
399,49,10842,1,2,0:0:0:0:
408,78,10943,2,0,P|436:90|456:111,1,60,2|0,0:0|0:0,0:0:0:0:
261,47,11348,5,0,0:0:0:0:
275,44,11551,1,0,0:0:0:0:
203,109,11754,5,0,0:0:0:0:
217,106,11957,1,0,0:0:0:0:
299,122,12159,5,2,0:0:0:0:
297,136,12261,1,2,0:0:0:0:
294,150,12362,1,2,0:0:0:0:
182,3,12565,5,2,0:0:0:0:
179,17,12667,1,2,0:0:0:0:
176,31,12768,1,2,0:0:0:0:
68,103,12970,6,0,P|34:98|13:84,1,60,4|0,0:1|0:0,0:0:0:0:
62,38,13375,1,0,0:0:0:0:
175,171,13578,5,2,0:0:0:0:
175,171,13679,1,2,0:0:0:0:
175,171,13781,2,0,P|143:183|117:182,1,60,2|0,0:0|0:0,0:0:0:0:
137,117,14186,1,0,0:0:0:0:
302,217,14389,5,2,0:0:0:0:
302,217,14490,1,2,0:0:0:0:
302,217,14592,2,0,P|280:243|257:255,1,60,2|0,0:0|0:0,0:0:0:0:
242,189,14997,1,0,0:0:0:0:
244,174,15200,1,0,0:0:0:0:
247,159,15402,1,0,0:0:0:0:
361,235,15605,5,2,0:0:0:0:
358,250,15706,1,2,0:0:0:0:
356,265,15808,1,2,0:0:0:0:
451,241,16011,1,0,0:0:0:0:
423,339,16213,6,0,P|395:329|364:332,1,60,4|2,0:1|0:0,0:0:0:0:
306,309,16518,1,2,0:0:0:0:
306,309,16619,1,2,0:0:0:0:
263,359,16821,1,0,0:0:0:0:
197,353,17024,6,0,P|166:342|148:322,1,60,0|2,0:0|0:0,0:0:0:0:
101,280,17328,1,2,0:0:0:0:
101,280,17429,1,2,0:0:0:0:
35,289,17632,1,0,0:0:0:0:
0,345,17835,6,0,L|59:357,1,60,0|0,0:0|0:0,0:0:0:0:
148,218,18240,2,0,L|89:206,1,60,0|0,0:0|0:0,0:0:0:0:
27,127,18646,6,0,L|35:160,2,30,2|2|2,0:0|0:0|0:0,0:0:0:0:
107,98,19051,2,0,L|103:135,1,30,2|2,0:0|0:0,0:0:0:0:
178,107,19254,5,2,0:0:0:0:
178,107,19456,2,0,P|174:74|156:47,1,60,4|0,3:1|0:0,0:0:0:0:
100,34,19862,1,2,3:2:0:0:
154,212,20065,2,0,P|180:192|194:162,1,60,2|2,0:0|3:2,0:0:0:0:
178,107,20471,1,0,0:0:0:0:
52,244,20673,2,0,P|82:257|114:254,1,60,2|2,3:2|0:0,0:0:0:0:
161,298,21078,2,0,P|191:311|223:308,1,60,2|0,3:2|0:0,0:0:0:0:
267,357,21483,2,0,P|297:370|329:367,1,60,2|0,3:2|0:0,0:0:0:0:
398,312,21889,6,0,P|395:265|383:224,1,90,2|2,3:2|0:0,0:0:0:0:
323,194,22294,2,0,P|345:167|373:159,1,60,2|0,3:2|0:0,0:0:0:0:
210,213,22700,6,0,P|232:186|260:178,1,60,2|2,3:2|0:0,0:0:0:0:
323,194,23105,1,2,3:2:0:0:
251,106,23308,2,0,P|285:111|306:131,1,60,0|2,0:0|3:2,0:0:0:0:
323,194,23713,1,2,0:0:0:0:
364,88,23916,2,0,P|376:120|369:148,1,60,2|0,3:2|0:0,0:0:0:0:
315,250,24321,2,0,P|310:220|322:193,1,60,0|2,3:0|0:0,0:0:0:0:
354,312,24727,2,0,P|321:324|293:317,1,60,0|2,3:0|0:0,0:0:0:0:
164,253,25132,6,0,P|214:251|248:270,1,90,2|0,3:2|0:0,0:0:0:0:
128,196,25538,2,0,P|103:220|97:246,1,60,2|0,3:2|0:0,0:0:0:0:
242,173,25943,6,0,P|216:157|186:154,1,60,2|0,3:2|0:0,0:0:0:0:
128,196,26348,1,0,3:0:0:0:
348,116,26551,2,0,P|335:145|311:161,1,60,2|2,0:0|3:2,0:0:0:0:
242,173,26956,1,0,0:0:0:0:
460,170,27159,2,0,P|429:171|401:160,1,60,2|2,3:2|0:0,0:0:0:0:
332,50,27565,2,0,P|362:48|390:59,1,60,2|2,3:2|0:0,0:0:0:0:
206,56,27970,2,0,P|236:54|264:65,1,60,0|2,3:0|0:0,0:0:0:0:
137,91,28375,5,2,3:2:0:0:
71,122,28578,1,0,0:0:0:0:
3,155,28781,2,0,B|-14:126|-27:79|3:67|15:82|20:92,1,90,2|0,3:2|0:0,0:0:0:0:
81,222,29186,6,0,L|147:215,1,60,2|2,3:2|0:0,0:0:0:0:
251,156,29592,1,2,3:2:0:0:
191,162,29794,2,0,L|257:155,1,60,0|2,0:0|3:2,0:0:0:0:
361,96,30200,1,2,0:0:0:0:
301,102,30402,2,0,L|367:95,1,60,2|0,3:2|0:0,0:0:0:0:
433,145,30808,2,0,P|432:178|417:202,1,60,0|2,3:0|0:0,0:0:0:0:
461,255,31213,2,0,P|460:288|445:312,1,60,0|2,3:0|0:0,0:0:0:0:
377,299,31619,1,2,3:2:0:0:
377,299,31720,1,2,0:0:0:0:
377,299,31821,1,2,0:0:0:0:
316,341,32024,1,2,3:2:0:0:
305,275,32227,5,2,0:0:0:0:
294,364,32429,1,4,3:1:0:0:
221,312,32632,1,2,0:0:0:0:
211,300,32835,2,0,P|211:270|221:234,1,60,0|2,3:0|0:0,0:0:0:0:
132,368,33240,2,0,P|132:338|142:302,1,60,2|0,3:2|0:0,0:0:0:0:
166,242,33646,2,0,P|166:212|176:176,1,60,2|2,3:2|0:0,0:0:0:0:
95,258,34051,2,0,P|95:228|105:192,1,60,2|0,3:2|0:0,0:0:0:0:
129,132,34457,2,0,P|129:102|139:66,1,60,2|0,3:2|0:0,0:0:0:0:
28,286,34862,6,0,P|28:256|38:220,1,60,2|2,3:2|0:0,0:0:0:0:
200,47,35166,1,2,0:0:0:0:
207,57,35267,2,0,P|207:87|197:123,1,60,2|0,3:2|0:0,0:0:0:0:
38,161,35673,5,2,3:2:0:0:
277,83,35875,1,2,0:0:0:0:
291,82,36078,2,0,P|326:82|355:92,1,60,2|0,3:2|0:0,0:0:0:0:
388,144,36483,2,0,P|423:144|452:154,1,60,2|2,3:2|0:0,0:0:0:0:
281,187,36889,2,0,P|316:187|345:197,1,60,2|0,3:2|0:0,0:0:0:0:
171,230,37294,2,0,P|206:230|235:240,1,60,0|2,3:0|0:0,0:0:0:0:
283,284,37700,2,0,P|318:284|347:294,1,60,0|2,3:0|0:0,0:0:0:0:
399,326,38105,6,0,P|428:306|458:299,1,60,2|2,3:2|0:0,0:0:0:0:
468,303,38409,1,2,0:0:0:0:
338,362,38511,2,0,P|308:362|279:354,1,60,2|2,3:2|0:0,0:0:0:0:
166,322,38916,6,0,B|132:321|112:343|108:348|108:348|115:354|133:352,1,90,2|0,3:2|0:0,0:0:0:0:
230,368,39321,5,0,3:0:0:0:
182,323,39524,1,2,0:0:0:0:
77,294,39727,5,2,3:2:0:0:
29,249,39930,1,0,0:0:0:0:
267,255,40132,5,0,3:0:0:0:
219,210,40335,1,2,0:0:0:0:
149,252,40538,5,2,3:2:0:0:
101,207,40741,1,0,0:0:0:0:
377,259,40943,5,2,3:2:0:0:
329,214,41146,1,0,0:0:0:0:
254,134,41348,5,2,3:2:0:0:
280,68,41551,1,2,0:2:0:0:
254,134,41754,1,2,3:2:0:0:
280,68,41957,1,2,0:2:0:0:
426,64,42159,6,0,P|387:38|343:38,1,90,2|2,3:2|0:0,0:0:0:0:
280,68,42565,2,0,P|249:67|220:53,1,60,2|0,3:2|0:0,0:0:0:0:
184,106,42970,2,0,P|162:83|152:52,1,60,2|2,3:2|0:0,0:0:0:0:
89,64,43375,2,0,P|89:32|104:4,1,60,2|0,3:2|0:0,0:0:0:0:
33,204,43781,2,0,P|62:195|94:200,1,60,0|2,3:0|0:0,0:0:0:0:
113,139,44186,2,0,P|139:154|158:180,1,60,0|2,3:0|0:0,0:0:0:0:
216,151,44591,2,0,P|224:180|219:212,1,60,2|2,3:2|0:0,0:0:0:0:
153,249,44997,1,2,3:2:0:0:
153,249,45098,1,2,0:0:0:0:
153,249,45200,1,2,0:0:0:0:
163,257,45402,6,0,P|163:316|151:375,1,120,4|2,3:1|3:2,0:0:0:0:
45,318,46011,1,2,0:3:0:0:
67,381,46213,1,2,3:2:0:0:
45,318,46416,1,2,0:3:0:0:
67,381,46618,1,2,3:2:0:0:
45,318,46821,1,2,0:3:0:0:
228,357,47024,6,0,P|270:340|313:333,1,90,2|0,3:2|0:0,0:0:0:0:
369,365,47429,2,0,P|402:351|432:351,1,60,0|2,3:0|0:0,0:0:0:0:
367,295,47835,2,0,P|400:281|430:281,1,60,0|2,3:0|0:0,0:0:0:0:
435,286,48139,1,2,0:0:0:0:
365,225,48240,2,0,P|398:211|428:211,1,60,2|0,3:2|0:0,0:0:0:0:
492,237,48646,5,2,3:2:0:0:
498,224,48848,1,2,0:0:0:0:
505,211,49051,1,0,3:0:0:0:
470,124,49456,5,2,3:2:0:0:
476,111,49658,1,2,0:0:0:0:
483,98,49862,2,0,P|451:109|468:77,1,90,2|0,3:2|0:0,0:0:0:0:
396,165,50267,5,2,3:2:0:0:
390,152,50469,1,0,0:0:0:0:
383,139,50672,1,2,3:2:0:0:
304,105,51078,5,2,3:2:0:0:
298,92,51280,1,2,0:0:0:0:
291,79,51484,2,0,P|323:90|306:58,1,90,2|0,3:2|0:0,0:0:0:0:
216,33,51889,6,0,P|160:54|101:63,1,120,4|2,3:1|3:2,0:0:0:0:
195,125,52497,1,2,0:3:0:0:
181,190,52700,1,2,3:2:0:0:
195,125,52902,1,2,0:3:0:0:
181,190,53105,1,2,3:2:0:0:
195,125,53308,1,2,0:3:0:0:
37,86,53511,6,0,B|30:77|32:64|32:64|57:88|44:125,1,90,2|0,3:2|0:0,0:0:0:0:
18,196,53916,1,0,3:0:0:0:
18,196,54119,2,0,P|18:232|25:258,1,60,2|0,0:0|3:0,0:0:0:0:
97,245,54524,1,2,0:0:0:0:
82,175,54727,2,0,P|81:205|88:235,1,60,2|0,3:2|0:0,0:0:0:0:
174,277,55132,5,2,3:2:0:0:
169,288,55335,1,2,0:0:0:0:
165,300,55538,1,2,3:2:0:0:
98,343,55943,5,2,3:2:0:0:
93,354,56146,1,2,0:0:0:0:
89,366,56349,1,2,3:2:0:0:
220,352,56551,1,0,0:0:0:0:
333,279,56754,6,0,L|458:267,1,120,2|0,3:0|3:0,0:0:0:0:
456,365,57565,5,0,3:0:0:0:
500,313,57767,1,2,0:0:0:0:
512,246,57970,1,0,3:0:0:0:
495,184,58173,1,2,0:0:0:0:
366,107,58375,6,0,P|412:108|447:133,1,90,4|0,3:1|0:0,0:0:0:0:
341,201,58781,2,0,P|363:177|390:169,1,60,0|2,3:0|0:0,0:0:0:0:
399,234,59186,1,2,3:2:0:0:
315,322,59389,2,0,P|322:292|344:264,1,60,0|2,0:0|3:2,0:0:0:0:
257,367,59794,1,2,0:0:0:0:
257,367,59896,1,2,0:0:0:0:
257,367,59997,6,0,L|137:357,1,120,2|0,3:2|3:2,0:0:0:0:
33,371,60808,5,2,3:2:0:0:
33,302,61010,1,2,0:0:0:0:
66,243,61213,1,2,3:2:0:0:
119,207,61416,1,2,0:0:0:0:
188,231,61619,6,0,P|187:186|163:150,1,90,4|0,3:1|0:0,0:0:0:0:
59,129,62024,2,0,P|90:124|113:106,1,60,0|2,3:0|0:0,0:0:0:0:
155,52,62429,1,0,3:0:0:0:
338,103,62632,2,0,P|318:78|291:67,1,60,2|2,0:0|3:2,0:0:0:0:
224,59,63037,1,0,0:0:0:0:
319,186,63240,5,0,3:0:0:0:
345,182,63443,1,2,0:0:0:0:
372,178,63646,1,0,3:0:0:0:
454,233,64051,5,2,3:2:0:0:
480,229,64254,1,2,0:0:0:0:
507,225,64457,1,2,3:2:0:0:
328,337,64862,6,0,P|334:288|388:245,1,120,4|2,3:1|3:2,0:0:0:0:
399,351,65470,1,2,0:3:0:0:
466,365,65673,1,2,3:2:0:0:
399,351,65875,1,2,0:3:0:0:
466,365,66078,1,2,3:2:0:0:
399,351,66281,1,2,0:3:0:0:
217,352,66483,6,0,P|187:319|138:309,1,90,2|0,3:2|0:0,0:0:0:0:
31,368,66889,1,0,3:0:0:0:
31,368,67092,2,0,P|58:348|89:346,2,60,2|0|2,0:0|3:0|0:0,0:0:0:0:
92,269,67700,2,0,P|116:250|145:246,1,60,2|2,3:2|0:0,0:0:0:0:
166,171,68105,2,0,P|189:152|218:148,1,60,2|0,3:0|0:0,0:0:0:0:
284,168,69727,1,2,0:0:0:0:
284,168,71146,5,0,3:0:0:0:
353,189,71247,1,0,3:0:0:0:
423,149,71348,2,0,B|435:185|435:185|426:227,1,75,4|0,3:2|0:0,0:0:0:0:
298,314,71754,2,0,B|286:278|286:278|295:236,1,75,2|4,3:2|0:3,0:0:0:0:
214,194,72159,2,0,L|129:182,1,75,2|2,3:0|0:0,0:0:0:0:
162,119,72565,2,0,L|77:107,1,75,0|2,3:0|0:0,0:0:0:0:
41,62,72869,1,2,0:0:0:0:
110,44,72970,2,0,L|25:32,1,75,2|2,3:0|0:0,0:0:0:0:
179,24,73375,1,0,3:0:0:0:
36,72,73578,5,4,0:3:0:0:
105,54,73679,1,4,0:3:0:0:
174,34,73781,2,0,L|163:114,1,75,2|4,3:0|0:3,0:0:0:0:
243,98,74186,2,0,L|232:172,1,75,0|4,3:0|0:3,0:0:0:0:
286,231,74490,1,4,0:3:0:0:
312,162,74592,2,0,L|301:236,1,75,2|2,3:0|0:0,0:0:0:0:
397,332,74997,2,0,P|386:295|363:264,1,75,0|4,3:0|0:3,0:0:0:0:
293,310,75402,1,2,3:0:0:0:
232,348,75605,2,0,P|268:337|297:299,1,75,2|0,0:0|3:0,0:0:0:0:
217,281,76011,1,2,0:0:0:0:
62,345,76213,6,0,P|40:306|40:277,1,75,2|0,3:0|0:0,0:0:0:0:
77,220,76619,2,0,P|55:181|55:152,1,75,0|2,3:0|3:2,0:0:0:0:
143,45,76923,1,4,0:3:0:0:
98,99,77024,2,0,P|76:60|76:31,1,75,2|0,3:0|0:0,0:0:0:0:
212,61,77429,1,0,3:0:0:0:
277,36,77632,5,0,3:2:0:0:
267,103,77733,1,4,0:3:0:0:
258,172,77835,2,0,B|299:171|299:171|325:146,1,75,4|0,3:2|0:0,0:0:0:0:
192,221,78240,2,0,B|151:222|151:222|125:247,1,75,0|4,3:0|0:3,0:0:0:0:
250,278,78646,6,0,L|240:359,1,75,2|2,3:0|0:0,0:0:0:0:
325,255,79051,2,0,L|315:336,1,75,0|2,3:0|0:0,0:0:0:0:
379,307,79355,1,2,0:0:0:0:
400,232,79456,2,0,L|390:313,1,75,2|0,3:0|0:0,0:0:0:0:
422,156,79862,1,0,3:0:0:0:
375,301,80065,5,4,0:3:0:0:
396,226,80166,1,4,0:3:0:0:
418,150,80267,1,2,3:0:0:0:
454,284,80470,2,0,P|474:315|480:352,2,75,0|0|4,0:0|3:0|0:3,0:0:0:0:
325,354,80977,1,4,0:3:0:0:
400,367,81078,2,0,P|394:331|374:300,1,75,2|2,3:0|0:0,0:0:0:0:
304,289,81382,1,2,0:0:0:0:
257,341,81483,6,0,P|236:350|219:352,1,37.5,0|4,3:0|0:3,0:0:0:0:
158,337,81686,2,0,P|139:323|129:309,1,37.5,4|4,0:3|0:3,0:0:0:0:
60,262,81889,6,0,L|139:252,1,75,2|2,3:0|0:0,0:0:0:0:
58,344,82193,1,2,0:0:0:0:
0,367,82294,2,0,L|79:357,1,75,0|2,3:0|0:0,0:0:0:0:
120,162,82700,6,0,L|199:152,1,75,2|2,3:0|0:0,0:0:0:0:
224,76,83916,5,0,3:0:0:0:
224,76,84119,5,0,3:0:0:0:
156,85,84220,1,0,3:0:0:0:
89,96,84321,2,0,P|52:90|22:64,1,75,4|0,3:2|0:0,0:0:0:0:
185,182,84727,2,0,P|148:176|118:150,1,75,0|4,3:0|0:3,0:0:0:0:
288,269,85132,2,0,P|251:263|221:237,1,75,2|2,3:0|0:0,0:0:0:0:
185,182,85538,2,0,P|171:148|179:107,1,75,0|2,3:0|0:0,0:0:0:0:
277,10,85842,1,2,0:0:0:0:
208,49,85943,2,0,P|230:20|269:6,1,75,2|2,3:0|0:0,0:0:0:0:
357,29,86348,1,0,3:0:0:0:
206,60,86551,5,4,0:3:0:0:
276,19,86652,1,4,0:3:0:0:
356,40,86754,2,0,L|348:117,1,75,2|0,3:0|0:0,0:0:0:0:
270,147,87159,2,0,L|263:222,1,75,0|4,3:0|0:3,0:0:0:0:
263,298,87463,1,4,0:3:0:0:
339,278,87565,6,0,P|302:275|268:291,1,75,2|2,3:0|0:0,0:0:0:0:
451,358,87970,2,0,P|434:324|403:304,1,75,0|4,3:0|0:3,0:0:0:0:
198,318,88375,6,0,P|178:286|177:249,1,75,2|2,3:0|0:0,0:0:0:0:
259,351,88679,1,2,0:0:0:0:
320,379,88780,2,0,P|282:380|250:362,1,75,0|2,3:0|0:0,0:0:0:0:
431,290,89186,6,0,P|468:288|500:306,1,75,2|0,3:0|0:0,0:0:0:0:
380,245,89592,2,0,P|411:225|448:224,1,75,0|2,3:0|3:2,0:0:0:0:
371,179,89896,1,4,0:3:0:0:
313,231,89997,2,0,P|330:198|361:178,1,75,2|0,3:0|0:0,0:0:0:0:
456,229,90402,1,0,3:0:0:0:
458,128,90605,5,2,3:2:0:0:
395,112,90706,1,4,0:3:0:0:
333,93,90808,2,0,P|330:54|345:22,1,75,4|0,3:2|0:0,0:0:0:0:
205,112,91213,2,0,P|235:85|271:78,1,75,0|4,3:0|0:3,0:0:0:0:
150,171,91619,6,0,L|72:161,1,75,2|2,3:0|0:0,0:0:0:0:
160,237,92024,2,0,L|82:227,1,75,0|2,3:0|0:0,0:0:0:0:
112,281,92328,1,2,0:0:0:0:
172,302,92429,2,0,L|94:292,1,75,2|2,3:0|0:0,0:0:0:0:
208,354,92835,1,0,3:0:0:0:
121,284,93038,5,4,0:3:0:0:
181,305,93139,1,4,0:3:0:0:
217,357,93240,1,2,3:0:0:0:
339,383,93443,2,0,L|417:374,1,75,0|0,0:0|3:0,0:0:0:0:
451,304,93848,1,4,0:3:0:0:
405,240,94051,2,0,L|483:231,1,75,2|2,3:0|0:0,0:0:0:0:
510,173,94355,1,2,0:0:0:0:
438,162,94456,2,0,L|516:153,1,75,0|4,3:0|0:3,0:0:0:0:
370,110,94862,6,0,L|295:118,1,75,2|2,3:0|0:0,0:0:0:0:
239,173,95166,1,2,0:0:0:0:
256,184,95267,2,0,L|181:192,1,75,0|0,3:0|0:0,0:0:0:0:
81,49,95673,6,0,P|96:81|89:41,1,120,2|0,3:0|1:0,0:0:0:0:
123,334,97294,6,0,B|156:318|183:321|183:321|190:323|190:323|218:310|243:315|243:315|249:318|249:318|274:305|299:311|299:311|306:313|306:313|328:297|360:301,1,243.000005932617,4|0,1:0|0:0,0:0:0:0:
