osu file format v14

[General]
AudioFilename: audio.mp3
AudioLeadIn: 0
PreviewTime: 69321
Countdown: 0
SampleSet: Soft
StackLeniency: 0.7
Mode: 0
LetterboxInBreaks: 0
WidescreenStoryboard: 1

[Editor]
Bookmarks: 87159
DistanceSpacing: 0.6
BeatDivisor: 4
GridSize: 4
TimelineZoom: 1.1

[Metadata]
Title:Kanpeki na Sekai
TitleUnicode:完璧な世界
Artist:Sakakibara Yui
ArtistUnicode:榊原ゆい
Creator:Garden
Version:Rio's Extra
Source:青い空のカミュ
Tags:kai opening short aoi sora no camus visual novel eroge video game pop japanese fushimi rio imoutosan my angel yayoi nika mika sodarose
BeatmapID:2361251
BeatmapSetID:1130365

[Difficulty]
HPDrainRate:10
CircleSize:4
OverallDifficulty:10
ApproachRate:10
SliderMultiplier:1.6
SliderTickRate:1

[Events]
//Background and Video events
0,0,"CG43e-L.jpg",0,0
//Break Periods
//Storyboard Layer 0 (Background)
//Storyboard Layer 1 (Fail)
//Storyboard Layer 2 (Pass)
//Storyboard Layer 3 (Foreground)
//Storyboard Layer 4 (Overlay)
//Storyboard Sound Samples

[TimingPoints]
6484,405.405405405405,4,2,1,50,1,0
68105,-100,4,2,1,50,0,0
71348,-100,4,2,1,70,0,1
72159,-66.6666666666667,4,2,1,70,0,1
72565,-100,4,2,1,70,0,1
73781,-66.6666666666667,4,2,1,70,0,1
74592,-100,4,2,1,70,0,1
75402,-66.6666666666667,4,2,1,70,0,1
75808,-100,4,2,1,70,0,1
77835,-66.6666666666667,4,2,1,70,0,1
79051,-100,4,2,1,70,0,1
80267,-66.6666666666667,4,2,1,70,0,1
80571,-100,4,2,1,70,0,1
82700,-66.6666666666667,4,2,1,70,0,1
83511,-100,4,2,1,70,0,1
84727,-66.6666666666667,4,2,1,70,0,1
85943,-100,4,2,1,70,0,1
86754,-66.6666666666667,4,2,1,70,0,1
87565,-100,4,2,1,70,0,1
88375,-66.6666666666667,4,2,1,70,0,1
88781,-100,4,2,1,70,0,1
90808,-66.6666666666667,4,2,1,70,0,1
92024,-100,4,2,1,70,0,1
93038,-66.6666666666667,4,2,1,70,0,1
93544,-100,4,2,1,70,0,1
97294,-450,4,2,1,60,0,0
97497,-100,4,2,1,5,0,0

[Colours]
Combo1 : 255,255,164
Combo2 : 201,201,228

[HitObjects]
252,188,6484,5,4,0:1:0:0:
252,188,6686,1,0,0:0:0:0:
252,188,6889,1,0,0:0:0:0:
252,188,7092,2,0,L|260:232,1,40,2|2,0:0|0:0,0:0:0:0:
332,156,7294,5,2,0:0:0:0:
332,156,7497,1,0,0:0:0:0:
332,156,7700,1,0,0:0:0:0:
332,156,7902,2,0,L|340:200,1,40,2|2,0:0|0:0,0:0:0:0:
412,124,8105,5,2,0:0:0:0:
412,124,8308,1,0,0:0:0:0:
412,124,8511,1,0,0:0:0:0:
412,124,8713,1,0,0:0:0:0:
426,201,8916,5,0,0:0:0:0:
511,195,9119,1,2,0:0:0:0:
511,195,9220,1,2,0:0:0:0:
511,195,9321,1,2,0:0:0:0:
489,109,9524,5,0,0:0:0:0:
472,296,9727,5,4,0:1:0:0:
472,296,9929,2,0,L|464:340,1,40,2|2,0:0|0:0,0:0:0:0:
392,264,10132,5,2,0:0:0:0:
392,264,10335,1,0,0:0:0:0:
392,264,10538,1,0,0:0:0:0:
392,264,10740,2,0,L|384:308,1,40,2|2,0:0|0:0,0:0:0:0:
312,232,10943,5,2,0:0:0:0:
312,232,11146,1,0,0:0:0:0:
302,313,11348,5,0,0:0:0:0:
302,313,11551,1,0,0:0:0:0:
221,295,11754,5,0,0:0:0:0:
235,218,11956,1,0,0:0:0:0:
319,239,12159,5,2,0:0:0:0:
319,239,12261,1,2,0:0:0:0:
319,239,12362,1,2,0:0:0:0:
371,176,12565,5,2,0:0:0:0:
371,176,12666,1,2,0:0:0:0:
371,176,12767,1,2,0:0:0:0:
427,117,12970,5,4,0:1:0:0:
427,117,13173,1,0,0:0:0:0:
427,117,13375,1,0,0:0:0:0:
427,117,13578,2,0,L|419:161,1,40,2|2,0:0|0:0,0:0:0:0:
347,85,13781,5,2,0:0:0:0:
347,85,13983,1,0,0:0:0:0:
347,85,14186,1,0,0:0:0:0:
347,85,14389,2,0,L|339:129,1,40,2|2,0:0|0:0,0:0:0:0:
267,53,14592,5,2,0:0:0:0:
267,53,14794,1,0,0:0:0:0:
267,53,14997,1,0,0:0:0:0:
267,53,15200,1,0,0:0:0:0:
264,141,15402,5,0,0:0:0:0:
264,141,15605,1,2,0:0:0:0:
264,141,15706,1,2,0:0:0:0:
264,141,15808,1,2,0:0:0:0:
193,79,16011,5,0,0:0:0:0:
233,241,16213,5,4,0:1:0:0:
233,241,16416,2,0,L|240:285,1,40,2|2,0:0|0:0,0:0:0:0:
146,238,16619,5,2,0:0:0:0:
146,238,16821,1,0,0:0:0:0:
146,238,17024,1,0,0:0:0:0:
146,238,17227,2,0,L|153:282,1,40,2|2,0:0|0:0,0:0:0:0:
60,235,17429,5,2,0:0:0:0:
60,235,17632,1,0,0:0:0:0:
79,315,17835,5,0,0:0:0:0:
79,315,18038,1,0,0:0:0:0:
1,291,18240,5,0,0:0:0:0:
71,245,18443,1,0,0:0:0:0:
71,245,18646,5,2,0:0:0:0:
71,245,18747,1,2,0:0:0:0:
71,245,18848,1,2,0:0:0:0:
123,182,19051,5,2,0:0:0:0:
123,182,19152,1,2,0:0:0:0:
123,182,19254,2,0,L|167:174,1,40,2|0,0:0|0:0,0:0:0:0:
270,160,19456,5,4,3:1:0:0:
162,174,19659,1,0,0:0:0:0:
270,160,19862,5,2,3:2:0:0:
370,195,20065,1,2,0:0:0:0:
270,160,20267,5,2,3:2:0:0:
201,80,20470,1,0,0:0:0:0:
270,160,20673,5,2,3:2:0:0:
289,264,20875,1,2,0:0:0:0:
270,160,21078,5,2,3:2:0:0:
304,60,21281,1,0,0:0:0:0:
270,160,21483,5,2,3:2:0:0:
189,228,21686,1,0,0:0:0:0:
370,195,21889,6,0,L|449:180,1,80,2|2,3:2|0:0,0:0:0:0:
335,325,22294,2,0,L|414:310,1,80,2|0,3:2|0:0,0:0:0:0:
203,194,22700,5,2,3:2:0:0:
241,304,22902,1,2,0:0:0:0:
203,194,23105,5,2,3:2:0:0:
237,82,23308,1,0,0:0:0:0:
203,194,23511,5,2,3:2:0:0:
110,264,23713,1,2,0:0:0:0:
203,194,23916,5,2,3:2:0:0:
318,191,24119,1,0,0:0:0:0:
203,194,24321,5,0,3:0:0:0:
107,126,24524,1,2,0:0:0:0:
203,194,24727,5,0,3:0:0:0:
241,304,24929,1,2,0:0:0:0:
237,82,25132,6,0,L|316:67,1,80,2|0,3:2|0:0,0:0:0:0:
313,192,25538,2,0,L|392:177,1,80,2|0,3:2|0:0,0:0:0:0:
372,304,25943,5,2,3:2:0:0:
272,269,26146,1,0,0:0:0:0:
226,173,26348,5,0,3:0:0:0:
272,269,26551,1,2,0:0:0:0:
237,369,26754,5,2,3:2:0:0:
272,269,26956,1,0,0:0:0:0:
368,223,27159,5,2,3:2:0:0:
272,269,27362,1,2,0:0:0:0:
172,234,27565,5,2,3:2:0:0:
272,269,27767,1,2,0:0:0:0:
318,365,27970,5,0,3:0:0:0:
272,269,28173,1,2,0:0:0:0:
307,169,28375,5,2,3:2:0:0:
403,123,28578,1,0,0:0:0:0:
307,169,28781,2,0,L|232:139,1,80,2|0,3:2|0:0,0:0:0:0:
47,61,29186,5,2,3:2:0:0:
117,153,29389,1,2,0:0:0:0:
232,139,29592,5,2,3:2:0:0:
117,153,29794,1,0,0:0:0:0:
72,261,29997,5,2,3:2:0:0:
117,153,30200,1,2,0:0:0:0:
47,61,30402,5,2,3:2:0:0:
117,153,30605,1,0,0:0:0:0:
232,139,30808,5,0,3:0:0:0:
117,153,31011,1,2,0:0:0:0:
72,261,31213,5,0,3:0:0:0:
117,153,31416,1,2,0:0:0:0:
47,61,31619,5,2,3:2:0:0:
117,153,31821,1,2,0:0:0:0:
232,139,32024,1,2,3:2:0:0:
277,32,32227,1,2,0:0:0:0:
392,18,32429,6,0,L|441:81,1,80,4|2,3:1|0:0,0:0:0:0:
332,165,32835,1,0,3:0:0:0:
313,28,33038,1,2,0:0:0:0:
440,80,33240,1,2,3:2:0:0:
283,102,33443,5,0,0:0:0:0:
392,18,33646,1,2,3:2:0:0:
411,154,33848,1,2,0:0:0:0:
265,96,34051,5,2,3:2:0:0:
389,0,34254,1,0,0:0:0:0:
485,124,34456,1,2,3:2:0:0:
361,220,34659,1,0,0:0:0:0:
375,111,34862,6,0,P|412:122|443:148,1,80,2|2,3:2|0:0,0:0:0:0:
448,286,35267,2,0,P|418:312|380:326,1,80,2|0,3:2|0:0,0:0:0:0:
259,262,35673,5,2,3:2:0:0:
114,323,35875,1,2,0:0:0:0:
54,179,36078,1,2,3:2:0:0:
198,118,36281,1,0,0:0:0:0:
199,322,36483,5,2,3:2:0:0:
53,263,36686,1,2,0:0:0:0:
113,118,36889,1,2,3:2:0:0:
258,177,37092,1,0,0:0:0:0:
114,323,37294,5,0,3:0:0:0:
36,198,37497,1,2,0:0:0:0:
130,89,37700,1,0,3:0:0:0:
263,143,37902,1,2,0:0:0:0:
253,286,38105,6,0,P|283:311|321:323,1,80,2|2,3:2|0:0,0:0:0:0:
444,205,38511,2,0,P|434:166|410:134,1,80,2|2,3:2|0:0,0:0:0:0:
335,214,38916,5,2,3:2:0:0:
259,109,39119,1,0,0:0:0:0:
136,149,39321,1,0,3:0:0:0:
136,278,39524,1,2,0:0:0:0:
259,319,39727,5,2,3:2:0:0:
259,189,39929,1,0,0:0:0:0:
136,149,40132,1,0,3:0:0:0:
59,254,40335,1,2,0:0:0:0:
136,359,40538,5,2,3:2:0:0:
212,254,40740,1,0,0:0:0:0:
136,149,40943,1,2,3:2:0:0:
13,189,41146,1,0,0:0:0:0:
12,319,41348,5,2,3:2:0:0:
193,216,41551,1,2,0:2:0:0:
14,111,41754,1,2,3:2:0:0:
14,111,41956,1,2,0:2:0:0:
144,128,42159,6,0,P|172:100|188:64,1,80,2|2,3:2|0:0,0:0:0:0:
269,268,42565,2,0,P|270:228|256:192,1,80,2|0,3:2|0:0,0:0:0:0:
153,252,42970,5,2,3:2:0:0:
49,192,43173,1,2,0:0:0:0:
49,72,43375,1,2,3:2:0:0:
153,12,43578,1,0,0:0:0:0:
256,72,43781,5,0,3:0:0:0:
256,192,43983,1,2,0:0:0:0:
359,252,44186,1,0,3:0:0:0:
463,192,44389,1,2,0:0:0:0:
463,72,44592,5,2,3:2:0:0:
436,57,44693,1,2,0:0:0:0:
411,42,44794,1,2,0:0:0:0:
307,102,44997,5,2,3:2:0:0:
280,87,45098,1,2,0:0:0:0:
255,72,45200,1,2,0:0:0:0:
151,132,45402,6,0,P|115:114|89:84,1,80,4|0,3:1|0:0,0:0:0:0:
36,208,45808,5,2,3:2:0:0:
76,116,46011,1,2,0:3:0:0:
168,264,46213,5,2,3:2:0:0:
156,164,46416,1,2,0:3:0:0:
0,324,46619,5,2,3:2:0:0:
47,239,46821,1,2,0:3:0:0:
47,239,46923,1,2,0:0:0:0:
47,239,47024,6,0,P|103:287|159:295,1,120,2|0,3:2|0:0,0:0:0:0:
206,244,47429,2,0,P|171:264|146:295,1,80,0|2,3:0|0:0,0:0:0:0:
293,366,47835,5,0,3:0:0:0:
310,271,48038,1,2,0:0:0:0:
302,252,48139,1,2,0:0:0:0:
294,233,48240,1,2,3:2:0:0:
311,138,48443,1,0,0:0:0:0:
383,315,48646,5,2,3:2:0:0:
383,315,48848,2,0,P|338:350|310:354,1,80,2|0,0:0|3:0,0:0:0:0:
446,240,49254,2,0,P|498:261|516:283,1,80,0|2,0:0|3:2,0:0:0:0:
350,222,49659,1,2,0:0:0:0:
342,204,49761,1,2,0:0:0:0:
340,184,49862,1,2,3:2:0:0:
379,98,50065,1,0,0:0:0:0:
276,14,50267,5,2,3:2:0:0:
285,108,50470,1,0,0:0:0:0:
187,165,50673,1,2,3:2:0:0:
200,70,50875,1,0,0:0:0:0:
97,2,51078,1,2,3:2:0:0:
102,40,51179,1,2,0:0:0:0:
106,78,51281,1,2,0:0:0:0:
8,123,51483,1,2,3:2:0:0:
15,85,51585,1,2,0:0:0:0:
21,47,51686,1,2,0:0:0:0:
80,167,51889,6,0,P|35:202|7:206,1,80,4|0,3:1|0:0,0:0:0:0:
155,245,52294,5,2,3:2:0:0:
145,117,52497,1,2,0:3:0:0:
262,207,52700,5,2,3:2:0:0:
219,85,52902,1,2,0:3:0:0:
355,141,53105,5,2,3:2:0:0:
282,34,53308,1,2,0:3:0:0:
427,53,53511,6,0,P|462:98|467:165,1,120,2|0,3:2|0:0,0:0:0:0:
458,181,53916,2,0,P|478:146|512:126,1,80,0|2,3:0|0:0,0:0:0:0:
433,264,54321,5,0,3:0:0:0:
355,141,54524,1,2,0:0:0:0:
342,169,54625,1,2,0:0:0:0:
329,197,54727,2,0,P|308:163|274:142,1,80,2|0,3:2|0:0,0:0:0:0:
158,200,55132,5,2,3:2:0:0:
187,113,55335,1,2,0:0:0:0:
187,113,55436,1,2,0:0:0:0:
187,113,55538,1,2,3:2:0:0:
245,229,55740,1,0,0:0:0:0:
129,287,55943,1,2,3:2:0:0:
71,171,56146,1,2,0:0:0:0:
187,113,56348,1,2,3:2:0:0:
245,229,56551,1,0,0:0:0:0:
59,249,56754,5,2,3:0:0:0:
207,298,56956,1,2,0:0:0:0:
256,150,57159,1,0,3:0:0:0:
108,101,57362,1,2,0:0:0:0:
47,290,57565,1,0,3:0:0:0:
293,166,57767,1,2,0:0:0:0:
170,228,57970,1,0,3:0:0:0:
181,249,58071,1,0,0:0:0:0:
192,270,58173,1,2,0:0:0:0:
203,291,58274,1,0,0:0:0:0:
214,312,58375,6,0,B|293:344|293:278|367:309,1,160,4|0,3:1|3:0,0:0:0:0:
256,237,58983,5,2,0:0:0:0:
256,237,59085,1,2,0:0:0:0:
256,237,59186,1,2,3:2:0:0:
368,309,59389,1,0,0:0:0:0:
307,159,59592,1,2,3:2:0:0:
368,309,59794,1,2,0:0:0:0:
384,202,59997,1,2,3:2:0:0:
368,309,60200,1,2,0:0:0:0:
470,219,60402,1,0,3:2:0:0:
368,309,60605,1,2,0:0:0:0:
341,175,60808,5,2,3:2:0:0:
280,264,61011,5,2,0:0:0:0:
182,283,61213,5,2,3:2:0:0:
109,237,61416,5,2,0:0:0:0:
94,158,61619,6,0,P|50:181|49:291,1,160,4|0,3:1|3:0,0:0:0:0:
151,107,62227,5,2,0:0:0:0:
151,107,62328,1,2,0:0:0:0:
151,107,62429,1,0,3:0:0:0:
109,237,62632,1,2,0:0:0:0:
151,107,62835,1,2,3:2:0:0:
23,205,63038,1,0,0:0:0:0:
151,107,63240,1,0,3:0:0:0:
44,120,63443,1,2,0:0:0:0:
151,107,63646,1,0,3:0:0:0:
39,33,63848,1,2,0:0:0:0:
175,123,64051,5,2,3:2:0:0:
244,204,64254,5,2,0:0:0:0:
237,303,64456,5,2,3:2:0:0:
173,362,64659,5,2,0:0:0:0:
93,356,64862,5,4,3:1:0:0:
93,356,65267,5,2,3:2:0:0:
183,222,65470,1,2,0:3:0:0:
24,311,65673,5,2,3:2:0:0:
251,266,65875,1,2,0:3:0:0:
11,232,66078,5,2,3:2:0:0:
264,345,66281,1,2,0:3:0:0:
235,70,66483,5,2,3:2:0:0:
148,264,66686,1,2,0:0:0:0:
342,351,66889,1,0,3:0:0:0:
429,156,67092,1,2,0:0:0:0:
288,206,67294,5,0,3:0:0:0:
443,276,67497,1,2,0:0:0:0:
512,121,67700,1,2,3:2:0:0:
356,51,67902,1,2,0:0:0:0:
413,195,68105,5,2,3:0:0:0:
452,208,68308,5,2,0:0:0:0:
475,175,68511,5,2,0:0:0:0:
452,143,68713,5,0,0:0:0:0:
413,155,68916,5,2,0:0:0:0:
374,221,69119,5,2,0:0:0:0:
381,297,69321,5,2,0:0:0:0:
431,354,69524,5,2,0:0:0:0:
506,371,69727,6,0,B|434:335|426:406|353:371,1,160,2|0,0:0|0:0,0:0:0:0:
326,361,70538,5,2,0:0:0:0:
326,361,70740,2,0,P|309:349|295:335,1,40,2|0,0:0|0:0,0:0:0:0:
308,216,70943,6,0,P|314:234|317:254,1,40,2|0,0:0|0:0,0:0:0:0:
219,364,71146,5,0,3:0:0:0:
203,360,71247,1,0,3:0:0:0:
190,350,71348,2,0,P|171:315|168:276,1,80,4|0,3:2|0:0,0:0:0:0:
144,296,71754,5,2,3:2:0:0:
215,342,71855,1,4,0:3:0:0:
302,360,71956,1,4,0:3:0:0:
387,344,72058,1,4,0:3:0:0:
461,298,72159,2,0,P|488:253|495:182,1,120.000004577637,2|2,3:0|0:0,0:0:0:0:
448,12,72565,5,0,3:0:0:0:
448,39,72666,1,2,0:0:0:0:
421,48,72767,1,2,0:0:0:0:
404,25,72869,1,2,0:0:0:0:
420,2,72970,2,0,P|438:36|441:76,1,80,2|2,3:0|0:0,0:0:0:0:
320,192,73375,2,0,P|321:152|338:116,1,80,0|4,3:0|0:3,0:0:0:0:
350,132,73679,1,4,0:3:0:0:
352,149,73781,6,0,P|331:204|286:242,1,120.000004577637,2|4,3:0|0:3,0:0:0:0:
137,77,74186,2,0,B|121:62|121:62|95:104|112:157,1,120.000004577637,0|4,3:0|0:3,0:0:0:0:
121,172,74490,1,4,0:3:0:0:
140,180,74592,6,0,P|137:140|118:105,1,80,2|2,3:0|0:0,0:0:0:0:
23,323,74997,5,0,3:0:0:0:
67,250,75098,1,4,0:3:0:0:
138,197,75200,1,4,0:3:0:0:
222,175,75301,1,4,0:3:0:0:
308,186,75402,2,0,P|351:215|387:276,1,120.000004577637,2|2,3:0|0:0,0:0:0:0:
282,361,75808,5,0,3:0:0:0:
264,340,75909,1,2,0:0:0:0:
278,315,76011,1,2,0:0:0:0:
306,321,76112,1,2,0:0:0:0:
309,350,76213,2,0,P|271:336|242:309,1,80,2|0,3:0|0:0,0:0:0:0:
386,272,76619,2,0,P|360:241|349:203,1,80,0|2,3:0|3:2,0:0:0:0:
403,54,77024,2,0,P|372:79|334:90,1,80,2|0,3:0|0:0,0:0:0:0:
481,131,77429,2,0,P|467:168|440:197,1,80,0|0,3:0|3:2,0:0:0:0:
384,270,77733,1,4,0:3:0:0:
374,257,77835,6,0,P|339:238|259:234,1,120.000004577637,4|0,3:2|0:0,0:0:0:0:
123,360,78240,1,0,3:0:0:0:
164,296,78342,1,4,0:3:0:0:
180,217,78443,1,4,0:3:0:0:
166,141,78544,1,4,0:3:0:0:
124,74,78646,2,0,P|85:46|14:37,1,120.000004577637,2|2,3:0|0:0,0:0:0:0:
24,217,79051,6,0,P|63:215|100:199,1,80,0|2,3:0|0:0,0:0:0:0:
166,141,79355,1,2,0:0:0:0:
182,138,79456,2,0,P|220:149|249:174,1,80,2|0,3:0|0:0,0:0:0:0:
270,274,79862,1,0,3:0:0:0:
315,107,80065,5,4,0:3:0:0:
382,81,80166,1,4,0:3:0:0:
449,108,80267,2,0,P|473:139|484:216,1,120.000004577637,2|0,3:0|0:0,0:0:0:0:
480,232,80571,1,2,0:0:0:0:
470,245,80673,1,0,3:0:0:0:
383,194,80875,5,4,0:3:0:0:
383,194,81078,2,0,P|365:229|364:269,1,80,2|2,3:0|0:0,0:0:0:0:
474,349,81483,1,0,3:0:0:0:
474,322,81585,1,4,0:3:0:0:
447,313,81686,1,4,0:3:0:0:
430,336,81788,1,4,0:3:0:0:
446,359,81889,2,0,P|464:325|467:285,1,80,2|2,3:0|0:0,0:0:0:0:
347,158,82294,2,0,P|348:198|365:234,1,80,0|2,3:0|0:0,0:0:0:0:
377,218,82598,1,2,0:0:0:0:
379,200,82700,6,0,B|376:151|341:119|341:119|320:140,1,120.000004577637,2|0,3:0|0:0,0:0:0:0:
170,293,83105,2,0,B|154:308|154:308|128:266|145:213,1,120.000004577637,0|2,3:0|3:2,0:0:0:0:
154,198,83409,1,4,0:3:0:0:
173,190,83511,6,0,P|170:230|151:265,1,80,2|2,3:0|0:0,0:0:0:0:
117,108,83916,1,0,3:0:0:0:
258,226,84119,1,0,3:0:0:0:
274,226,84220,1,0,3:0:0:0:
289,219,84321,2,0,P|316:190|329:153,1,80,4|0,3:2|0:0,0:0:0:0:
341,384,84727,5,0,3:0:0:0:
323,300,84828,1,4,0:3:0:0:
274,226,84929,1,4,0:3:0:0:
203,177,85031,1,4,0:3:0:0:
118,158,85132,2,0,P|66:170|12:215,1,120.000004577637,2|2,3:0|0:0,0:0:0:0:
0,370,85538,5,0,3:0:0:0:
0,343,85639,1,2,0:0:0:0:
27,334,85740,1,2,0:0:0:0:
44,357,85842,1,2,0:0:0:0:
28,380,85943,2,0,P|10:346|7:306,1,80,2|2,3:0|0:0,0:0:0:0:
104,164,86348,2,0,P|103:204|86:240,1,80,0|4,3:0|0:3,0:0:0:0:
74,224,86652,1,4,0:3:0:0:
72,206,86754,6,0,P|93:151|138:113,1,120.000004577637,2|0,3:0|0:0,0:0:0:0:
258,263,87159,2,0,B|274:278|274:278|300:236|283:183,1,120.000004577637,0|4,3:0|0:3,0:0:0:0:
274,168,87463,1,4,0:3:0:0:
255,160,87565,6,0,P|258:200|277:235,1,80,2|2,3:0|0:0,0:0:0:0:
474,200,87970,5,0,3:0:0:0:
392,226,88071,1,4,0:3:0:0:
303,220,88173,1,4,0:3:0:0:
225,183,88274,1,4,0:3:0:0:
166,119,88375,2,0,P|150:61|161:2,1,120.000004577637,2|2,3:0|0:0,0:0:0:0:
354,107,88781,5,0,3:0:0:0:
349,133,88882,1,2,0:0:0:0:
322,141,88983,1,2,0:0:0:0:
307,116,89085,1,2,0:0:0:0:
325,95,89186,2,0,P|341:131|343:171,1,80,2|0,3:0|0:0,0:0:0:0:
403,250,89592,2,0,P|430:221|444:184,1,80,0|2,3:0|3:2,0:0:0:0:
249,154,89997,2,0,P|242:193|251:232,1,80,2|0,3:0|0:0,0:0:0:0:
212,323,90402,2,0,P|178:302|156:270,1,80,0|2,3:0|3:2,0:0:0:0:
151,165,90706,1,4,0:3:0:0:
141,180,90808,6,0,P|89:201|26:201,1,120.000004577637,4|0,3:2|0:0,0:0:0:0:
99,14,91213,1,0,3:0:0:0:
112,94,91315,1,4,0:3:0:0:
151,165,91416,1,4,0:3:0:0:
211,215,91517,1,4,0:3:0:0:
286,238,91619,2,0,P|333:234|394:195,1,120.000004577637,2|2,3:0|0:0,0:0:0:0:
336,72,92024,6,0,P|297:74|260:89,1,80,0|2,3:0|0:0,0:0:0:0:
194,148,92328,1,2,0:0:0:0:
177,150,92429,2,0,P|139:139|110:113,1,80,2|2,3:0|0:0,0:0:0:0:
184,60,92835,1,0,3:0:0:0:
184,240,93038,5,4,0:3:0:0:
251,266,93139,1,4,0:3:0:0:
318,239,93240,2,0,P|342:208|353:131,1,120.000004577637,2|0,3:0|0:0,0:0:0:0:
349,115,93544,1,2,0:0:0:0:
339,102,93646,1,0,3:0:0:0:
242,154,93848,5,4,0:3:0:0:
242,154,93950,1,4,0:3:0:0:
242,154,94051,2,0,P|224:119|223:79,1,80,2|2,3:0|0:0,0:0:0:0:
179,253,94456,1,0,3:0:0:0:
153,251,94558,1,4,0:3:0:0:
147,223,94659,1,4,0:3:0:0:
172,209,94761,1,4,0:3:0:0:
193,227,94862,2,0,P|157:242|117:241,1,80,2|2,3:0|0:0,0:0:0:0:
8,105,95267,2,0,P|31:135|41:174,1,80,0|0,3:0|0:0,0:0:0:0:
0,272,95673,5,2,3:0:0:0:
184,236,95875,5,0,1:0:0:0:
218,164,95977,5,0,1:0:0:0:
184,92,96078,5,0,1:0:0:0:
107,74,96179,5,4,0:3:0:0:
44,124,96281,5,8,3:0:0:0:
44,204,96382,5,4,0:3:0:0:
107,254,96483,5,2,1:3:0:0:
189,252,96585,1,4,0:3:0:0:
257,204,96686,1,8,3:0:0:0:
332,161,96788,1,4,0:3:0:0:
417,167,96889,1,0,1:0:0:0:
485,220,96990,1,4,0:3:0:0:
511,302,97092,1,4,0:3:0:0:
483,384,97193,1,4,0:3:0:0:
369,221,97294,6,0,P|385:102|489:161,1,266.666666666667,4|0,1:0|0:0,0:0:0:0:
