osu file format v14

[General]
AudioFilename: audio.mp3
AudioLeadIn: 0
PreviewTime: 69321
Countdown: 0
SampleSet: Soft
StackLeniency: 0.7
Mode: 0
LetterboxInBreaks: 0
WidescreenStoryboard: 0

[Editor]
DistanceSpacing: 1.3
BeatDivisor: 4
GridSize: 4
TimelineZoom: 1.2

[Metadata]
Title:Kanpeki na Sekai
TitleUnicode:完璧な世界
Artist:Sakakibara Yui
ArtistUnicode:榊原ゆい
Creator:Garden
Version:Hard
Source:青い空のカミュ
Tags:kai opening short aoi sora no camus visual novel eroge video game pop japanese fushimi rio imoutosan my angel yayoi nika mika sodarose
BeatmapID:2361249
BeatmapSetID:1130365

[Difficulty]
HPDrainRate:5
CircleSize:5
OverallDifficulty:6
ApproachRate:7.5
SliderMultiplier:1.2
SliderTickRate:1

[Events]
//Background and Video events
0,0,"CG43e-L.jpg",0,0
//Break Periods
2,6684,8902
2,9927,12145
2,13170,15388
2,16413,18631
//Storyboard Layer 0 (Background)
//Storyboard Layer 1 (Fail)
//Storyboard Layer 2 (Pass)
//Storyboard Layer 3 (Foreground)
//Storyboard Layer 4 (Overlay)
//Storyboard Sound Samples

[TimingPoints]
6484,405.405405405405,4,2,1,50,1,0
68105,-133.333333333333,4,2,1,50,0,0
68206,-133.333333333333,4,2,1,15,0,0
69727,-133.333333333333,4,2,1,50,0,0
70538,-133.333333333333,4,2,1,30,0,0
71348,-80,4,2,1,70,0,1
97294,-100,4,2,1,60,0,0
97497,-100,4,2,1,5,0,0

[Colours]
Combo1 : 255,255,164
Combo2 : 201,201,228

[HitObjects]
129,98,6484,5,4,0:1:0:0:
129,98,9727,5,4,0:1:0:0:
386,195,12970,5,4,0:1:0:0:
200,301,16213,5,4,0:1:0:0:
200,301,19456,6,0,L|272:293,1,60,4|0,3:1|0:0,0:0:0:0:
315,239,19862,2,0,L|387:231,1,60,2|2,3:2|0:0,0:0:0:0:
443,270,20267,2,0,L|436:334,2,60,2|0|2,3:2|0:0|3:2,0:0:0:0:
486,205,20875,1,2,0:0:0:0:
486,205,20977,1,2,0:0:0:0:
486,205,21078,6,0,L|479:145,1,60,2|0,3:2|0:0,0:0:0:0:
403,126,21483,2,0,L|396:66,1,60,2|0,3:2|0:0,0:0:0:0:
323,37,21889,2,0,P|264:36|222:77,1,120,2|2,3:2|3:2,0:0:0:0:
282,126,22497,1,0,0:0:0:0:
210,157,22700,6,0,L|150:165,1,60,2|2,3:2|0:0,0:0:0:0:
137,193,23004,1,0,0:0:0:0:
137,193,23105,2,0,L|77:201,1,60,2|0,3:2|0:0,0:0:0:0:
13,156,23511,2,0,L|23:84,1,60,2|2,3:2|0:0,0:0:0:0:
51,81,23815,1,0,0:0:0:0:
51,81,23916,2,0,L|59:21,1,60,2|0,3:2|0:0,0:0:0:0:
135,7,24321,6,0,P|178:46|237:47,1,120,0|0,3:0|3:0,0:0:0:0:
304,86,24929,1,2,0:0:0:0:
335,14,25132,2,0,L|394:20,1,60,2|0,3:2|0:0,0:0:0:0:
432,89,25538,2,0,L|491:95,1,60,2|0,3:2|0:0,0:0:0:0:
368,135,25943,6,0,B|346:176|346:176|373:244,1,120,2|0,3:2|3:0,0:0:0:0:
447,268,26551,2,0,L|434:348,1,60,2|2,0:0|3:2,0:0:0:0:
381,382,26956,1,0,0:0:0:0:
304,364,27159,2,0,L|315:297,1,60,2|2,3:2|0:0,0:0:0:0:
298,280,27463,1,0,0:0:0:0:
298,280,27565,6,0,L|217:291,1,60,2|2,3:2|0:0,0:0:0:0:
182,342,27970,2,0,L|101:353,1,60,0|2,3:0|0:0,0:0:0:0:
48,325,28375,2,0,L|39:384,2,60,2|0|2,3:2|0:0|3:2,0:0:0:0:
32,248,28983,1,0,0:0:0:0:
105,273,29186,6,0,P|108:214|60:174,1,120,2|2,3:2|3:2,0:0:0:0:
22,110,29794,2,0,L|94:94,1,60,2|2,0:0|3:2,0:0:0:0:
157,124,30200,1,2,0:0:0:0:
157,124,30301,1,0,0:0:0:0:
157,124,30402,2,0,L|215:110,1,60,2|0,3:2|0:0,0:0:0:0:
291,129,30808,6,0,L|300:55,1,60,0|2,3:0|0:0,0:0:0:0:
384,37,31213,2,0,L|376:96,1,60,0|2,3:0|0:0,0:0:0:0:
437,145,31619,2,0,L|492:136,2,30,2|0|0,3:2|0:0|0:0,0:0:0:0:
392,210,32024,1,2,3:2:0:0:
392,210,32125,1,2,0:0:0:0:
392,210,32227,1,2,0:0:0:0:
430,277,32429,6,0,L|365:285,1,60,4|2,3:1|0:0,0:0:0:0:
321,345,32835,2,0,L|201:357,1,120,0|2,3:0|3:2,0:0:0:0:
127,380,33443,1,0,0:0:0:0:
135,302,33646,2,0,L|145:226,1,60,2|2,3:2|0:0,0:0:0:0:
170,225,33950,1,0,0:0:0:0:
170,225,34051,6,0,L|245:217,1,60,2|0,3:2|0:0,0:0:0:0:
301,249,34456,2,0,L|376:241,1,60,2|0,3:2|0:0,0:0:0:0:
410,180,34862,2,0,P|436:124|410:65,1,120,2|2,3:2|3:2,0:0:0:0:
366,12,35470,1,0,0:0:0:0:
308,64,35673,6,0,L|292:142,1,60,2|2,3:2|0:0,0:0:0:0:
269,140,35977,1,0,0:0:0:0:
269,140,36078,2,0,L|198:153,1,60,2|0,3:2|0:0,0:0:0:0:
170,83,36483,2,0,L|90:97,1,60,2|2,3:2|0:0,0:0:0:0:
85,102,36788,1,0,0:0:0:0:
85,102,36889,2,0,L|72:173,1,60,2|0,3:2|0:0,0:0:0:0:
14,210,37294,5,0,3:0:0:0:
14,210,37497,2,0,L|1:288,2,60,2|0|2,0:0|3:0|0:0,0:0:0:0:
86,238,38105,2,0,L|63:382,1,120,2|2,3:2|3:2,0:0:0:0:
141,378,38713,1,2,0:0:0:0:
172,305,38916,6,0,P|214:265|273:265,1,120,2|0,3:2|3:0,0:0:0:0:
316,330,39524,2,0,L|393:316,1,60,2|2,0:0|3:2,0:0:0:0:
441,359,39929,1,0,0:0:0:0:
453,281,40132,2,0,L|530:267,1,60,0|2,3:0|0:0,0:0:0:0:
512,247,40436,1,0,0:0:0:0:
512,247,40538,6,0,L|501:171,1,60,2|0,3:2|0:0,0:0:0:0:
428,164,40943,2,0,L|419:104,1,60,2|0,3:2|0:0,0:0:0:0:
373,46,41348,1,2,3:2:0:0:
373,46,41551,1,2,0:2:0:0:
308,89,41754,2,0,L|229:101,1,60,2|2,3:2|0:2,0:0:0:0:
180,59,42159,6,0,P|117:57|76:109,1,120,2|2,3:2|3:2,0:0:0:0:
17,142,42767,2,0,L|23:213,1,60,2|2,0:0|3:2,0:0:0:0:
85,247,43173,1,2,0:0:0:0:
159,225,43375,2,0,L|165:296,1,60,2|0,3:2|0:0,0:0:0:0:
238,324,43781,5,0,3:0:0:0:
238,324,43983,2,0,L|312:330,2,60,2|0|2,0:0|3:0|0:0,0:0:0:0:
164,284,44592,2,0,L|122:281,2,30,2|2|2,3:2|0:0|0:0,0:0:0:0:
216,226,44997,2,0,L|245:228,2,30,2|2|2,3:2|0:0|0:0,0:0:0:0:
148,186,45402,5,4,3:1:0:0:
289,116,45808,1,2,3:2:0:0:
289,116,46011,1,2,0:3:0:0:
365,144,46213,1,2,3:2:0:0:
365,144,46416,1,2,0:3:0:0:
441,173,46619,1,2,3:2:0:0:
441,173,46821,1,2,0:3:0:0:
506,124,47024,6,0,B|491:48|491:48|454:25,1,120,2|0,3:2|3:0,0:0:0:0:
380,2,47632,2,0,L|366:68,1,60,2|0,0:0|3:0,0:0:0:0:
291,80,48038,2,0,L|277:146,1,60,2|2,0:0|3:2,0:0:0:0:
223,194,48443,1,0,0:0:0:0:
178,136,48646,5,2,3:2:0:0:
178,136,48848,2,0,P|126:107|53:131,1,120,2|0,0:0|0:0,0:0:0:0:
8,167,49456,2,0,L|23:249,1,60,2|2,3:2|0:2,0:0:0:0:
47,241,49761,1,0,0:0:0:0:
47,241,49862,1,2,3:2:0:0:
14,312,50065,1,0,0:0:0:0:
87,341,50267,6,0,L|159:346,1,60,2|0,3:2|0:0,0:0:0:0:
201,288,50673,2,0,L|273:293,1,60,2|0,3:2|0:0,0:0:0:0:
334,330,51078,1,2,3:2:0:0:
334,330,51281,1,2,0:0:0:0:
397,285,51483,2,0,L|389:208,1,60,2|2,3:2|0:0,0:0:0:0:
451,175,51889,5,4,3:1:0:0:
312,112,52294,1,2,3:2:0:0:
312,112,52497,1,2,0:3:0:0:
242,143,52700,1,2,3:2:0:0:
242,143,52902,1,2,0:3:0:0:
174,178,53105,1,2,3:2:0:0:
174,178,53308,1,2,0:3:0:0:
100,152,53511,6,0,B|56:128|56:128|81:51,1,120,2|0,3:2|3:0,0:0:0:0:
135,9,54119,2,0,L|205:5,1,60,2|0,0:0|3:0,0:0:0:0:
239,69,54524,1,2,0:0:0:0:
303,25,54727,2,0,L|373:21,1,60,2|0,3:2|0:0,0:0:0:0:
438,3,55132,6,0,P|397:44|405:103,1,120,2|2,3:2|3:2,0:0:0:0:
482,95,55740,1,0,0:0:0:0:
507,168,55943,2,0,L|494:232,1,60,2|2,3:2|0:0,0:0:0:0:
469,239,56247,1,0,0:0:0:0:
469,239,56348,2,0,L|456:303,1,60,2|0,3:2|0:0,0:0:0:0:
391,340,56754,6,0,B|351:331|351:331|274:350,1,120,2|0,3:0|3:0,0:0:0:0:
227,288,57362,1,2,0:0:0:0:
158,325,57565,2,0,L|168:384,1,60,0|2,3:0|0:0,0:0:0:0:
227,288,57970,2,0,L|216:228,1,60,0|2,3:0|0:0,0:0:0:0:
279,180,58375,6,0,P|318:128|298:71,1,120,4|0,3:1|3:0,0:0:0:0:
258,16,58983,2,0,L|188:24,1,60,2|2,0:0|3:2,0:0:0:0:
138,73,59389,1,0,0:0:0:0:
164,146,59592,2,0,L|104:153,1,60,2|2,3:2|0:0,0:0:0:0:
27,137,59997,6,0,L|41:63,2,60,2|2|0,3:2|0:0|3:2,0:0:0:0:
11,213,60605,1,2,0:0:0:0:
86,232,60808,2,0,L|73:303,1,60,2|2,3:2|0:0,0:0:0:0:
151,308,61213,2,0,L|141:367,1,60,2|2,3:2|0:0,0:0:0:0:
218,377,61619,6,0,P|276:370|309:321,1,120,4|0,3:1|3:0,0:0:0:0:
285,247,62227,2,0,L|353:254,1,60,2|0,0:0|3:0,0:0:0:0:
391,192,62632,1,2,0:0:0:0:
391,192,62733,1,0,0:0:0:0:
391,192,62835,2,0,L|450:198,1,60,2|0,3:2|0:0,0:0:0:0:
500,264,63240,5,0,3:0:0:0:
500,264,63443,1,2,0:0:0:0:
455,329,63646,1,0,3:0:0:0:
455,329,63848,1,2,0:0:0:0:
389,286,64051,2,0,L|314:277,1,60,2|2,3:2|0:0,0:0:0:0:
273,333,64456,2,0,L|213:325,1,60,2|2,3:2|0:0,0:0:0:0:
149,370,64862,5,4,3:1:0:0:
30,276,65267,1,2,3:2:0:0:
30,276,65470,1,2,0:3:0:0:
92,227,65673,1,2,3:2:0:0:
92,227,65875,1,2,0:3:0:0:
156,181,66078,1,2,3:2:0:0:
156,181,66281,1,2,0:3:0:0:
220,137,66483,6,0,P|160:145|114:105,1,120,2|0,3:2|3:0,0:0:0:0:
137,33,67092,2,0,P|197:25|243:65,1,120,2|0,0:2|0:0,0:0:0:0:
220,137,67700,2,0,L|231:213,1,60,2|2,3:2|0:0,0:0:0:0:
304,234,68105,6,0,L|295:286,7,45.0000017166138,2|2|2|2|2|2|2|2,3:0|0:0|0:0|0:0|0:0|0:0|0:0|0:0,0:0:0:0:
356,326,69727,6,0,L|348:374,4,45.0000017166138,2|2|2|2|0,0:0|0:0|0:0|0:0|0:0,0:0:0:0:
501,145,71146,5,0,3:0:0:0:
501,145,71247,1,0,3:0:0:0:
501,144,71348,2,0,P|447:194|374:194,1,150,4|2,3:2|3:2,0:0:0:0:
320,112,71956,2,0,L|326:75,2,37.5,4|4|2,0:3|0:3|3:0,0:0:0:0:
237,164,72362,1,2,0:0:0:0:
293,243,72565,2,0,L|281:317,1,75,0|2,3:0|0:0,0:0:0:0:
278,353,72869,1,2,0:0:0:0:
278,353,72970,5,2,3:0:0:0:
194,302,73173,1,2,0:0:0:0:
122,367,73375,2,0,P|84:370|44:344,1,75,0|4,3:0|0:3,0:0:0:0:
34,332,73679,1,4,0:3:0:0:
34,332,73781,1,2,3:0:0:0:
47,235,73983,2,0,L|32:191,2,37.5,4|4|0,0:3|0:3|3:0,0:0:0:0:
151,228,74389,1,4,0:3:0:0:
151,228,74490,1,4,0:3:0:0:
151,228,74592,6,0,P|198:178|191:100,1,150,2|0,3:0|3:0,0:0:0:0:
107,52,75200,2,0,L|52:48,2,37.5,4|4|2,0:3|0:3|3:0,0:0:0:0:
199,11,75605,1,2,0:0:0:0:
199,11,75706,1,2,0:0:0:0:
199,11,75808,2,0,L|276:16,1,75,0|2,3:0|0:0,0:0:0:0:
344,83,76213,6,0,P|425:87|467:26,1,150,2|0,3:0|3:0,0:0:0:0:
381,7,76821,1,2,3:2:0:0:
381,7,76923,1,4,0:3:0:0:
381,7,77024,2,0,P|362:112|356:163,1,150,2|0,3:0|3:0,0:0:0:0:
455,197,77632,1,0,3:2:0:0:
455,197,77733,1,4,0:3:0:0:
455,197,77835,6,0,P|503:251|489:332,1,150,4|0,3:2|3:0,0:0:0:0:
399,347,78443,2,0,L|393:398,2,37.5,4|4|2,0:3|0:3|3:0,0:0:0:0:
328,279,78848,1,2,0:0:0:0:
246,333,79051,2,0,L|147:342,1,75,0|2,3:0|0:0,0:0:0:0:
144,364,79355,1,2,0:0:0:0:
144,364,79456,6,0,P|80:364|29:286,1,150,2|0,3:0|3:0,0:0:0:0:
35,202,80065,2,0,L|-2:209,2,37.5,4|4|2,0:3|0:3|3:0,0:0:0:0:
138,227,80470,1,0,0:0:0:0:
138,227,80571,1,0,0:0:0:0:
138,227,80673,2,0,L|155:125,1,75,0|4,3:0|0:3,0:0:0:0:
86,78,81078,5,2,3:0:0:0:
172,27,81281,1,2,0:0:0:0:
172,27,81382,1,2,0:0:0:0:
172,27,81483,2,0,L|271:16,1,75,0|4,3:0|0:3,0:0:0:0:
310,93,81889,1,2,3:0:0:0:
411,75,82092,1,2,0:0:0:0:
411,75,82193,1,2,0:0:0:0:
411,75,82294,2,0,L|397:173,1,75,0|2,3:0|0:0,0:0:0:0:
447,235,82700,6,0,L|299:262,1,150,2|0,3:0|3:0,0:0:0:0:
244,345,83308,1,2,3:2:0:0:
244,345,83409,1,4,0:3:0:0:
244,345,83511,1,2,3:0:0:0:
150,320,83713,1,2,0:0:0:0:
146,222,83916,1,0,3:0:0:0:
245,198,84119,1,0,3:0:0:0:
245,198,84220,1,0,3:0:0:0:
245,198,84321,6,0,P|291:129|277:65,1,150,4|0,3:2|3:0,0:0:0:0:
195,15,84929,2,0,L|144:21,2,37.5,4|4|2,0:3|0:3|3:0,0:0:0:0:
192,113,85335,1,2,0:0:0:0:
278,67,85538,2,0,L|366:57,1,75,0|2,3:0|0:0,0:0:0:0:
383,40,85842,1,2,0:0:0:0:
383,40,85943,6,0,P|373:116|436:181,1,150,2|0,3:0|3:0,0:0:0:0:
511,215,86551,1,4,0:3:0:0:
511,215,86652,1,4,0:3:0:0:
511,215,86754,1,2,3:0:0:0:
453,293,86956,1,0,0:0:0:0:
362,256,87159,2,0,L|290:279,1,75,0|4,3:0|0:3,0:0:0:0:
279,308,87463,1,4,0:3:0:0:
279,308,87565,6,0,P|213:319|148:258,1,150,2|0,3:0|3:0,0:0:0:0:
138,172,88173,2,0,L|95:183,2,37.5,4|4|2,0:3|0:3|3:0,0:0:0:0:
231,222,88578,1,2,0:0:0:0:
231,222,88679,1,2,0:0:0:0:
231,222,88781,2,0,L|244:127,1,75,0|2,3:0|0:0,0:0:0:0:
338,158,89186,6,0,P|388:106|377:34,1,150,2|0,3:0|3:0,0:0:0:0:
288,22,89794,1,2,3:2:0:0:
288,22,89896,1,4,0:3:0:0:
288,22,89997,2,0,L|188:38,1,75,2|0,3:0|0:0,0:0:0:0:
144,102,90402,1,0,3:0:0:0:
67,57,90605,1,2,3:2:0:0:
67,57,90706,1,4,0:3:0:0:
67,57,90808,6,0,L|44:220,1,150,4|0,3:2|3:0,0:0:0:0:
123,265,91416,2,0,L|117:302,2,37.5,4|4|2,0:3|0:3|3:0,0:0:0:0:
189,193,91821,1,2,0:0:0:0:
265,254,92024,2,0,L|253:334,1,75,0|2,3:0|0:0,0:0:0:0:
275,359,92328,1,2,0:0:0:0:
275,359,92429,6,0,P|365:362|410:307,1,150,2|0,3:0|3:0,0:0:0:0:
408,224,93038,2,0,L|456:230,2,37.5,4|4|2,0:3|0:3|3:0,0:0:0:0:
335,172,93443,1,0,0:0:0:0:
335,172,93544,1,0,0:0:0:0:
335,172,93646,1,0,3:0:0:0:
412,113,93848,2,0,L|458:120,2,37.5,4|4|2,0:3|0:3|3:0,0:0:0:0:
334,52,94254,6,0,L|185:30,1,150,2|4,0:0|0:3,0:0:0:0:
98,74,94862,1,2,3:0:0:0:
185,134,95065,1,2,0:0:0:0:
185,134,95166,1,2,0:0:0:0:
185,134,95267,2,0,P|196:172|185:208,1,75,0|0,3:0|0:0,0:0:0:0:
116,274,95673,5,2,3:0:0:0:
198,342,95875,1,0,1:0:0:0:
198,342,95977,1,0,1:0:0:0:
198,342,96078,2,0,L|252:331,3,37.5,0|4|8|4,1:0|0:3|3:0|0:3,0:0:0:0:
301,361,96483,5,2,1:3:0:0:
312,341,96585,1,4,0:3:0:0:
314,318,96686,1,8,3:0:0:0:
306,296,96788,1,4,0:3:0:0:
289,281,96889,2,0,L|304:231,3,37.5,0|4|4|4,1:0|0:3|0:3|0:3,0:0:0:0:
256,192,97294,5,4,1:0:0:0:
256,192,97396,12,0,100335,0:0:0:0:
