osu file format v14

[General]
AudioFilename: audio.mp3
AudioLeadIn: 0
PreviewTime: 69321
Countdown: 0
SampleSet: Soft
StackLeniency: 0.7
Mode: 0
LetterboxInBreaks: 0
WidescreenStoryboard: 0

[Editor]
DistanceSpacing: 1.1
BeatDivisor: 2
GridSize: 4
TimelineZoom: 0.4999999

[Metadata]
Title:Kanpeki na Sekai
TitleUnicode:完璧な世界
Artist:Sakakibara Yui
ArtistUnicode:榊原ゆい
Creator:Garden
Version:Easy
Source:青い空のカミュ
Tags:kai opening short aoi sora no camus visual novel eroge video game pop japanese fushimi rio imoutosan my angel yayoi nika mika sodarose
BeatmapID:2361248
BeatmapSetID:1130365

[Difficulty]
HPDrainRate:2
CircleSize:4
OverallDifficulty:2
ApproachRate:3
SliderMultiplier:0.8
SliderTickRate:1

[Events]
//Background and Video events
0,0,"CG43e-L.jpg",0,0
//Break Periods
2,6684,8287
2,9927,11530
2,13170,14773
2,16413,18016
//Storyboard Layer 0 (Background)
//Storyboard Layer 1 (Fail)
//Storyboard Layer 2 (Pass)
//Storyboard Layer 3 (Foreground)
//Storyboard Layer 4 (Overlay)
//Storyboard Sound Samples

[TimingPoints]
6484,405.405405405405,4,2,1,50,1,0
71348,-100,4,2,1,70,0,1
97294,-100,4,2,1,60,0,0
97497,-100,4,2,1,5,0,0

[Colours]
Combo1 : 255,255,164
Combo2 : 201,201,228

[HitObjects]
115,106,6484,5,4,0:1:0:0:
115,106,9727,5,4,0:1:0:0:
417,225,12970,5,4,0:1:0:0:
212,316,16213,5,4,0:1:0:0:
212,316,19456,6,0,P|133:311|68:374,2,160,4|2|2,3:1|3:2|3:2,0:0:0:0:
386,344,21889,2,0,L|373:247,1,80,2|2,3:2|3:2,0:0:0:0:
449,217,22700,6,0,P|484:147|458:74,2,160,2|2|0,3:2|3:2|3:0,0:0:0:0:
295,130,25132,2,0,L|179:122,1,80,2|2,3:2|3:2,0:0:0:0:
141,173,25943,6,0,P|52:167|6:97,2,160,2|2|2,3:2|3:2|3:2,0:0:0:0:
239,27,28375,2,0,L|356:38,1,80,2|2,3:2|3:2,0:0:0:0:
405,17,29186,6,0,P|465:76|457:152,1,160,2|2,3:2|3:2,0:0:0:0:
283,148,30808,2,0,P|223:207|231:283,1,160,0|2,3:0|3:2,0:0:0:0:
279,349,32024,1,2,3:2:0:0:
354,304,32429,6,0,P|433:311|512:326,2,160,4|2|2,3:1|3:2|3:2,0:0:0:0:
186,358,34862,1,2,3:2:0:0:
117,302,35267,1,2,3:2:0:0:
151,220,35673,6,0,P|133:141|108:65,2,160,2|2|0,3:2|3:2|3:0,0:0:0:0:
323,257,38105,1,2,3:2:0:0:
379,189,38511,1,2,3:2:0:0:
342,108,38916,6,0,P|271:122|183:136,2,160,2|2|2,3:2|3:2|3:2,0:0:0:0:
490,12,41348,1,2,3:2:0:0:
438,83,41754,1,2,3:2:0:0:
480,160,42159,6,0,P|493:243|495:332,1,160,2|2,3:2|3:2,0:0:0:0:
330,381,43781,2,0,P|317:298|315:209,1,160,0|2,3:0|3:2,0:0:0:0:
330,135,44997,2,0,P|290:128|251:118,1,80,2|4,3:2|3:1,0:0:0:0:
173,77,45808,6,0,P|183:35|190:-13,2,80,2|2|2,3:2|3:2|3:2,0:0:0:0:
98,124,47024,2,0,P|87:213|154:272,1,160,2|0,3:2|3:0,0:0:0:0:
209,224,48240,1,2,3:2:0:0:
283,270,48646,6,0,L|469:244,1,160,2|2,3:2|3:2,0:0:0:0:
343,101,50267,2,0,L|183:124,2,160,2|2|4,3:2|3:2|3:1,0:0:0:0:
420,143,52294,6,0,L|516:129,2,80,2|2|2,3:2|3:2|3:2,0:0:0:0:
368,214,53511,1,2,3:2:0:0:
317,286,53916,2,0,L|151:307,1,160,0|2,3:0|3:2,0:0:0:0:
72,286,55132,6,0,P|29:247|40:136,1,160,2|2,3:2|3:2,0:0:0:0:
124,2,56754,2,0,P|167:41|156:152,1,160,2|0,3:0|3:0,0:0:0:0:
229,199,57970,1,0,3:0:0:0:
306,157,58375,6,0,B|402:138|372:205|471:194,2,160,4|2|2,3:1|3:2|3:2,0:0:0:0:
130,176,60808,2,0,L|119:255,1,80,2|2,3:2|3:2,0:0:0:0:
200,290,61619,6,0,B|104:271|134:338|35:327,2,160,4|0|0,3:1|3:0|3:0,0:0:0:0:
362,357,64051,2,0,P|308:300|311:222,1,160,2|4,3:2|3:1,0:0:0:0:
364,152,65267,6,0,L|468:158,2,80,2|2|2,3:2|3:2|3:2,0:0:0:0:
303,87,66483,2,0,L|218:83,1,80,2|0,3:2|3:0,0:0:0:0:
154,27,67294,2,0,B|199:70|169:139|169:139|134:156,1,160,0|2,3:0|3:0,0:0:0:0:
134,155,69727,6,0,L|316:123,1,160,2|0,0:0|0:0,0:0:0:0:
454,180,71348,6,0,B|483:137|483:137|466:94|447:27,2,160,4|2|2,3:2|3:0|3:0,0:0:0:0:
387,237,73375,1,0,3:0:0:0:
402,323,73781,2,0,P|364:328|293:350,1,80,2|0,3:0|3:0,0:0:0:0:
241,370,74592,6,0,B|212:357|196:339|196:339|154:355|79:375,2,160,2|2|2,3:0|3:0|3:0,0:0:0:0:
323,338,76619,1,0,3:0:0:0:
359,257,77024,1,2,3:0:0:0:
326,175,77429,1,0,3:0:0:0:
246,212,77835,6,0,P|160:211|110:132,1,160,4|2,3:2|3:0,0:0:0:0:
237,31,79456,2,0,P|323:32|373:111,1,160,2|2,3:0|3:0,0:0:0:0:
470,227,81078,6,0,B|423:258|423:258|409:314|454:362,2,160,2|2|2,3:0|3:0|3:0,0:0:0:0:
444,142,83105,1,0,3:0:0:0:
491,67,83511,2,0,P|447:50|410:33,1,80,2|0,3:0|3:0,0:0:0:0:
330,21,84321,6,0,B|302:34|282:50|282:50|237:37|159:40,2,160,4|2|2,3:2|3:0|3:0,0:0:0:0:
407,62,86348,1,0,3:0:0:0:
352,131,86754,2,0,P|340:181|334:239,1,80,2|0,3:0|3:0,0:0:0:0:
370,290,87565,6,0,B|404:288|433:275|433:275|473:315|527:331,2,160,2|2|2,3:0|3:0|3:0,0:0:0:0:
297,240,89592,1,0,3:0:0:0:
212,265,89997,1,2,3:0:0:0:
180,347,90402,1,0,3:0:0:0:
95,321,90808,6,0,L|110:149,1,160,4|2,3:2|3:0,0:0:0:0:
265,80,92429,2,0,L|251:239,1,160,2|2,3:0|3:0,0:0:0:0:
425,212,94051,6,0,P|488:267|477:356,2,160,2|2|2,3:0|3:0|3:0,0:0:0:0:
337,198,96078,1,0,1:0:0:0:
349,110,96483,2,0,L|440:88,2,80,2|0|4,1:3|1:0|1:0,0:0:0:0:
256,192,97497,12,0,100335,0:0:0:0:
