osu file format v14

[General]
AudioFilename: audio.mp3
AudioLeadIn: 0
PreviewTime: 51782
Countdown: 0
SampleSet: None
StackLeniency: 0.5
Mode: 0
LetterboxInBreaks: 0
WidescreenStoryboard: 0

[Editor]
Bookmarks: 34560,55856,58819,59189,89929
DistanceSpacing: 1.8
BeatDivisor: 4
GridSize: 4
TimelineZoom: 1.4

[Metadata]
Title:COCORO Link Sync
TitleUnicode:COCORO Link ♡ Sync
Artist:Sakakibara Yui
ArtistUnicode:榊原ゆい
Creator:ekafjr
Version:Insane
Source:妄想コンプリート!
Tags:Opening Mosou Complete Lofty rose ! O-Moei Akitoshi
BeatmapID:1277736
BeatmapSetID:604745

[Difficulty]
HPDrainRate:7
CircleSize:4
OverallDifficulty:7
ApproachRate:9
SliderMultiplier:1.7
SliderTickRate:1

[Events]
//Background and Video events
0,0,"bg.jpg",0,0
//Break Periods
//Storyboard Layer 0 (Background)
//Storyboard Layer 1 (Fail)
//Storyboard Layer 2 (Pass)
//Storyboard Layer 3 (Foreground)
//Storyboard Sound Samples

[TimingPoints]
1412,370.37037037037,4,2,1,70,1,0
14745,-100,4,2,1,60,0,0
38449,-100,4,2,1,60,0,0
53263,-100,4,2,1,65,0,1
63634,-100,4,2,1,65,0,0
65115,-100,4,2,1,65,0,1
82893,-100,4,2,1,65,0,0
84004,-133.333333333333,4,2,1,65,0,0
85115,-100,4,2,1,60,0,0
86967,370.37037037037,4,2,1,70,1,0
86967,-100,4,2,1,70,0,0

[Colours]
Combo1 : 255,0,255
Combo2 : 0,255,0
Combo3 : 255,0,128
Combo4 : 128,128,255
Combo5 : 255,255,0

[HitObjects]
416,132,1412,6,0,L|312:132,1,85
240,252,1782,2,0,L|328:252,1,85
196,172,2152,2,0,P|160:220|164:268,1,85
60,360,2523,2,0,P|36:324|36:272,1,85
185,85,2893,6,0,P|103:78|40:132,2,170
136,188,3819,1,0,0:0:0:0:
136,188,4004,2,0,B|116:232|148:284,1,85
280,208,4374,6,0,B|304:160|268:112,1,85
136,188,4745,2,0,L|56:224,1,85
172,324,5115,2,0,L|252:288,1,85
392,228,5486,2,0,P|372:184|328:164,1,85
192,132,5856,6,0,P|212:176|256:196,1,85
224,40,6226,2,0,L|112:44,1,85
276,112,6597,2,0,L|388:108,1,85
468,220,6967,2,0,P|416:192|372:200,1,85
146,285,7337,6,0,P|228:297|291:244,1,170
200,180,7893,1,0,0:0:0:0:
348,176,8078,2,0,P|376:216|368:280,1,85
230,254,8449,2,0,P|202:214|210:150,1,85
292,56,8819,5,0,0:0:0:0:
288,184,9004,1,0,0:0:0:0:
285,307,9189,2,0,P|249:328|208:324,1,85
80,260,9560,1,0,0:0:0:0:
230,254,9745,1,0,0:0:0:0:
344,248,9930,2,0,P|364:285|364:328,1,85
230,254,10300,5,0,0:0:0:0:
324,132,10486,1,0,0:0:0:0:
448,244,10671,2,0,P|468:281|468:324,1,85
344,248,11041,2,0,P|323:210|324:168,1,85
420,60,11411,1,0,0:0:0:0:
324,132,11597,6,0,B|248:216|144:132,1,170
108,12,12152,1,0,0:0:0:0:
240,74,12337,2,0,B|240:244,1,170
104,320,12893,1,0,0:0:0:0:
256,344,13078,6,0,P|304:356|340:344,1,85
444,236,13449,1,0,0:0:0:0:
444,236,13541,1,0,0:0:0:0:
444,236,13634,2,0,L|480:196,2,42.5
312,216,14004,1,0,0:0:0:0:
312,216,14097,1,0,0:0:0:0:
312,216,14189,1,0,0:0:0:0:
396,88,14374,1,0,0:0:0:0:
396,88,14467,1,0,0:0:0:0:
396,88,14560,1,0,0:0:0:0:
156,200,14745,6,0,P|195:215|236:207,1,85
388,196,15115,2,0,P|408:248|440:276,1,85
448,276,15393,1,0,0:0:0:0:
468,284,15486,2,0,P|444:336|432:360,1,85
280,348,15856,1,0,0:0:0:0:
128,240,16041,6,0,P|184:228|220:244,1,85
280,348,16411,1,0,0:0:0:0:
60,288,16597,2,0,P|48:232|64:196,1,85
68,188,16874,1,0,0:0:0:0:
84,176,16967,2,0,L|92:80,1,85
236,40,17337,1,0,0:0:0:0:
236,40,17430,1,0,0:0:0:0:
236,40,17523,1,0,0:0:0:0:
260,192,17708,6,0,P|284:228|344:248,1,85
464,296,18078,2,0,P|476:232|468:204,1,85
460,196,18356,1,0,0:0:0:0:
444,180,18449,2,0,L|444:84,1,85
312,28,18819,1,0,0:0:0:0:
228,160,19004,6,0,P|184:172|144:166,1,85
176,40,19374,1,0,0:0:0:0:
328,152,19560,2,0,P|376:184|388:220,1,85
396,228,19837,1,0,0:0:0:0:
396,248,19930,2,0,L|396:336,1,85
236,336,20300,1,0,0:0:0:0:
236,336,20393,1,0,0:0:0:0:
236,336,20486,1,0,0:0:0:0:
104,224,20671,6,0,P|152:212|196:228,1,85
316,300,21041,1,0,0:0:0:0:
436,204,21226,1,0,0:0:0:0:
436,204,21319,1,0,0:0:0:0:
436,204,21411,2,0,L|432:108,1,85
292,56,21782,1,0,0:0:0:0:
220,192,21967,6,0,P|168:204|112:168,1,85
64,60,22337,1,0,0:0:0:0:
48,212,22523,2,0,L|36:300,1,85
36,316,22800,1,0,0:0:0:0:
36,336,22893,2,0,P|92:348|148:328,1,85
256,280,23263,1,0,0:0:0:0:
256,280,23356,1,0,0:0:0:0:
256,280,23449,1,0,0:0:0:0:
380,168,23634,6,0,P|339:156|297:161,1,85
88,196,24004,2,0,L|96:304,1,85
96,304,24282,1,0,0:0:0:0:
100,324,24374,2,0,P|160:336|208:324,1,85
324,280,24745,1,0,0:0:0:0:
432,172,24930,6,0,P|376:160|328:184,1,85
232,264,25300,1,0,0:0:0:0:
112,96,25486,6,0,P|100:152|124:200,1,85
116,196,25763,1,0,0:0:0:0:
116,196,25856,1,0,0:0:0:0:
244,116,26041,1,0,0:0:0:0:
396,252,26226,1,0,0:0:0:0:
396,252,26319,1,0,0:0:0:0:
396,252,26411,1,0,0:0:0:0:
352,328,26597,6,0,P|408:340|452:324,1,85
389,170,26967,2,0,P|400:210|396:252,1,85
395,252,27245,1,0,0:0:0:0:
396,252,27337,1,0,0:0:0:0:
280,148,27523,1,0,0:0:0:0:
208,284,27708,1,0,0:0:0:0:
148,144,27893,6,0,P|135:103|143:62,1,85
389,170,28263,1,0,0:0:0:0:
389,170,28449,2,0,P|401:218|393:262,1,85
397,274,28726,1,0,0:0:0:0:
393,294,28819,1,0,0:0:0:0:
200,340,29004,2,0,L|288:348,1,85
304,348,29282,1,0,0:0:0:0:
324,352,29374,1,0,0:0:0:0:
464,292,29560,6,0,P|468:228|456:200,1,85
368,88,29930,2,0,P|424:96|456:88,1,85
468,76,30208,1,0,0:0:0:0:
484,60,30300,1,0,0:0:0:0:
336,16,30486,1,0,0:0:0:0:
336,172,30671,1,0,0:0:0:0:
228,64,30856,6,0,P|184:44|112:64,1,85
72,188,31226,1,0,0:0:0:0:
192,276,31411,2,0,P|224:228|224:184,1,85
228,180,31689,1,0,0:0:0:0:
228,160,31782,1,0,0:0:0:0:
84,112,31967,1,0,0:0:0:0:
100,264,32152,1,0,0:0:0:0:
100,264,32245,1,0,0:0:0:0:
100,264,32337,1,0,0:0:0:0:
236,336,32523,6,0,P|288:336|336:308,1,85
376,216,32893,2,0,L|372:120,1,85
372,108,33171,1,0,0:0:0:0:
372,88,33263,1,0,0:0:0:0:
484,200,33449,1,0,0:0:0:0:
456,48,33634,1,0,0:0:0:0:
272,100,33819,6,0,P|212:120|184:112,1,85
56,48,34189,2,0,L|60:144,1,85
136,268,34560,1,0,0:0:0:0:
152,256,34652,1,0,0:0:0:0:
168,244,34745,1,0,0:0:0:0:
304,312,34930,2,0,P|352:320|387:308,1,85
408,300,35208,1,0,0:0:0:0:
428,292,35300,1,0,0:0:0:0:
376,148,35486,6,0,P|328:140|264:176,1,85
128,168,35856,2,0,B|140:120|120:76|108:60,1,85
112,64,36134,1,0,0:0:0:0:
100,48,36226,1,0,0:0:0:0:
36,188,36411,1,0,0:0:0:0:
140,284,36597,1,0,0:0:0:0:
212,116,36782,6,0,P|260:104|296:116,1,85
376,272,37152,1,0,0:0:0:0:
252,228,37337,1,0,0:0:0:0:
368,108,37523,1,0,0:0:0:0:
368,108,37615,1,0,0:0:0:0:
368,108,37708,1,0,0:0:0:0:
216,108,37893,5,0,0:0:0:0:
191,108,37985,1,0,0:0:0:0:
166,115,38078,1,0,0:0:0:0:
144,128,38170,1,0,0:0:0:0:
127,148,38263,1,0,0:0:0:0:
32,272,38449,6,0,L|28:356,1,85
127,233,38819,2,0,L|127:149,1,85
216,24,39189,1,0,0:0:0:0:
68,68,39374,1,0,0:0:0:0:
260,164,39560,2,0,P|328:172|356:156,1,85
480,100,39930,6,0,P|496:144|472:212,1,85
344,344,40300,2,0,B|272:284|160:348,1,170
52,368,40856,1,0,0:0:0:0:
76,216,41041,1,0,0:0:0:0:
184,335,41226,1,0,0:0:0:0:
116,112,41411,6,0,B|60:80|16:132,1,85
140,260,41782,2,0,B|196:292|240:240,1,85
332,156,42152,1,0,0:0:0:0:
180,184,42337,1,0,0:0:0:0:
224,36,42523,1,0,0:0:0:0:
332,156,42708,6,0,B|332:264,1,85
184,328,43078,1,0,0:0:0:0:
256,116,43263,2,0,P|336:72|408:116,1,170
452,256,43819,1,0,0:0:0:0:
332,156,44004,1,0,0:0:0:0:
336,308,44189,1,0,0:0:0:0:
160,236,44374,6,0,P|196:228|256:244,1,85
136,348,44745,2,0,P|84:356|40:344,1,85
36,196,45115,1,0,0:0:0:0:
160,108,45300,1,0,0:0:0:0:
276,208,45486,1,0,0:0:0:0:
284,360,45671,1,0,0:0:0:0:
424,244,45856,6,0,P|436:308|412:360,1,85
248,336,46226,2,0,P|236:272|264:224,1,85
360,156,46597,1,0,0:0:0:0:
316,288,46782,1,0,0:0:0:0:
236,160,46967,1,0,0:0:0:0:
402,32,47152,6,0,P|361:23|320:32,1,85
236,160,47523,1,0,0:0:0:0:
104,24,47708,1,0,0:0:0:0:
236,160,47893,2,0,P|200:176|144:164,1,85
36,76,48263,1,0,0:0:0:0:
40,228,48449,1,0,0:0:0:0:
40,228,48541,1,0,0:0:0:0:
40,228,48634,2,0,P|80:268|120:276,1,85
264,264,49004,5,0,0:0:0:0:
452,228,49189,1,0,0:0:0:0:
320,152,49374,1,0,0:0:0:0:
368,300,49560,1,0,0:0:0:0:
320,152,49745,1,0,0:0:0:0:
152,192,49930,1,0,0:0:0:0:
152,192,50023,1,0,0:0:0:0:
152,192,50115,1,0,0:0:0:0:
152,56,50300,5,0,0:0:0:0:
268,284,50486,1,0,0:0:0:0:
64,132,50671,1,0,0:0:0:0:
268,284,50856,1,0,0:0:0:0:
88,308,52152,5,0,0:0:0:0:
100,296,52523,5,0,0:0:0:0:
112,284,52893,5,0,0:0:0:0:
372,64,53263,6,0,P|384:116|372:160,1,85
276,260,53634,1,0,0:0:0:0:
288,64,53819,2,0,L|192:64,1,85
52,112,54189,1,0,0:0:0:0:
156,276,54374,2,0,P|164:228|153:192,1,85
52,112,54745,5,0,0:0:0:0:
108,336,54930,2,0,P|160:352|204:336,1,85
272,220,55300,1,0,0:0:0:0:
208,64,55486,2,0,P|152:56|108:76,1,85
92,244,55856,2,0,L|88:332,1,85
240,320,56226,5,0,0:0:0:0:
240,168,56411,1,0,0:0:0:0:
92,244,56597,1,0,0:0:0:0:
304,240,56782,2,0,L|412:244,1,85
464,108,57152,1,0,0:0:0:0:
228,192,57337,2,0,P|213:231|217:273,1,85
356,340,57708,5,0,0:0:0:0:
272,124,57893,2,0,P|230:111|189:121,1,85
100,244,58263,1,0,0:0:0:0:
274,337,58449,2,0,P|315:349|356:339,1,85
480,212,58819,2,0,L|480:116,1,85
328,24,59189,6,0,P|272:16|224:28,1,85
136,132,59560,1,0,0:0:0:0:
252,232,59745,2,0,L|256:336,1,85
408,312,60115,1,0,0:0:0:0:
296,144,60300,2,0,P|256:132|200:148,1,85
64,256,60671,6,0,B|64:164,1,85
176,44,61041,1,0,0:0:0:0:
368,96,61226,2,0,P|384:134|383:177,1,85
288,300,61597,1,0,0:0:0:0:
296,148,61782,1,0,0:0:0:0:
388,288,61967,1,0,0:0:0:0:
200,232,62152,6,0,L|92:232,1,85
44,96,62523,1,0,0:0:0:0:
300,192,62708,2,0,P|308:232|297:275,1,85
160,336,63078,1,0,0:0:0:0:
248,136,63263,2,0,P|308:116|356:136,1,85
452,212,63634,5,0,0:0:0:0:
452,212,63819,1,0,0:0:0:0:
468,60,64004,1,0,0:0:0:0:
327,119,64189,1,0,0:0:0:0:
180,60,64374,2,0,L|60:68,1,85
56,256,64745,2,0,L|140:249,1,85
312,240,65115,5,0,0:0:0:0:
156,152,65300,1,0,0:0:0:0:
304,116,65486,1,0,0:0:0:0:
172,272,65671,2,0,L|160:380,1,85
364,324,66041,1,0,0:0:0:0:
364,324,66226,2,0,L|364:239,1,85
180,320,66597,5,0,0:0:0:0:
248,128,66782,2,0,P|300:116|348:136,1,85
364,324,67152,1,0,0:0:0:0:
168,236,67337,2,0,P|148:200|152:152,1,85
304,32,67708,2,0,P|360:32|404:64,1,85
424,208,68078,5,0,0:0:0:0:
288,280,68263,1,0,0:0:0:0:
336,136,68449,1,0,0:0:0:0:
468,288,68634,2,0,L|495:369,1,85
344,356,69004,1,0,0:0:0:0:
196,316,69189,2,0,L|168:228,1,85
124,88,69559,5,0,0:0:0:0:
324,200,69745,2,0,B|285:222|243:199,1,85
64,136,70115,1,0,0:0:0:0:
274,58,70300,2,0,B|226:30|158:66,1,85
56,160,70671,2,0,L|56:248,1,85
192,348,71041,6,0,P|232:357|273:346,1,85
331,195,71411,1,0,0:0:0:0:
132,144,71597,2,0,P|120:103|129:62,1,85
280,44,71967,1,0,0:0:0:0:
416,188,72152,2,0,L|324:196,1,85
132,144,72523,6,0,B|64:220|140:316,1,170
400,296,73078,2,0,L|496:280,1,85
364,160,73449,1,0,0:0:0:0:
224,256,73634,2,0,P|312:252|348:232,1,127.5
352,212,74004,6,0,P|336:128|408:156,1,170
456,264,74560,2,0,P|416:296|356:304,1,85
224,356,74930,1,0,0:0:0:0:
172,192,75115,2,0,P|236:184|276:204,1,85
384,304,75486,6,0,P|348:248|344:220,1,85
284,72,75856,1,0,0:0:0:0:
344,230,76041,2,0,P|292:246|244:242,1,85
100,192,76411,1,0,0:0:0:0:
332,312,76597,2,0,L|346:203,1,85
352,24,76967,5,0,0:0:0:0:
412,184,77152,1,0,0:0:0:0:
284,72,77337,1,0,0:0:0:0:
268,200,77523,2,0,L|156:224,1,85
40,256,77893,1,0,0:0:0:0:
200,328,78078,2,0,L|304:344,1,85
432,304,78449,6,0,P|440:260|432:212,1,85
368,84,78819,1,0,0:0:0:0:
356,256,79004,1,0,0:0:0:0:
272,92,79189,2,0,L|172:96,1,85
48,168,79560,2,0,L|41:83,1,85
144,196,79930,6,0,P|168:244|212:268,1,85
344,256,80300,1,0,0:0:0:0:
344,256,80486,2,0,P|352:312|340:352,1,85
192,328,80856,1,0,0:0:0:0:
304,160,81041,2,0,P|372:156|404:176,1,85
460,316,81411,5,0,0:0:0:0:
484,164,81597,1,0,0:0:0:0:
460,316,81782,1,0,0:0:0:0:
308,332,81967,2,0,P|240:336|208:316,1,85
136,192,82337,1,0,0:0:0:0:
276,248,82523,1,0,0:0:0:0:
272,108,82708,1,0,0:0:0:0:
188,276,82893,5,0,0:0:0:0:
188,276,83078,1,0,0:0:0:0:
336,160,83263,1,0,0:0:0:0:
328,352,83449,2,0,P|368:364|409:358,1,85
488,224,83819,1,0,0:0:0:0:
336,160,84004,6,0,L|336:240,1,63.7500024318696
84,160,84930,1,0,0:0:0:0:
84,160,85115,6,0,P|121:179|163:183,1,85
316,108,85486,2,0,P|316:160|336:204,1,85
448,284,85856,2,0,P|404:324|352:332,2,85
112,64,86782,1,0,0:0:0:0:
112,64,86967,6,0,P|180:68|224:52,1,85
364,72,87337,2,0,L|344:176,1,85
224,272,87708,2,0,L|240:188,1,85
408,188,88078,2,0,L|388:292,1,85
164,324,88449,6,0,B|92:248|-20:336,2,170
304,356,89374,1,0,0:0:0:0:
244,212,89560,2,0,B|224:164|244:124,1,85
452,72,89929,6,0,B|496:152|440:252,2,170
292,220,90856,1,0,0:0:0:0:
292,220,91041,2,0,P|232:228|192:216,1,85
40,192,91411,6,0,L|24:280,1,85
140,148,91782,2,0,L|155:64,1,85
324,64,92152,2,0,L|412:80,1,85
444,248,92523,2,0,L|344:224,1,85
220,172,92893,5,0,0:0:0:0:
356,24,93078,1,0,0:0:0:0:
444,248,93263,1,0,0:0:0:0:
316,160,93449,1,0,0:0:0:0:
316,160,93819,1,0,0:0:0:0:
360,248,94004,2,0,L|328:344,1,85
164,316,94374,5,0,0:0:0:0:
268,80,94559,1,0,0:0:0:0:
360,248,94744,1,0,0:0:0:0:
252,340,94930,1,0,0:0:0:0:
76,200,95115,2,0,P|68:128|92:88,1,85
188,20,95486,1,0,0:0:0:0:
368,92,96966,5,0,0:0:0:0:
368,92,97060,1,0,0:0:0:0:
368,92,97152,1,0,0:0:0:0:
368,260,97337,5,0,0:0:0:0:
368,92,97523,1,0,0:0:0:0:
276,316,97708,1,0,0:0:0:0:
264,164,97893,1,0,0:0:0:0:
440,192,98078,1,0,0:0:0:0:
204,264,98263,1,0,0:0:0:0:
368,92,98449,5,0,0:0:0:0:
