osu file format v14

[General]
AudioFilename: audio.mp3
AudioLeadIn: 0
PreviewTime: 63138
Countdown: 0
SampleSet: Normal
StackLeniency: 0.7
Mode: 0
LetterboxInBreaks: 0
WidescreenStoryboard: 1

[Editor]
Bookmarks: 63206
DistanceSpacing: 1.2
BeatDivisor: 4
GridSize: 32
TimelineZoom: 1.7

[Metadata]
Title:Answer
TitleUnicode:Answer
Artist:Sakakibara Yui
ArtistUnicode:榊原ゆい
Creator:Lasse
Version:Resolve
Source:働くオタクの恋愛事情
Tags:Fujita Junpei 藤田淳平 Hataraku Otaku no Ren'ai Jijou renai eroge visual novel insert song cover short version G線上の魔王 G-senjou no Maou Akabei Soft3 akabeisoft japanese rock
BeatmapID:2885069
BeatmapSetID:1398169

[Difficulty]
HPDrainRate:6
CircleSize:4
OverallDifficulty:9
ApproachRate:9
SliderMultiplier:1.8
SliderTickRate:1

[Events]
//Background and Video events
0,0,"x1.jpg",0,0
//Break Periods
2,26976,34748
//Storyboard Layer 0 (Background)
//Storyboard Layer 1 (Fail)
//Storyboard Layer 2 (Pass)
//Storyboard Layer 3 (Foreground)
//Storyboard Layer 4 (Overlay)
//Storyboard Sound Samples

[TimingPoints]
1063,267.857142857143,4,2,1,40,1,0
1063,-133.333333333333,4,2,1,40,0,0
7491,-100,4,2,1,50,0,0
8563,-100,4,2,1,55,0,0
9634,-100,4,1,1,60,0,0
16464,-100,4,1,2,60,0,0
16732,-100,4,1,1,60,0,0
17268,-100,4,1,2,60,0,0
17536,-100,4,1,1,60,0,0
24500,-66.6666666666666,4,1,1,60,0,0
24768,-99.9999999999994,4,2,1,60,0,0
26040,-99.9999999999994,4,2,1,5,0,0
26107,-99.9999999999994,4,2,1,60,0,0
26777,-99.9999999999994,4,2,99,40,0,0
35348,-199.999999999999,4,2,1,30,0,0
38429,-200.000000000001,4,2,1,30,0,0
41777,-100.000000000001,4,2,1,55,0,0
46063,-100.000000000001,4,1,1,55,0,0
49411,-100.000000000001,4,1,2,55,0,0
50080,-100.000000000001,4,1,1,55,0,0
60259,-200,4,2,1,30,0,0
60527,-200,4,2,1,5,0,0
60661,-200,4,2,1,20,0,0
60794,-90.9090909090909,4,1,1,60,0,0
61063,-90.9090909090909,4,2,1,55,0,0
61196,-90.9090909090909,4,2,1,60,0,0
62134,-90.9090909090909,4,1,2,60,0,0
63205,-90.9090909090909,4,1,1,65,0,0
69634,-90.9090909090909,4,1,2,65,0,0
71777,-90.9090909090909,4,1,1,65,0,0
73920,-76.9230769230769,4,1,1,65,0,0
74321,-76.9230769230769,4,1,2,65,0,0
74723,-90.9090909090909,4,1,2,65,0,0
74991,-90.9090909090909,4,1,1,65,0,0
76063,-100,4,2,1,60,0,0
76330,-100,4,2,1,50,0,0
80348,-100,4,1,2,60,0,0
81152,-100,4,1,1,55,0,0
82491,-100,4,1,2,60,0,0
83295,-100,4,1,1,60,0,0
83696,-100,4,2,1,50,0,0
84634,-100,4,1,2,60,0,0
85438,-100,4,1,1,60,0,0
85973,-100,4,2,1,60,0,0
86777,-100,4,2,1,50,0,0
88786,-100,4,2,1,60,0,0

[Colours]
Combo1 : 250,180,240
Combo2 : 120,200,230
Combo3 : 255,230,130
Combo4 : 160,230,150

[HitObjects]
70,360,1063,6,0,P|136:346|225:332,1,135.000005149842,2|0,0:0|0:0,0:0:0:0:
106,251,1598,2,0,B|158:234|164:185|164:185|139:152,1,135.000005149842,0|0,3:0|0:0,0:0:0:0:
91,88,2000,5,0,0:0:0:0:
277,47,2268,1,0,0:0:0:0:
139,152,2536,1,0,0:0:0:0:
230,137,2670,6,0,P|226:163|209:222,1,67.5000025749208,0|0,3:0|0:0,0:0:0:0:
149,305,2938,2,0,P|140:272|134:239,1,67.5000025749208
247,288,3205,5,2,0:0:0:0:
247,288,3339,1,0,0:0:0:0:
312,344,3473,2,0,P|357:342|390:326,1,67.5000025749208
414,211,3741,2,0,P|459:213|492:229,1,67.5000025749208,0|0,3:0|0:0,0:0:0:0:
336,261,4009,1,0,0:0:0:0:
290,175,4143,6,0,P|284:118|312:27,2,135.000005149842
336,261,4813,1,0,3:0:0:0:
298,339,4946,1,0,0:0:0:0:
224,372,5080,1,0,0:0:0:0:
150,359,5214,1,0,0:0:0:0:
68,383,5348,6,0,P|71:349|83:315,1,67.5000025749208,2|0,0:0|0:0,0:0:0:0:
0,194,5616,2,0,P|10:226|13:259,1,67.5000025749208
163,247,5884,2,0,P|129:242|97:231,1,67.5000025749208,0|0,3:0|0:0,0:0:0:0:
97,231,6152,1,0,0:0:0:0:
210,176,6286,5,0,0:0:0:0:
12,110,6554,1,0,0:0:0:0:
215,58,6821,1,0,0:0:0:0:
125,74,6955,6,0,P|122:24|126:-6,1,67.5000025749208,0|0,3:0|0:0,0:0:0:0:
226,180,7223,2,0,P|189:206|161:217,1,67.5000025749208
299,55,7491,2,0,B|354:42|403:75|378:100|413:149|478:130|478:130|494:138|494:138|476:50|528:3,2,360,2|0|12,0:2|3:0|2:2,0:2:0:0:
70,174,8830,5,8,0:0:0:0:
156,197,8964,1,8,0:0:0:0:
232,148,9098,2,0,P|222:104|193:52,1,90,8|8,1:3|0:0,0:0:0:0:
89,266,9366,2,4,P|99:309|120:350,1,90,4|4,0:3|0:3,0:0:0:0:
299,205,9634,5,6,0:1:0:0:
401,163,9768,1,0,0:0:0:0:
494,221,9902,1,8,0:0:0:0:
410,335,10036,6,0,B|386:363|346:353|346:353|334:284|379:256,1,180,2|0,0:0|0:0,0:0:0:0:
494,221,10438,1,8,0:0:0:0:
406,361,10571,6,0,P|363:370|304:350,1,90,2|0,0:2|0:0,0:0:0:0:
142,262,10839,2,0,P|176:289|219:298,1,90,0|8,0:2|0:0,0:0:0:0:
426,182,11107,2,0,P|411:223|380:255,1,90,0|0,0:2|0:0,0:0:0:0:
204,96,11375,2,0,P|195:139|206:181,2,90,0|8|0,0:2|0:2|0:0,0:0:0:0:
422,91,11777,5,2,0:1:0:0:
323,136,11911,1,0,0:0:0:0:
276,38,12045,1,8,0:0:0:0:
218,206,12179,6,0,B|199:241|199:241|133:270|67:204,1,180,2|0,0:0|0:0,0:0:0:0:
5,149,12580,1,8,0:0:0:0:
175,284,12714,6,0,P|182:347|170:381,1,90,2|0,0:2|0:0,0:0:0:0:
72,209,12982,2,0,P|65:146|77:112,1,90,0|8,0:0|0:0,0:0:0:0:
327,232,13250,2,0,P|334:295|322:329,1,90
224,157,13518,1,0,0:0:0:0:
224,157,13585,1,0,0:0:0:0:
224,157,13652,2,0,P|217:94|229:60,1,90,8|0,0:0|0:0,0:0:0:0:
412,4,13920,6,0,B|455:56|455:56|444:142|366:126,1,180,6|8,0:2|0:0,0:1:0:0:
63,47,14455,1,0,0:0:0:0:
14,122,14589,1,0,0:0:0:0:
44,206,14723,1,8,0:0:0:0:
209,293,14857,6,0,B|245:276|251:216|251:216|196:206|165:228,1,180,2|0,0:2|0:0,0:0:0:0:
96,348,15259,2,0,P|59:375|12:376,1,90,8|0,0:0|0:0,0:0:0:0:
276,180,15527,1,0,0:0:0:0:
350,247,15661,1,0,0:0:0:0:
329,344,15795,1,8,0:0:0:0:
173,235,15929,5,0,0:0:0:0:
173,235,15996,1,0,0:0:0:0:
173,235,16063,1,14,0:0:0:0:
359,154,16330,5,0,0:2:0:0:
329,344,16464,1,14,0:1:0:0:
292,104,16732,5,0,0:2:0:0:
262,294,16866,1,14,0:1:0:0:
220,145,17134,5,0,0:2:0:0:
190,335,17268,1,14,0:1:0:0:
153,95,17536,5,0,0:0:0:0:
123,285,17670,1,14,0:2:0:0:
153,95,17804,1,0,0:0:0:0:
123,285,17938,1,8,0:0:0:0:
398,190,18205,6,0,P|443:184|488:183,1,90,6|0,0:1|0:0,0:0:0:0:
408,300,18473,1,8,0:0:0:0:
307,250,18607,2,0,B|267:195|332:144|288:77,1,180,2|0,0:0|0:0,0:0:0:0:
213,0,19009,1,8,0:0:0:0:
98,147,19143,6,0,P|53:141|16:116,1,90,2|0,0:2|0:0,0:0:0:0:
288,77,19411,2,0,P|332:82|369:107,1,90,0|8,0:0|0:0,0:0:0:0:
129,261,19679,2,0,P|84:255|47:230,1,90
319,191,19946,1,0,0:0:0:0:
319,191,20013,1,0,0:0:0:0:
319,191,20080,2,0,P|363:196|400:221,1,90,8|0,0:0|0:0,0:0:0:0:
171,354,20348,5,2,0:0:0:0:
276,378,20482,1,0,0:0:0:0:
375,335,20616,1,8,0:0:0:0:
429,242,20750,2,0,B|468:203|445:116|445:116|379:103,1,180,2|0,0:0|0:0,0:0:0:0:
269,238,21152,1,8,0:0:0:0:
379,356,21286,6,0,P|421:369|471:366,1,90,2|0,0:2|0:0,0:0:0:0:
269,238,21554,2,0,P|224:235|181:249,1,90,0|8,0:0|0:0,0:0:0:0:
421,137,21821,2,0,P|464:127|502:103,1,90
299,3,22089,5,2,0:2:0:0:
220,47,22223,1,8,0:0:0:0:
134,17,22357,1,0,0:0:0:0:
14,130,22491,6,0,B|-26:192|-5:259|-5:259|45:298,1,180,6|8,0:1|0:0,0:0:0:0:
241,217,22893,2,0,B|281:279|260:346|260:346|210:385,1,180,2|0,0:2|0:0,0:0:0:0:
151,277,23295,5,8,0:2:0:0:
371,317,23429,1,0,0:0:0:0:
371,317,23563,1,2,0:2:0:0:
355,190,23696,1,0,0:0:0:0:
224,373,23830,1,8,0:0:0:0:
56,43,24098,5,2,0:2:0:0:
0,261,24232,1,0,0:0:0:0:
217,201,24366,1,8,0:0:0:0:
89,164,24500,5,0,1:3:0:0:
89,164,24567,1,0,1:3:0:0:
89,164,24634,1,8,1:0:0:0:
89,164,25705,5,8,1:2:0:0:
180,193,25839,2,2,P|246:180|313:174,1,135,6|0,1:2|0:0,0:1:0:0:
328,189,26107,6,0,B|262:246|178:231|138:163|138:163|43:176|10:274|67:341,1,450,6|0,1:1|2:2,0:1:0:0:
108,166,35348,6,0,B|115:129|107:101|92:112|55:55|89:18|136:38|113:85,1,180,2|0,0:0|0:0,0:0:0:0:
134,190,36420,6,0,B|154:158|157:129|139:133|126:67|171:45|207:81|168:116,1,180,2|0,0:0|0:0,0:0:0:0:
149,221,37491,6,0,B|179:199|193:173|175:171|187:104|238:101|258:148|208:166,1,180,2|0,0:0|0:0,0:0:0:0:
145,257,38295,5,2,0:0:0:0:
145,257,38429,2,0,P|138:304|158:351,1,90
220,378,38830,2,0,P|267:365|312:368,1,90
444,281,39366,2,0,P|399:282|356:270,1,90,0|2,0:0|0:0,0:0:0:0:
256,128,39902,5,0,0:0:0:0:
396,66,40170,1,0,0:0:0:0:
256,5,40438,1,0,0:0:0:0:
116,66,40705,2,0,P|76:69|-27:46,1,135,2|0,0:0|0:0,0:0:0:0:
58,156,41241,2,0,P|89:115|126:86,1,90
414,31,41777,6,0,P|378:26|315:3,1,90,6|0,1:2|0:0,0:0:0:0:
427,235,42179,2,0,P|472:213|528:198,1,90,6|0,1:2|0:0,0:0:0:0:
243,149,42580,2,2,B|238:174|223:196|223:196|170:203|152:254|152:254|70:263|47:202,1,270,6|8,1:1|0:0,0:1:0:0:
32,165,43049,1,8,0:0:0:0:
44,121,43116,1,8,0:0:0:0:
108,58,43250,5,8,0:0:0:0:
206,65,43384,5,8,0:3:0:0:
265,153,43518,5,8,0:3:0:0:
214,258,43652,5,4,0:3:0:0:
278,366,43786,5,4,0:3:0:0:
410,384,43920,6,0,P|461:370|520:364,1,90,6|0,1:2|0:0,0:0:0:0:
214,258,44321,2,0,P|163:244|104:238,1,90,6|0,1:2|0:0,0:0:0:0:
371,165,44723,2,0,B|418:143|471:164|471:164|515:141|505:94,1,180,6|0,1:0|0:0,0:0:0:0:
477,0,45125,1,12,0:2:0:0:
254,120,45393,5,0,1:0:0:0:
375,169,45527,1,12,1:2:0:0:
375,169,45661,1,0,1:3:0:0:
332,43,45795,1,8,1:0:0:0:
299,241,45929,1,8,1:0:0:0:
147,119,46063,6,0,B|107:110|107:110|35:150|54:237,2,180,4|10|0,0:2|0:2|0:0,0:0:0:0:
239,306,46732,2,0,P|314:326|388:252,1,180,2|0,0:2|0:0,0:0:0:0:
426,140,47134,6,0,P|464:139|528:169,1,90,2|0,0:2|0:0,0:0:0:0:
299,241,47402,2,0,P|279:208|273:137,1,90,8|0,0:0|0:0,0:0:0:0:
451,308,47670,1,2,0:2:0:0:
451,308,47804,1,0,0:0:0:0:
394,377,47938,1,8,0:0:0:0:
390,239,48071,5,0,0:0:0:0:
390,239,48138,1,0,0:0:0:0:
390,239,48205,1,10,0:1:0:0:
241,306,48339,2,0,L|152:321,1,90,2|0,0:2|0:0,0:0:0:0:
358,151,48607,5,2,0:1:0:0:
120,233,48741,2,0,L|209:218,1,90,2|0,0:2|0:0,0:0:0:0:
321,58,49009,5,2,0:0:0:0:
171,124,49143,2,0,L|83:140,1,90,2|0,0:2|0:0,0:0:0:0:
367,171,49411,6,0,B|416:232|489:204|489:204|510:167,1,180,6|0,0:1|0:0,0:0:0:0:
241,0,49813,2,0,B|163:11|149:87|149:87|172:125,2,180,6|8|4,0:1|0:0|0:1,0:0:0:0:
367,171,50616,5,10,0:2:0:0:
272,118,50750,1,0,0:0:0:0:
365,64,50884,1,0,0:0:0:0:
460,117,51018,2,0,P|470:178|421:288,2,180,2|0|0,0:2|0:0|0:0,0:0:0:0:
291,217,51688,2,0,P|284:305|325:384,1,180,8|0,0:0|0:0,0:0:0:0:
151,206,52089,5,2,0:2:0:0:
40,266,52223,1,8,0:0:0:0:
44,140,52357,1,0,0:0:0:0:
151,206,52491,2,0,B|235:239|235:239|307:179,2,180,6|8|0,0:2|0:0|0:0,0:0:0:0:
44,140,53161,5,0,0:2:0:0:
160,98,53295,2,0,P|179:50|172:-10,1,90,8|0,0:0|0:0,0:0:0:0:
24,154,53563,1,2,0:2:0:0:
137,226,53696,2,0,P|191:211|340:192,1,180,8|0,0:0|0:0,0:0:0:0:
512,205,54098,5,8,0:0:0:0:
330,84,54232,1,8,0:0:0:0:
443,26,54366,1,8,0:3:0:0:
411,262,54500,1,8,0:3:0:0:
240,233,54634,6,0,B|179:281|204:351|204:351|239:382,1,180,4|8,0:1|0:0,0:0:0:0:
330,247,55036,2,0,P|327:206|296:156,1,90
104,289,55304,2,0,P|99:334|112:377,1,90,0|8,0:0|0:0,0:0:0:0:
227,109,55571,1,6,0:2:0:0:
173,191,55839,5,0,0:0:0:0:
308,167,55973,1,8,0:0:0:0:
100,130,56241,5,2,0:2:0:0:
308,167,56375,1,0,0:0:0:0:
117,258,56509,1,8,0:0:0:0:
217,72,56643,1,0,0:0:0:0:
245,281,56777,2,0,B|287:346|368:333|368:333|417:285,1,180,6|8,0:2|0:0,0:0:0:0:
476,16,57313,5,2,0:2:0:0:
511,117,57446,1,0,0:0:0:0:
436,195,57580,1,8,0:0:0:0:
316,61,57714,6,0,P|286:154|326:257,1,180,6|0,0:2|0:0,0:0:0:0:
416,330,58116,2,0,P|463:318|524:316,1,90,12|0,0:2|0:0,0:0:0:0:
243,153,58384,5,8,0:0:0:0:
89,210,58518,1,8,0:0:0:0:
120,58,58652,1,8,0:3:0:0:
210,303,58786,1,8,0:3:0:0:
256,128,58920,5,4,0:3:0:0:
256,192,60259,6,0,L|104:183,1,135
14,266,60795,6,0,P|-21:202|40:92,1,198.000006042481,6|0,0:2|2:0,0:0:0:0:
168,28,61196,5,8,0:0:0:0:
168,28,61263,1,8,0:0:0:0:
168,28,61330,1,8,0:0:0:0:
121,184,61464,1,8,0:0:0:0:
264,62,61598,5,8,0:3:0:0:
277,287,61732,1,8,0:3:0:0:
363,27,61866,5,4,0:3:0:0:
450,293,62000,1,4,0:3:0:0:
512,141,62134,5,6,0:1:0:0:
256,192,62536,1,6,0:1:0:0:
0,243,62938,1,6,0:1:0:0:
251,171,63205,6,0,B|209:117|117:109|117:109|62:144,1,198.000006042481,4|10,0:1|0:2,0:0:0:0:
230,380,63741,1,2,0:2:0:0:
230,380,63875,2,0,L|121:365,1,99.0000030212403,0|8,0:2|0:0,0:0:0:0:
341,310,64143,2,0,P|448:308|523:393,1,198.000006042481,2|0,0:1|0:0,0:0:0:0:
399,212,64545,2,0,B|441:195|441:195|492:144|468:51,1,198.000006042481,10|0,0:2|0:0,0:0:0:0:
249,0,65080,5,10,0:0:0:0:
246,128,65214,2,0,P|255:174|288:235,1,99.0000030212403,2|0,0:2|0:0,0:0:0:0:
355,300,65482,1,2,0:2:0:0:
172,207,65616,2,0,P|65:205|-13:289,1,198.000006042481,10|0,0:0|0:0,0:0:0:0:
218,287,66018,5,2,0:2:0:0:
292,366,66152,1,8,0:0:0:0:
390,318,66286,1,0,0:0:0:0:
133,81,66554,5,2,0:2:0:0:
307,126,66688,1,8,0:0:0:0:
243,19,66821,1,0,0:0:0:0:
10,144,66955,5,2,0:2:0:0:
205,192,67089,1,0,0:0:0:0:
133,81,67223,2,0,P|104:176|86:274,1,198.000006042481,8|4,0:0|0:1,0:0:0:0:
478,384,67759,6,0,P|460:286|431:191,1,198.000006042481,10|0,0:2|0:0,0:0:0:0:
480,35,68161,2,0,P|518:78|498:133,1,99.0000030212403,2|8,0:2|0:0,0:0:0:0:
246,172,68429,2,0,B|214:216|243:267|243:267|303:254|314:207,1,198.000006042481,2|0,0:1|0:0,0:0:0:0:
193,4,68830,1,10,0:2:0:0:
452,166,69098,5,2,0:2:0:0:
400,88,69232,1,0,0:0:0:0:
359,173,69366,1,8,0:0:0:0:
342,11,69500,5,0,0:0:0:0:
342,11,69567,1,0,0:0:0:0:
342,11,69634,1,14,0:1:0:0:
235,140,69768,1,0,0:0:0:0:
400,88,69902,1,0,0:0:0:0:
224,55,70036,5,10,0:0:0:0:
197,220,70170,1,0,0:0:0:0:
313,93,70304,1,0,0:0:0:0:
140,152,70438,5,10,0:0:0:0:
201,307,70571,1,0,0:0:0:0:
235,140,70705,1,0,0:0:0:0:
119,278,70839,5,14,0:0:0:0:
250,383,70973,1,0,0:0:0:0:
197,220,71107,1,0,0:0:0:0:
409,356,71241,6,0,P|358:349|306:315,1,99.0000030212403,14|0,0:0|0:0,0:0:0:0:
195,60,71509,2,0,P|152:35|103:29,1,99.0000030212403,10|8,0:0|0:0,0:0:0:0:
352,192,71777,1,4,0:1:0:0:
352,192,72045,6,0,B|326:103|409:58|409:58|451:70,1,198.000006042481,10|0,0:2|0:0,0:0:0:0:
325,287,72446,2,0,P|374:290|418:268,1,99.0000030212403,2|8,0:2|0:0,0:0:0:0:
259,82,72714,2,0,B|148:44|167:128|65:79,1,198.000006042481,2|0,0:1|0:0,0:0:0:0:
0,18,73116,1,10,0:2:0:0:
262,197,73384,5,2,0:2:0:0:
113,256,73518,1,8,0:3:0:0:
219,374,73652,1,8,0:0:0:0:
366,314,73786,1,4,0:3:0:0:
244,177,73920,6,0,B|222:121|222:121|249:23|347:7,1,233.999989288331,14|0,0:0|0:0,0:0:0:0:
255,329,74321,2,0,B|217:376|217:376|119:401|56:324,1,233.999989288331,14|0,0:1|0:0,0:0:0:0:
307,115,74723,2,0,P|348:89|396:83,1,99.0000030212403,14|0,0:0|0:0,0:0:0:0:
512,166,74991,5,8,3:3:0:0:
443,0,75125,1,8,3:3:0:0:
480,192,75259,5,8,3:1:0:0:
353,0,75393,1,8,3:1:0:0:
459,225,75527,5,8,3:3:0:0:
269,31,75661,1,8,3:3:0:0:
457,264,75795,5,4,3:3:0:0:
213,100,75929,1,4,3:3:0:0:
110,286,76063,6,0,B|74:315|74:315|-9:302|0:220,2,180,6|0|8,1:2|0:0|0:0,0:0:0:0:
327,256,76732,2,0,B|335:335|252:348|252:348|216:319,1,180,2|0,0:0|1:0,0:0:0:0:
127,176,77134,2,0,P|140:96|205:9,1,180,2|0,0:0|1:0,0:0:0:0:
512,273,77670,5,10,0:2:0:0:
225,368,77938,1,0,1:0:0:0:
512,273,78205,2,0,P|529:197|491:80,2,180,2|0|8,1:2|0:0|0:0,0:0:0:0:
379,132,78875,1,2,0:2:0:0:
167,269,79143,5,0,1:0:0:0:
167,269,79277,2,0,P|119:284|64:284,1,90,2|0,0:0|0:0,0:0:0:0:
333,281,79545,2,0,P|348:329|348:384,1,90,0|0,1:0|0:0,0:0:0:0:
345,115,79813,2,0,P|393:100|448:100,1,90,8|0,0:0|0:0,0:0:0:0:
179,103,80080,2,0,P|164:55|164:0,1,90,8|0,0:0|0:0,0:0:0:0:
256,192,80348,5,6,1:1:0:0:
256,192,80750,1,6,1:1:0:0:
256,192,81152,1,6,1:1:0:0:
256,192,81219,12,0,82223,0:0:0:0:
92,326,82491,5,6,0:1:0:0:
256,192,82893,1,6,0:1:0:0:
420,326,83295,1,6,0:1:0:0:
256,96,83696,5,8,0:3:0:0:
256,288,83964,1,4,0:3:0:0:
256,192,84232,5,8,2:3:0:0:
256,192,84366,1,8,0:0:0:0:
86,118,84634,5,6,0:1:0:0:
256,192,85036,1,6,0:1:0:0:
426,118,85438,1,6,0:1:0:0:
256,192,85973,5,8,2:3:0:0:
256,88,86375,5,8,0:3:0:0:
256,296,86509,1,8,0:0:0:0:
56,172,86777,5,12,1:2:0:0:
7,227,86911,1,0,3:0:0:0:
5,300,87045,1,0,3:0:0:0:
138,215,87179,5,12,1:2:0:0:
113,284,87313,1,0,3:0:0:0:
138,352,87446,1,0,3:0:0:0:
229,223,87580,5,12,1:2:0:0:
232,296,87714,1,0,3:0:0:0:
280,350,87848,1,0,3:0:0:0:
316,196,87982,5,12,1:2:0:0:
346,262,88116,1,0,3:0:0:0:
410,294,88250,1,0,3:0:0:0:
385,137,88384,5,12,1:2:0:0:
438,187,88518,1,0,3:0:0:0:
509,193,88652,1,0,3:0:0:0:
256,0,88786,5,14,1:0:0:0:
