osu file format v14

[General]
AudioFilename: audio.mp3
AudioLeadIn: 0
PreviewTime: 63138
Countdown: 0
SampleSet: Normal
StackLeniency: 0.7
Mode: 0
LetterboxInBreaks: 0
WidescreenStoryboard: 1

[Editor]
Bookmarks: 63206
DistanceSpacing: 1.1
BeatDivisor: 4
GridSize: 32
TimelineZoom: 1.7

[Metadata]
Title:Answer
TitleUnicode:Answer
Artist:Sakakibara Yui
ArtistUnicode:榊原ゆい
Creator:Lasse
Version:Insane
Source:働くオタクの恋愛事情
Tags:Fujita Junpei 藤田淳平 Hataraku Otaku no Ren'ai Jijou renai eroge visual novel insert song cover short version G線上の魔王 G-senjou no Maou Akabei Soft3 akabeisoft japanese rock
BeatmapID:2890710
BeatmapSetID:1398169

[Difficulty]
HPDrainRate:5
CircleSize:4
OverallDifficulty:8
ApproachRate:9
SliderMultiplier:1.6
SliderTickRate:1

[Events]
//Background and Video events
0,0,"x3.jpg",0,0
//Break Periods
2,26976,34748
//Storyboard Layer 0 (Background)
//Storyboard Layer 1 (Fail)
//Storyboard Layer 2 (Pass)
//Storyboard Layer 3 (Foreground)
//Storyboard Layer 4 (Overlay)
//Storyboard Sound Samples

[TimingPoints]
1063,267.857142857143,4,2,1,40,1,0
1063,-133.333333333333,4,2,1,40,0,0
7491,-100,4,2,1,50,0,0
8563,-100,4,2,1,55,0,0
9634,-100,4,1,1,60,0,0
15929,-83.3333333333333,4,1,1,60,0,0
16464,-83.3333333333333,4,1,2,60,0,0
16732,-83.3333333333333,4,1,1,60,0,0
17268,-83.3333333333333,4,1,2,60,0,0
17536,-83.3333333333333,4,1,1,60,0,0
18205,-100,4,1,1,60,0,0
24500,-100,4,1,1,60,0,0
24768,-99.9999999999994,4,2,1,60,0,0
26040,-99.9999999999994,4,2,1,5,0,0
26107,-99.9999999999994,4,2,1,60,0,0
26777,-99.9999999999994,4,2,99,40,0,0
35348,-199.999999999999,4,2,1,30,0,0
39634,-166.666666666666,4,2,1,30,0,0
41777,-100.000000000001,4,2,1,55,0,0
46063,-100.000000000001,4,1,1,55,0,0
49411,-100.000000000001,4,1,2,55,0,0
50080,-100.000000000001,4,1,1,55,0,0
60259,-200,4,2,1,30,0,0
60527,-200,4,2,1,5,0,0
60661,-200,4,2,1,20,0,0
60794,-90.9090909090909,4,1,1,60,0,0
61063,-90.9090909090909,4,2,1,55,0,0
61196,-90.9090909090909,4,2,1,60,0,0
62134,-90.9090909090909,4,1,2,60,0,0
63205,-90.9090909090909,4,1,1,65,0,0
69634,-83.3333333333333,4,1,2,65,0,0
71777,-90.9090909090909,4,1,1,65,0,0
73920,-76.9230769230769,4,1,1,65,0,0
74321,-76.9230769230769,4,1,2,65,0,0
74723,-90.9090909090909,4,1,2,65,0,0
74991,-90.9090909090909,4,1,1,65,0,0
76063,-100,4,2,1,60,0,0
76330,-100,4,2,1,50,0,0
80348,-100,4,1,2,60,0,0
81152,-100,4,1,1,55,0,0
82491,-100,4,1,2,60,0,0
83295,-100,4,1,1,60,0,0
83696,-133.333333333333,4,2,1,50,0,0
84634,-100,4,1,2,60,0,0
85438,-100,4,1,1,60,0,0
85973,-133.333333333333,4,2,1,60,0,0
86777,-111.111111111111,4,2,1,50,0,0
88786,-100,4,2,1,60,0,0

[Colours]
Combo1 : 250,180,240
Combo2 : 120,200,230
Combo3 : 255,230,130
Combo4 : 160,230,150

[HitObjects]
255,25,1063,6,0,P|267:78|274:150,1,120.000004577637,2|0,0:0|0:0,0:0:0:0:
188,261,1598,2,0,P|130:249|56:241,1,120.000004577637,0|0,3:0|0:0,0:0:0:0:
13,189,2000,1,0,0:0:0:0:
70,321,2268,1,0,0:0:0:0:
199,256,2536,1,0,0:0:0:0:
199,256,2670,2,0,P|206:209|234:139,1,120.000004577637,0|0,3:0|0:0,0:0:0:0:
356,214,3205,6,0,P|407:210|475:186,1,120.000004577637,2|0,0:0|0:0,0:0:0:0:
511,119,3607,1,0,0:0:0:0:
463,57,3741,2,0,P|406:36|347:30,1,120.000004577637,0|0,3:0|0:0,0:0:0:0:
278,67,4143,1,0,0:0:0:0:
144,13,4411,1,0,0:0:0:0:
90,147,4679,1,0,0:0:0:0:
158,184,4813,2,0,P|223:171|283:166,1,120.000004577637,0|0,3:0|0:0,0:0:0:0:
431,215,5348,6,0,L|446:283,1,60.0000022888184,2|0,0:0|0:0,0:0:0:0:
379,318,5616,2,0,L|391:376,1,60.0000022888184
302,303,5884,2,0,P|255:291|169:301,1,120.000004577637,0|0,3:0|0:0,0:0:0:0:
108,316,6286,1,0,0:0:0:0:
0,220,6554,1,0,0:0:0:0:
137,174,6821,1,0,0:0:0:0:
75,126,6955,2,0,P|65:93|91:11,1,120.000004577637,0|0,3:0|0:0,0:0:0:0:
270,126,7491,6,0,B|347:192|443:137|443:137|446:144|446:144|444:68|511:37,2,320,2|0|12,0:2|3:0|2:2,0:0:0:0:
93,16,8830,5,8,0:0:0:0:
43,78,8964,1,8,0:0:0:0:
108,124,9098,2,0,P|149:120|191:106,1,80,8|8,1:3|0:0,0:0:0:0:
255,24,9366,2,0,P|296:28|338:42,1,80,4|4,0:3|0:3,0:0:0:0:
434,123,9634,6,0,P|473:114|512:109,1,80,6|0,0:1|0:0,0:0:0:0:
411,224,9902,1,8,0:0:0:0:
336,152,10036,2,0,P|272:119|180:108,1,160,2|0,0:0|0:0,0:0:0:0:
120,61,10438,1,8,0:0:0:0:
23,163,10571,6,0,P|23:190|38:241,1,80,2|0,0:2|0:0,0:0:0:0:
187,208,10839,2,0,P|176:232|141:273,1,80,0|8,0:2|0:0,0:0:0:0:
335,188,11107,2,0,P|352:223|380:252,1,80,0|0,0:2|0:0,0:0:0:0:
497,142,11375,2,0,P|495:181|482:219,2,80,0|8|0,0:2|0:2|0:0,0:0:0:0:
407,44,11777,5,2,0:1:0:0:
326,80,11911,1,0,0:0:0:0:
245,45,12045,1,8,0:0:0:0:
183,108,12179,2,0,P|173:177|214:276,1,160,2|0,0:0|0:0,0:0:0:0:
164,328,12580,1,8,0:0:0:0:
268,356,12714,6,0,P|312:346|371:341,1,80,2|0,0:2|0:0,0:0:0:0:
202,260,12982,2,0,P|158:250|99:245,1,80,0|8,0:0|0:0,0:0:0:0:
296,178,13250,2,0,P|340:168|399:163,1,80,0|0,0:0|0:0,0:0:0:0:
223,73,13518,1,0,0:0:0:0:
223,73,13585,1,0,0:0:0:0:
223,73,13652,2,0,P|179:63|120:58,1,80,8|0,0:0|0:0,0:0:0:0:
301,194,13920,6,0,P|380:191|446:148,1,160,6|8,0:2|0:0,0:0:0:0:
446,148,14455,1,0,0:0:0:0:
421,224,14589,1,0,0:0:0:0:
460,293,14723,1,8,0:0:0:0:
408,354,14857,6,0,P|331:335|234:318,1,160,2|0,0:2|0:0,0:0:0:0:
156,263,15259,2,0,P|78:282|0:296,1,160,8|0,0:0|0:0,0:0:0:0:
0,204,15661,2,0,P|14:156|34:101,1,80,0|8,0:0|0:0,0:0:0:0:
133,76,15929,5,0,0:0:0:0:
133,76,15996,1,0,0:0:0:0:
133,76,16063,2,0,B|244:73|185:8|303:1,1,191.999994140625,14|0,0:0|0:2,0:0:0:0:
453,162,16464,2,0,B|342:159|401:94|283:87,1,191.999994140625,14|0,0:1|0:2,0:0:0:0:
124,245,16866,2,0,B|235:242|176:177|294:170,1,191.999994140625,14|0,0:1|0:2,0:0:0:0:
444,331,17268,2,0,B|333:328|392:263|274:256,1,191.999994140625,14|0,0:1|0:0,0:0:0:0:
436,202,17670,5,14,0:2:0:0:
486,131,17804,1,0,0:0:0:0:
448,53,17938,1,8,0:0:0:0:
263,176,18205,6,0,L|275:255,1,80,6|0,0:1|0:0,0:0:0:0:
290,343,18473,1,8,0:0:0:0:
185,266,18607,2,0,P|110:256|45:340,1,160,2|0,0:0|0:0,0:0:0:0:
51,309,19009,1,8,0:0:0:0:
102,223,19143,6,0,P|98:188|83:140,1,80,2|0,0:2|0:0,0:0:0:0:
206,29,19411,2,0,P|188:59|172:107,1,80,0|8,0:0|0:0,0:0:0:0:
310,197,19679,2,0,P|297:164|270:121,1,80,0|0,0:0|0:0,0:0:0:0:
401,9,19946,1,0,0:0:0:0:
401,9,20013,1,0,0:0:0:0:
401,9,20080,2,0,P|376:34|348:75,1,80,8|0,0:0|0:0,0:0:0:0:
426,154,20348,5,2,0:0:0:0:
505,192,20482,1,0,0:0:0:0:
510,279,20616,1,8,0:0:0:0:
449,342,20750,2,0,B|398:365|340:338|340:338|334:319|306:279,1,160,2|0,0:0|0:0,0:0:0:0:
256,248,21152,1,8,0:0:0:0:
353,185,21286,6,0,P|387:166|426:153,1,80,2|0,0:2|0:0,0:0:0:0:
207,158,21554,2,0,P|186:124|159:94,1,80,0|8,0:0|0:0,0:0:0:0:
389,77,21821,2,0,P|415:46|446:21,1,80,0|0,0:0|0:0,0:0:0:0:
289,54,22089,5,2,0:2:0:0:
216,12,22223,1,8,0:0:0:0:
132,11,22357,1,0,0:0:0:0:
52,59,22491,6,0,B|11:103|22:175|22:175|74:218,1,160,6|8,0:1|0:0,0:0:0:0:
207,158,22893,2,0,B|248:202|237:274|237:274|185:317,1,160,2|0,0:2|0:0,0:0:0:0:
91,353,23295,2,0,P|53:346|2:342,1,80,8|0,0:2|0:0,0:0:0:0:
209,296,23563,2,0,P|247:289|298:285,1,80,2|0,0:2|0:0,0:0:0:0:
87,213,23830,2,0,P|49:199|13:182,1,80,8|0,0:0|0:0,0:0:0:0:
193,117,24098,5,2,0:2:0:0:
114,61,24232,1,0,0:0:0:0:
201,22,24366,1,8,0:0:0:0:
280,78,24500,1,0,1:3:0:0:
280,78,24567,1,0,1:3:0:0:
280,78,24634,1,8,1:0:0:0:
280,78,25705,5,8,1:2:0:0:
343,122,25839,2,2,P|408:109|468:105,1,120,6|0,1:2|0:0,0:1:0:0:
475,119,26107,6,0,B|461:166|408:184|359:181|322:149|322:149|322:194|366:234|365:211|432:258|387:349|329:302|344:259|367:253,1,400,6|0,1:1|2:2,0:0:0:0:
26,200,35348,6,0,B|10:174|37:140|93:124|74:49,1,160,2|0,0:0|0:0,0:0:0:0:
102,221,36420,6,0,B|94:192|128:166|186:165|187:88,1,160,2|0,0:0|0:0,0:0:0:0:
169,260,37491,6,0,B|168:230|208:214|264:228|286:154,1,160,2|0,0:0|0:0,0:0:0:0:
223,315,38563,6,0,B|230:286|273:281|323:309|363:243,1,160,2|0,0:0|0:0,0:0:0:0:
345,64,39634,6,0,B|396:78|429:71|416:24|538:71|467:134|427:109|438:77,1,191.999994140625,2|0,0:0|0:0,0:0:0:0:
437,79,40705,6,0,B|395:55|316:109|362:214|405:195|470:212|431:311,1,287.999991210938,2|0,0:0|0:0,0:0:0:0:
303,384,41777,6,0,P|294:342|273:278,1,80,6|0,1:2|0:0,0:0:0:0:
144,185,42179,2,0,P|132:223|124:262,1,80,6|0,1:2|0:0,0:0:0:0:
366,176,42580,2,2,B|415:196|415:196|474:159|480:80|432:34,1,240,6|8,1:1|0:0,0:1:0:0:
416,27,43049,1,8,0:0:0:0:
395,27,43116,2,0,L|302:40,1,80,8|8,0:0|0:0,0:0:0:0:
209,1,43384,5,8,0:3:0:0:
234,85,43518,1,8,0:3:0:0:
204,167,43652,1,4,0:3:0:0:
245,244,43786,1,4,0:3:0:0:
169,302,43920,6,0,P|117:290|59:287,1,80,6|0,1:2|0:0,0:0:0:0:
319,376,44321,2,0,P|371:364|429:361,1,80,6|0,1:2|0:0,0:0:0:0:
151,278,44723,2,0,B|111:257|66:275|66:275|17:264|14:213,1,160,6|0,1:0|0:0,0:0:0:0:
136,178,45125,2,0,B|110:153|110:153|104:69|183:28,1,160,12|0,0:2|1:0,0:0:0:0:
278,0,45527,5,12,1:2:0:0:
278,0,45661,1,0,1:3:0:0:
252,121,45795,1,8,1:0:0:0:
360,81,45929,1,8,1:0:0:0:
447,153,46063,6,0,P|479:225|447:319,2,160,4|10|0,0:2|0:2|0:0,0:0:0:0:
365,278,46732,2,0,B|335:300|335:300|268:304|224:257,1,160,2|0,0:2|0:0,0:0:0:0:
153,347,47134,2,0,P|113:349|74:360,1,80,2|0,0:2|0:0,0:0:0:0:
204,261,47402,2,0,P|181:214|178:157,1,80,8|0,0:0|0:0,0:0:0:0:
104,99,47670,2,0,P|125:32|223:4,1,160,2|8,0:2|0:0,0:0:0:0:
292,75,48071,5,0,0:0:0:0:
292,75,48138,1,0,0:0:0:0:
292,75,48205,1,10,0:1:0:0:
187,105,48339,2,0,P|152:113|107:113,1,80,2|0,0:2|0:0,0:0:0:0:
198,195,48607,5,2,0:1:0:0:
100,128,48741,2,0,P|57:116|11:113,1,80,2|0,0:2|0:0,0:0:0:0:
189,209,49009,5,2,0:0:0:0:
96,270,49143,2,0,P|57:279|17:278,1,80,2|0,0:2|0:0,0:0:0:0:
209,384,49411,6,0,P|227:304|283:224,1,160,6|0,0:1|0:0,0:0:0:0:
391,160,49813,2,0,B|426:227|496:211|496:211|519:172,2,160,6|8|4,0:1|0:0|0:1,0:0:0:0:
219,23,50616,6,0,P|177:24|137:33,1,80,10|0,0:2|0:0,0:0:0:0:
67,82,50884,1,0,0:0:0:0:
176,131,51018,2,0,P|243:125|330:65,2,160,2|0|0,0:2|0:0|0:0,0:0:0:0:
76,208,51688,2,0,P|57:284|88:373,1,160,8|0,0:0|0:0,0:0:0:0:
79,360,52089,1,2,0:2:0:0:
168,294,52223,6,0,P|209:283|252:280,1,80,8|0,0:0|0:0,0:0:0:0:
383,334,52491,2,0,B|408:381|491:373|491:373|525:325,2,160,6|8|0,0:2|0:0|0:0,0:0:0:0:
331,261,53161,1,0,0:2:0:0:
390,196,53295,1,8,0:0:0:0:
271,38,53563,5,2,0:2:0:0:
271,38,53696,2,0,P|241:83|125:54,1,160,8|0,0:0|0:0,0:0:0:0:
78,19,54098,1,8,0:0:0:0:
3,66,54232,1,8,0:0:0:0:
69,125,54366,1,8,0:3:0:0:
144,78,54500,1,8,0:3:0:0:
62,136,54634,6,0,B|16:189|37:254|37:254|62:275,1,160,4|8,0:1|0:0,0:0:0:0:
143,357,55036,2,0,P|187:346|244:337,1,80,0|0,0:0|0:0,0:0:0:0:
342,304,55304,2,0,P|381:311|420:321,1,80,0|8,0:0|0:0,0:0:0:0:
482,230,55571,2,0,B|507:208|507:208|528:143|482:90,1,160,6|0,0:2|0:0,0:0:0:0:
421,39,55973,1,8,0:0:0:0:
240,113,56241,5,2,0:2:0:0:
240,113,56375,1,0,0:0:0:0:
306,189,56509,1,8,0:0:0:0:
306,189,56643,1,0,0:0:0:0:
210,202,56777,2,0,P|150:192|32:176,2,160,6|8|2,0:2|0:0|0:2,0:0:0:0:
328,270,57446,5,0,0:0:0:0:
221,325,57580,1,8,0:0:0:0:
351,379,57714,2,0,P|425:362|451:289,1,160,6|0,0:2|0:0,0:0:0:0:
411,181,58116,2,0,P|459:172|512:167,1,80,12|0,0:2|0:0,0:0:0:0:
360,76,58384,5,8,0:0:0:0:
285,136,58518,1,8,0:0:0:0:
205,82,58652,1,8,0:3:0:0:
280,22,58786,1,8,0:3:0:0:
288,152,58920,5,4,0:3:0:0:
478,264,60795,6,0,B|321:239|412:159|241:141,1,264.000008056641,6|8,0:2|2:2,0:0:0:0:
252,149,61263,1,8,2:0:0:0:
248,156,61330,2,0,P|198:178|161:179,1,88.000002685547,8|8,0:0|0:0,0:0:0:0:
72,180,61598,1,8,0:3:0:0:
43,93,61732,1,8,0:3:0:0:
116,39,61866,1,4,0:3:0:0:
191,93,62000,1,4,0:3:0:0:
165,179,62134,5,6,0:1:0:0:
418,37,62536,1,6,0:1:0:0:
414,327,62938,1,6,0:1:0:0:
317,167,63205,6,0,B|305:146|289:134|289:134|290:106|290:106|268:56|282:-8,1,176.000005371094,4|10,0:1|0:2,0:0:0:0:
150,224,63741,1,2,0:2:0:0:
150,224,63875,2,0,P|184:213|243:208,1,88.000002685547,0|8,0:2|0:0,0:0:0:0:
358,281,64143,2,0,B|391:319|459:315|459:315|477:284|523:271,1,176.000005371094,2|0,0:1|0:0,0:0:0:0:
410,167,64545,2,0,P|435:109|380:-13,1,176.000005371094,10|0,0:2|0:0,0:0:0:0:
173,89,65080,5,10,0:0:0:0:
83,126,65214,2,0,P|41:128|-9:99,1,88.000002685547,2|0,0:2|0:0,0:0:0:0:
173,89,65482,1,2,0:2:0:0:
221,172,65616,2,0,B|252:254|236:310|236:310|176:351,1,176.000005371094,10|0,0:0|0:0,0:0:0:0:
98,384,66018,5,2,0:2:0:0:
53,297,66152,1,8,0:0:0:0:
99,212,66286,1,0,0:0:0:0:
292,284,66554,5,2,0:2:0:0:
369,342,66688,2,0,P|416:342|459:325,1,88.000002685547,8|0,0:0|0:0,0:0:0:0:
313,188,66955,2,0,P|271:173|227:173,1,88.000002685547,2|0,0:2|0:0,0:0:0:0:
461,306,67223,2,0,B|492:282|492:282|508:196|455:158,1,176.000005371094,8|4,0:0|0:1,0:0:0:0:
139,26,67759,6,0,B|86:64|102:149|102:149|133:173,1,176.000005371094,10|0,0:2|0:0,0:0:0:0:
273,76,68161,2,0,P|318:64|363:69,1,88.000002685547,2|8,0:2|0:0,0:0:0:0:
455,158,68429,2,0,P|521:174|486:97,1,176.000005371094,2|0,0:1|0:0,0:0:0:0:
303,163,68830,2,0,P|282:201|274:262,1,88.000002685547,10|0,0:2|0:0,0:0:0:0:
348,362,69098,2,0,P|427:333|528:327,1,176.000005371094,2|8,0:2|0:0,0:0:0:0:
389,236,69500,5,0,0:0:0:0:
389,236,69567,1,0,0:0:0:0:
389,236,69634,1,14,0:1:0:0:
451,168,69768,2,0,P|464:111|459:69,1,95.9999970703126,0|0,0:0|0:0,0:0:0:0:
389,236,70036,5,10,0:0:0:0:
376,129,70170,2,0,P|358:73|333:39,1,95.9999970703126,0|0,0:0|0:0,0:0:0:0:
389,236,70438,5,10,0:0:0:0:
293,137,70571,2,0,P|250:97|211:80,1,95.9999970703126,0|0,0:0|0:0,0:0:0:0:
389,236,70839,5,14,0:0:0:0:
234,192,70973,2,0,P|177:179|135:183,1,95.9999970703126,0|0,0:0|0:0,0:0:0:0:
324,318,71241,6,0,B|413:352|413:352|490:286,2,191.999994140625,14|10|4,0:0|0:0|0:1,0:0:0:0:
152,157,72045,6,0,P|157:73|86:28,1,176.000005371094,10|0,0:2|0:0,0:0:0:0:
0,145,72446,2,0,P|-4:190|13:232,1,88.000002685547,2|8,0:2|0:0,0:0:0:0:
130,324,72714,2,0,P|218:293|312:297,1,176.000005371094,2|0,0:1|0:0,0:0:0:0:
414,384,73116,1,10,0:2:0:0:
509,183,73384,5,2,0:2:0:0:
432,242,73518,1,8,0:3:0:0:
451,100,73652,1,8,0:0:0:0:
374,159,73786,1,4,0:3:0:0:
331,26,73920,6,0,B|294:7|294:7|194:22|202:124,1,207.999990478516,14|0,0:0|0:0,0:0:0:0:
307,221,74321,2,0,P|402:200|521:213,1,207.999990478516,14|0,0:1|0:0,0:0:0:0:
397,384,74723,2,0,P|379:330|343:287,1,88.000002685547,14|0,0:0|0:0,0:0:0:0:
209,262,74991,6,0,B|172:295|172:295|107:299|58:250,1,176.000005371094,8|8,3:3|3:1,0:0:0:0:
3,169,75393,1,8,3:1:0:0:
64,94,75527,2,0,P|103:75|147:76,1,88.000002685547,8|8,3:3|3:3,0:0:0:0:
235,177,75795,2,0,P|274:195|318:194,1,88.000002685547,4|4,3:3|3:3,0:0:0:0:
424,114,76063,6,0,B|467:101|467:101|524:135|508:198,2,160,6|0|8,1:2|0:0|0:0,0:0:0:0:
345,181,76732,2,0,B|360:243|303:277|303:277|260:265,1,160,2|0,0:0|1:0,0:0:0:0:
197,181,77134,2,0,B|212:118|155:84|155:84|112:96,1,160,2|0,0:0|1:0,0:0:0:0:
5,257,77670,5,10,0:2:0:0:
159,371,77938,1,0,1:0:0:0:
334,248,78205,2,0,P|441:235|510:260,2,160,2|0|8,1:2|0:0|0:0,0:0:0:0:
256,192,78875,1,2,0:2:0:0:
432,147,79143,5,0,1:0:0:0:
432,147,79277,2,0,P|457:115|478:64,1,80,2|0,0:0|0:0,0:0:0:0:
378,65,79545,2,0,P|355:31|313:-4,1,80,0|0,1:0|0:0,0:0:0:0:
283,91,79813,2,0,P|243:102|196:131,1,80,8|0,0:0|0:0,0:0:0:0:
278,189,80080,2,0,P|276:229|289:283,1,80,8|0,0:0|0:0,0:0:0:0:
375,301,80348,5,6,1:1:0:0:
121,375,80750,1,6,1:1:0:0:
183,119,81152,1,6,1:1:0:0:
256,192,81219,12,0,82223,0:0:0:0:
433,82,82491,5,6,0:1:0:0:
290,275,82893,1,6,0:1:0:0:
194,54,83295,1,6,0:1:0:0:
39,138,83696,6,0,P|16:188|35:276,1,120.000004577637,8|4,0:3|0:3,0:0:0:0:
95,331,84232,2,0,P|129:321|165:315,1,60.0000022888184,8|8,2:3|0:0,0:0:0:0:
256,352,84634,5,6,0:1:0:0:
107,163,85036,1,6,0:1:0:0:
345,128,85438,1,6,0:1:0:0:
179,15,85973,5,8,2:3:0:0:
345,128,86375,2,0,L|420:120,1,60.0000022888184,8|8,0:3|0:0,0:0:0:0:
183,19,86777,5,12,1:2:0:0:
183,19,86911,2,0,L|254:26,1,71.9999978027344,0|0,3:0|3:0,0:0:0:0:
32,95,87179,5,12,1:2:0:0:
32,95,87313,2,0,L|103:88,1,71.9999978027344,0|0,3:0|3:0,0:0:0:0:
194,150,87580,5,12,1:2:0:0:
194,150,87714,2,0,L|265:157,1,71.9999978027344,0|0,3:0|3:0,0:0:0:0:
37,228,87982,5,12,1:2:0:0:
37,228,88116,2,0,L|108:221,1,71.9999978027344,0|0,3:0|3:0,0:0:0:0:
207,289,88384,5,12,1:2:0:0:
282,313,88518,1,0,3:0:0:0:
224,366,88652,1,0,3:0:0:0:
265,236,88786,5,14,1:0:0:0:
