osu file format v14

[General]
AudioFilename: audio.mp3
AudioLeadIn: 0
PreviewTime: 63138
Countdown: 0
SampleSet: Normal
StackLeniency: 0.7
Mode: 0
LetterboxInBreaks: 0
WidescreenStoryboard: 1

[Editor]
Bookmarks: 63206
DistanceSpacing: 1.6
BeatDivisor: 4
GridSize: 32
TimelineZoom: 2.3

[Metadata]
Title:Answer
TitleUnicode:Answer
Artist:Sakakibara Yui
ArtistUnicode:榊原ゆい
Creator:Lasse
Version:Extra
Source:働くオタクの恋愛事情
Tags:Fujita Junpei 藤田淳平 Hataraku Otaku no Ren'ai Jijou renai eroge visual novel insert song cover short version G線上の魔王 G-senjou no Maou Akabei Soft3 akabeisoft japanese rock
BeatmapID:2893147
BeatmapSetID:1398169

[Difficulty]
HPDrainRate:5.6
CircleSize:4.6
OverallDifficulty:8.6
ApproachRate:9.2
SliderMultiplier:1.7
SliderTickRate:1

[Events]
//Background and Video events
0,0,"x2.jpg",0,0
//Break Periods
2,26976,34778
//Storyboard Layer 0 (Background)
//Storyboard Layer 1 (Fail)
//Storyboard Layer 2 (Pass)
//Storyboard Layer 3 (Foreground)
//Storyboard Layer 4 (Overlay)
//Storyboard Sound Samples

[TimingPoints]
1063,267.857142857143,4,2,1,40,1,0
1063,-133.333333333333,4,2,1,40,0,0
7491,-100,4,2,1,50,0,0
8563,-100,4,2,1,55,0,0
9634,-100,4,1,1,60,0,0
16464,-100,4,1,2,60,0,0
16732,-100,4,1,1,60,0,0
17268,-100,4,1,2,60,0,0
17536,-100,4,1,1,60,0,0
24500,-66.6666666666666,4,1,1,60,0,0
24768,-99.9999999999994,4,2,1,60,0,0
26040,-99.9999999999994,4,2,1,5,0,0
26107,-99.9999999999994,4,2,1,60,0,0
26777,-99.9999999999994,4,2,99,40,0,0
35348,-222.222222222222,4,2,1,30,0,0
36420,-199.999999999999,4,2,1,30,0,0
37491,-181.818181818182,4,2,1,30,0,0
38429,-166.666666666667,4,2,1,30,0,0
41777,-100.000000000001,4,2,1,55,0,0
46063,-100.000000000001,4,1,1,55,0,0
49411,-90.9090909090917,4,1,2,55,0,0
50080,-100,4,1,1,55,0,0
60259,-200,4,2,1,30,0,0
60527,-200,4,2,1,5,0,0
60661,-200,4,2,1,20,0,0
60794,-90.9090909090909,4,1,1,60,0,0
61063,-90.9090909090909,4,2,1,55,0,0
61196,-90.9090909090909,4,2,1,60,0,0
62134,-90.9090909090909,4,1,2,60,0,0
63205,-90.9090909090909,4,1,1,65,0,0
63406,-90.9090909090909,4,1,1,40,0,0
63473,-90.9090909090909,4,1,1,65,0,0
69634,-90.9090909090909,4,1,2,65,0,0
71241,-80,4,1,2,65,0,0
71777,-90.9090909090909,4,1,1,65,0,0
73920,-76.9230769230769,4,1,1,65,0,0
74321,-76.9230769230769,4,1,2,65,0,0
74723,-90.9090909090909,4,1,2,65,0,0
74991,-90.9090909090909,4,1,1,65,0,0
76063,-100,4,2,1,60,0,0
76330,-100,4,2,1,50,0,0
80348,-100,4,1,2,60,0,0
81152,-100,4,1,1,55,0,0
82491,-100,4,1,2,60,0,0
83295,-100,4,1,1,60,0,0
83696,-100,4,2,1,50,0,0
84634,-100,4,1,2,60,0,0
85438,-100,4,1,1,60,0,0
85973,-100,4,2,1,60,0,0
86777,-100,4,2,1,50,0,0
88786,-100,4,2,1,60,0,0

[Colours]
Combo1 : 250,180,240
Combo2 : 120,200,230
Combo3 : 255,230,130
Combo4 : 160,230,150

[HitObjects]
141,60,1063,6,0,B|129:67|129:67|-8:50,1,127.500004863739,2|0,0:0|0:0,0:0:0:0:
112,154,1598,2,0,B|96:213|147:245|147:245|176:229,1,127.500004863739,0|0,3:0|0:0,0:0:0:0:
221,171,2000,1,0,0:0:0:0:
261,344,2268,1,0,0:0:0:0:
392,225,2536,1,0,0:0:0:0:
448,294,2670,2,0,P|479:299|509:289,1,63.7500024318696,0|0,3:0|0:0,0:0:0:0:
392,225,2938,2,0,P|360:219|330:229,1,63.7500024318696
220,152,3205,6,0,B|201:114|209:74|209:74|230:61|242:24,1,127.500004863739,2|0,0:0|0:0,0:0:0:0:
167,11,3607,1,0,0:0:0:0:
252,48,3741,2,0,P|285:47|330:30,1,63.7500024318696,0|0,3:0|0:0,0:0:0:0:
416,0,4009,1,0,0:0:0:0:
480,46,4143,2,0,P|450:100|401:69,2,127.500004863739
341,23,4813,2,0,P|310:16|261:8,1,63.7500024318696,0|0,3:0|0:0,0:0:0:0:
205,41,5080,1,0,0:0:0:0:
205,41,5214,1,0,0:0:0:0:
290,101,5348,6,0,B|341:144|322:193|322:193|314:197|306:208,1,127.500004863739,2|0,0:0|0:0,0:0:0:0:
278,276,5750,1,0,0:0:0:0:
243,165,5884,2,0,P|206:149|110:143,1,127.500004863739,0|0,3:0|0:0,0:0:0:0:
61,96,6286,1,0,0:0:0:0:
17,269,6554,1,0,0:0:0:0:
191,235,6821,1,0,0:0:0:0:
248,292,6955,6,0,P|249:320|234:359,1,63.7500024318696,0|0,3:0|0:0,0:0:0:0:
191,235,7223,2,0,P|190:207|205:168,1,63.7500024318696
297,116,7491,2,0,B|316:134|342:133|342:133|363:79|433:83|433:83|448:118|496:117|496:117|503:91|524:75|524:75|513:46|524:0,2,340,2|0|12,0:2|3:0|2:2,0:2:0:0:
107,0,8830,5,8,0:0:0:0:
66,74,8964,1,8,0:0:0:0:
127,132,9098,2,0,P|175:115|216:107,1,85,8|8,1:3|0:0,0:0:0:0:
255,209,9366,2,4,P|294:223|336:232,1,85,4|4,0:3|0:3,0:0:0:0:
492,201,9634,5,6,0:1:0:0:
426,147,9768,1,0,0:0:0:0:
460,69,9902,1,8,0:0:0:0:
508,202,10036,2,0,B|529:275|469:309|469:309|455:290|428:280,1,170,2|0,0:0|0:0,0:0:0:0:
362,251,10438,1,8,0:0:0:0:
403,358,10571,6,0,B|392:364|392:364|303:339,1,85,2|0,0:2|0:0,0:0:0:0:
193,255,10839,2,0,B|182:249|182:249|112:268,1,85,0|8,0:2|0:0,0:0:0:0:
333,157,11107,2,0,B|322:163|322:163|233:138,1,85,0|0,0:2|0:0,0:0:0:0:
127,54,11375,2,0,B|116:48|116:48|46:67,2,85,0|8|0,0:2|0:2|0:0,0:0:0:0:
240,132,11777,5,2,0:1:0:0:
287,61,11911,1,0,0:0:0:0:
371,45,12045,1,8,0:0:0:0:
442,94,12179,2,0,B|478:121|478:121|510:103|513:65|513:65|493:38|500:10,1,170,2|0,0:0|0:0,0:0:0:0:
499,12,12580,1,8,0:0:0:0:
473,164,12714,6,0,B|481:192|481:192|480:197|480:197|486:204|486:204|500:255,1,85,2|0,0:2|0:0,0:0:0:0:
321,136,12982,2,0,B|329:164|329:164|328:169|328:169|334:176|334:176|348:227,1,85,0|8,0:0|0:0,0:0:0:0:
240,303,13250,2,0,B|248:331|248:331|247:336|247:336|253:343|253:343|267:394,1,85
84,260,13518,1,0,0:0:0:0:
84,260,13585,1,0,0:0:0:0:
84,260,13652,2,0,B|92:288|92:288|91:293|91:293|97:300|97:300|111:351,1,85,8|0,0:0|0:0,0:0:0:0:
204,179,13920,6,0,B|206:142|206:142|147:91|168:10,1,170,6|8,0:2|0:0,0:1:0:0:
431,147,14455,1,0,0:0:0:0:
505,105,14589,1,0,0:0:0:0:
464,30,14723,1,8,0:0:0:0:
419,156,14857,2,0,B|400:224|459:275|459:275|452:312,1,170,2|0,0:2|0:0,0:0:0:0:
314,384,15259,2,0,B|305:357|305:357|306:353|306:353|302:344|302:344|284:283,1,85,8|0,0:0|0:0,0:0:0:0:
256,192,15527,1,0,0:0:0:0:
256,192,15661,1,0,0:0:0:0:
171,302,15795,1,8,0:0:0:0:
144,151,15929,5,0,0:0:0:0:
144,151,15996,1,0,0:0:0:0:
144,151,16063,1,14,0:0:0:0:
58,82,16330,5,0,0:2:0:0:
78,233,16464,1,14,0:1:0:0:
124,0,16732,5,0,0:2:0:0:
144,151,16866,1,14,0:1:0:0:
225,88,17134,5,0,0:2:0:0:
245,239,17268,1,14,0:1:0:0:
291,6,17536,5,0,0:0:0:0:
311,157,17670,1,14,0:2:0:0:
376,75,17804,1,0,0:0:0:0:
225,87,17938,1,8,0:0:0:0:
423,241,18205,6,0,B|440:248|440:248|491:233|491:233|507:241,1,85,6|0,0:1|0:0,0:0:0:0:
412,372,18473,1,8,0:0:0:0:
323,318,18607,2,0,B|308:295|308:295|309:280|309:280|298:262|298:262|312:145,1,170,2|0,0:0|0:0,0:0:0:0:
272,73,19009,1,8,0:0:0:0:
325,163,19143,6,0,B|341:168|341:168|419:145,1,85,2|0,0:2|0:0,0:0:0:0:
254,58,19411,2,0,B|238:53|238:53|160:76,1,85,0|8,0:0|0:0,0:0:0:0:
179,300,19679,2,0,B|195:305|195:305|273:282,1,85
108,195,19946,1,0,0:0:0:0:
108,195,20013,1,0,0:0:0:0:
108,195,20080,2,0,B|92:190|92:190|14:213,1,85,8|0,0:0|0:0,0:0:0:0:
169,319,20348,5,2,0:0:0:0:
227,381,20482,1,0,0:0:0:0:
310,365,20616,1,8,0:0:0:0:
345,287,20750,2,0,B|345:260|353:243|353:243|322:210|334:162|334:162|316:141|306:115,1,170,2|0,0:0|0:0,0:0:0:0:
312,130,21152,1,8,0:0:0:0:
407,186,21286,6,0,B|431:203|463:194|463:194|490:157,1,85,2|0,0:2|0:0,0:0:0:0:
304,258,21554,2,0,B|295:286|313:313|313:313|357:327,1,85,0|8,0:0|0:0,0:0:0:0:
203,182,21821,2,0,B|173:182|152:208|152:208|152:254,1,85
244,62,22089,5,2,0:2:0:0:
181,4,22223,1,8,0:0:0:0:
97,20,22357,1,0,0:0:0:0:
255,78,22491,6,0,B|288:85|288:85|330:67|330:67|336:58|336:58|383:34|383:34|409:39,1,170,6|8,0:1|0:0,0:0:0:0:
511,139,22893,2,0,B|531:220|463:251|463:251|453:239|433:227,1,170,2|0,0:2|0:0,0:0:0:0:
359,384,23295,2,0,B|347:352|347:352|348:344|348:344|332:299,1,85,8|0,0:2|0:0,0:0:0:0:
277,185,23563,5,2,0:2:0:0:
202,265,23696,1,0,0:0:0:0:
170,160,23830,1,8,0:0:0:0:
512,9,24098,5,2,0:2:0:0:
470,147,24232,1,0,0:0:0:0:
372,42,24366,1,8,0:0:0:0:
454,71,24500,5,0,1:3:0:0:
454,71,24567,1,0,1:3:0:0:
454,71,24634,1,8,1:0:0:0:
271,234,25705,5,8,1:2:0:0:
200,195,25839,2,2,P|139:181|75:185,1,127.5,6|0,1:2|0:0,0:1:0:0:
65,198,26107,6,0,B|151:236|224:204|197:135|255:97|401:111|412:258|285:291|260:216,1,425,6|0,1:1|2:2,0:1:0:0:
126,328,35348,6,0,P|172:350|131:320,1,152.999995330811,2|0,0:0|0:0,0:0:0:0:
214,228,36420,6,0,P|271:220|214:218,1,170,2|0,0:0|0:0,0:0:0:0:
179,90,37491,6,0,P|227:48|173:80,1,187.000005706787,2|0,0:0|0:0,0:0:0:0:
254,131,38295,5,2,0:0:0:0:
254,131,38429,2,0,P|285:135|340:92,1,101.999996887207
322,24,38830,2,0,P|353:20|408:63,1,101.999996887207
254,131,39366,2,0,B|219:136|219:136|212:141|212:141|137:156,1,101.999996887207,0|2,0:0|0:0,0:0:0:0:
50,91,39902,5,0,0:0:0:0:
8,184,40170,1,0,0:0:0:0:
94,238,40438,1,0,0:0:0:0:
136,145,40705,2,0,B|151:116|151:116|117:68|157:18|157:18|182:40,1,152.999995330811,2|0,0:0|0:0,0:0:0:0:
224,79,41241,2,0,P|279:83|327:50,1,101.999996887207
512,210,41777,6,0,B|500:215|500:215|413:189,1,85,6|0,1:2|0:0,0:0:0:0:
310,367,42179,2,0,B|298:362|298:362|229:382,1,85,6|0,1:2|0:0,0:0:0:0:
110,228,42580,2,2,B|96:242|96:242|20:233|5:121|5:121|37:100|46:55,1,255,6|8,1:1|0:0,0:1:0:0:
43,63,43049,1,8,0:0:0:0:
43,63,43116,1,8,0:0:0:0:
120,118,43250,1,8,0:0:0:0:
205,117,43384,1,8,0:3:0:0:
275,190,43518,5,8,0:3:0:0:
318,107,43652,1,4,0:3:0:0:
406,76,43786,1,4,0:3:0:0:
493,171,43920,6,0,B|501:200|501:200|500:206|500:206|506:213|506:213|517:255,1,85,6|0,1:2|0:0,0:0:0:0:
318,107,44321,2,0,B|309:78|309:78|305:73|305:73|307:64|307:64|295:22,1,85,6|0,1:2|0:0,0:0:0:0:
174,207,44723,2,0,B|158:233|158:233|162:258|162:258|149:273|149:273|140:380,1,170,6|0,1:0|0:0,0:0:0:0:
61,316,45125,5,12,0:2:0:0:
441,261,45393,1,0,1:0:0:0:
408,350,45527,1,12,1:2:0:0:
408,350,45661,1,0,1:3:0:0:
347,276,45795,1,8,1:0:0:0:
502,335,45929,1,8,1:0:0:0:
380,187,46063,6,0,B|343:116|401:96|365:21,2,170,4|10|0,0:2|0:2|0:0,0:0:0:0:
213,83,46732,2,0,P|296:82|237:35,1,170,2|0,0:2|0:0,0:0:0:0:
125,99,47134,6,0,B|110:107|110:107|20:115,1,85,2|0,0:2|0:0,0:0:0:0:
164,220,47402,2,0,P|153:233|143:316,1,85,8|0,0:0|0:0,0:0:0:0:
254,384,47670,1,2,0:2:0:0:
254,384,47804,1,0,0:0:0:0:
304,287,47938,1,8,0:0:0:0:
396,337,48071,5,0,0:0:0:0:
396,337,48138,1,0,0:0:0:0:
396,337,48205,1,10,0:1:0:0:
365,214,48339,2,0,B|359:189|359:189|360:183|360:183|357:177|357:177|342:116,1,85,2|0,0:2|0:0,0:0:0:0:
231,177,48607,5,2,0:1:0:0:
365,214,48741,2,0,B|389:221|389:221|394:225|394:225|401:225|401:225|461:243,1,85,2|0,0:2|0:0,0:0:0:0:
475,109,49009,5,2,0:0:0:0:
365,214,49143,2,0,B|346:231|346:231|340:233|340:233|336:239|336:239|291:282,1,85,2|0,0:2|0:0,0:0:0:0:
181,384,49411,6,0,B|174:359|162:345|162:345|173:307|158:273|158:273|123:254|121:210,1,187.000005706787,6|0,0:1|0:0,0:0:0:0:
118,52,49813,2,0,B|127:133|57:162|57:162|12:139,2,187.000005706787,6|8|4,0:1|0:0|0:1,0:0:0:0:
362,4,50616,5,10,0:2:0:0:
397,90,50750,1,0,0:0:0:0:
456,17,50884,1,0,0:0:0:0:
390,107,51018,2,0,B|366:185|440:219|440:219|490:200,2,170,2|0|0,0:2|0:0|0:0,0:0:0:0:
271,166,51688,2,0,B|234:192|192:191|192:191|158:155|116:149,1,170,8|0,0:0|0:0,0:0:0:0:
118,149,52089,1,2,0:2:0:0:
197,217,52223,2,0,P|240:213|277:194,1,85,8|0,0:0|0:0,0:0:0:0:
393,88,52491,6,0,P|471:85|508:162,2,170,6|8|0,0:2|0:0|0:0,0:0:0:0:
359,239,53161,1,0,0:2:0:0:
432,283,53295,2,0,P|472:284|517:261,1,85,8|0,0:0|0:0,0:0:0:0:
340,156,53563,1,2,0:2:0:0:
268,233,53696,2,0,B|250:256|211:256|211:256|178:219|114:215,1,170,8|0,0:0|0:0,0:0:0:0:
0,235,54098,5,8,0:0:0:0:
106,139,54232,1,8,0:0:0:0:
21,104,54366,1,8,0:3:0:0:
73,279,54500,1,8,0:3:0:0:
194,212,54634,6,0,B|238:198|238:198|255:200|255:200|272:193|272:193|377:202,1,170,4|8,0:1|0:0,0:0:0:0:
455,245,55036,2,0,B|470:203|470:203|450:150,1,85
342,304,55304,2,0,B|332:321|332:321|347:390,1,85,0|8,0:0|0:0,0:0:0:0:
187,231,55571,6,0,B|138:212|138:212|95:256|21:249,1,170,6|0,0:2|0:0,0:0:0:0:
137,128,55973,2,0,P|138:86|161:50,1,85,8|0,0:0|0:0,0:0:0:0:
253,0,56241,5,2,0:2:0:0:
341,128,56375,1,0,0:0:0:0:
351,2,56509,1,8,0:0:0:0:
242,117,56643,1,0,0:0:0:0:
404,202,56777,6,0,B|443:216|443:216|506:181|480:98,2,170,6|8|2,0:2|0:0|0:2,0:0:0:0:
341,128,57446,1,0,0:0:0:0:
305,256,57580,1,8,0:0:0:0:
192,193,57714,6,0,B|160:174|160:174|134:174|134:174|112:164|112:164|-1:186,1,170,6|0,0:2|0:0,0:0:0:0:
193,376,58116,2,0,P|199:324|225:281,1,85,12|0,0:2|0:0,0:0:0:0:
356,157,58384,5,8,0:0:0:0:
419,275,58518,1,8,0:0:0:0:
434,106,58652,5,8,0:3:0:0:
259,133,58786,1,8,0:3:0:0:
370,34,58920,5,4,0:3:0:0:
38,362,60795,6,0,B|35:338|30:325|30:325|33:307|33:307|25:290|25:290|29:235|48:177,1,187.000005706787,6|0,0:2|2:0,0:0:0:0:
96,90,61196,5,8,0:0:0:0:
96,90,61263,1,8,0:0:0:0:
96,90,61330,1,8,0:0:0:0:
154,181,61464,1,8,0:0:0:0:
212,112,61598,5,8,0:3:0:0:
206,253,61732,1,8,0:3:0:0:
294,224,61866,5,4,0:3:0:0:
203,340,62000,1,4,0:3:0:0:
326,381,62134,5,6,0:1:0:0:
64,219,62536,5,6,0:1:0:0:
329,71,62938,5,6,0:1:0:0:
170,133,63205,6,0,P|114:123|9:116,1,140.25000428009,4|0,0:1|0:0,0:0:0:0:
25,123,63473,2,0,P|11:74|44:28,1,93.5000028533936,10|0,0:2|0:0,0:0:0:0:
146,222,63741,1,2,0:2:0:0:
146,222,63875,2,0,P|101:227|44:239,1,93.5000028533936,0|8,0:2|0:0,0:0:0:0:
244,318,64143,6,0,B|358:316|301:370|419:380,1,187.000005706787,2|0,0:1|0:0,0:0:0:0:
473,264,64545,2,0,B|512:250|512:250|557:179|512:113,1,187.000005706787,10|0,0:2|0:0,0:0:0:0:
128,16,65080,5,10,0:0:0:0:
199,90,65214,2,0,B|225:107|225:107|265:97|286:56,1,93.5000028533936,2|0,0:2|0:0,0:0:0:0:
116,13,65482,1,2,0:2:0:0:
54,92,65616,2,0,B|12:154|30:234|30:234|50:247|75:271,1,187.000005706787,10|0,0:0|0:0,0:0:0:0:
152,333,66018,5,2,0:2:0:0:
74,381,66152,1,8,0:0:0:0:
130,214,66286,1,0,0:0:0:0:
360,333,66554,5,2,0:2:0:0:
438,381,66688,1,8,0:0:0:0:
382,214,66821,1,0,0:0:0:0:
460,166,66955,5,2,0:2:0:0:
382,214,67089,1,0,0:0:0:0:
438,47,67223,2,0,B|403:14|403:14|251:46,1,187.000005706787,8|4,0:0|0:1,0:0:0:0:
170,342,67759,6,0,B|135:375|135:375|-17:343,1,187.000005706787,10|0,0:2|0:0,0:0:0:0:
121,251,68161,2,0,P|105:217|133:157,1,93.5000028533936,2|8,0:2|0:0,0:0:0:0:
276,59,68429,6,0,B|327:42|327:42|350:45|350:45|371:33|371:33|485:28,1,187.000005706787,2|0,0:1|0:0,0:0:0:0:
300,164,68830,2,0,B|291:166|291:166|192:146,1,93.5000028533936,10|0,0:2|0:0,0:0:0:0:
90,26,69098,2,0,B|29:18|13:72|13:72|35:107|42:154,1,187.000005706787,2|8,0:2|0:0,0:0:0:0:
0,262,69500,5,0,0:0:0:0:
0,262,69567,1,0,0:0:0:0:
0,262,69634,1,14,0:1:0:0:
104,306,69768,2,0,P|156:294|188:255,1,93.5000028533936
294,76,70036,5,10,0:0:0:0:
354,185,70170,2,0,P|347:237|312:273,1,93.5000028533936
171,338,70438,5,10,0:0:0:0:
257,384,70571,1,0,0:0:0:0:
198,245,70705,1,0,0:0:0:0:
274,160,70839,5,14,0:0:0:0:
198,245,70973,1,0,0:0:0:0:
157,81,71107,1,0,0:0:0:0:
290,177,71241,6,0,B|341:218|411:201|411:201|443:162|482:155,2,212.5,14|10|4,0:0|0:0|0:1,0:0:0:0:
27,14,72045,6,0,B|-15:90|48:148|48:148|70:141|90:130,1,187.000005706787,10|0,0:2|0:0,0:0:0:0:
232,22,72446,2,0,P|279:22|318:53,1,93.5000028533936,2|8,0:2|0:0,0:0:0:0:
420,191,72714,2,0,P|476:228|468:144,1,187.000005706787,2|0,0:1|0:0,0:0:0:0:
341,171,73116,1,10,0:2:0:0:
131,13,73384,5,2,0:2:0:0:
115,107,73518,1,8,0:3:0:0:
209,198,73652,5,8,0:0:0:0:
192,291,73786,1,4,0:3:0:0:
351,187,73920,6,0,B|386:206|386:206|438:184|438:184|443:112|526:91,1,220.999989883423,14|0,0:0|0:0,0:0:0:0:
247,133,74321,2,0,B|212:152|212:152|160:130|160:130|155:58|72:37,1,220.999989883423,14|0,0:1|0:0,0:0:0:0:
0,238,74723,2,0,P|54:221|109:219,1,93.5000028533936,14|0,0:0|0:0,0:0:0:0:
275,286,74991,5,8,3:3:0:0:
265,362,75125,1,8,3:3:0:0:
194,225,75259,5,8,3:1:0:0:
203,309,75393,1,8,3:1:0:0:
357,238,75527,5,8,3:3:0:0:
339,336,75661,1,8,3:3:0:0:
110,174,75795,5,4,3:3:0:0:
129,275,75929,1,4,3:3:0:0:
303,179,76063,6,0,B|343:199|343:199|411:179|410:100,2,170,6|0|8,1:2|0:0|0:0,0:0:0:0:
220,106,76732,2,0,B|221:32|153:11|153:11|113:32,1,170,2|0,0:0|1:0,0:0:0:0:
33,111,77134,2,0,B|38:162|38:162|42:167|42:167|39:172|39:172|50:279,1,170,2|0,0:0|1:0,0:0:0:0:
256,382,77670,5,10,0:2:0:0:
334,168,77938,1,0,1:0:0:0:
464,291,78205,2,0,L|260:270,2,170,2|0|8,1:2|0:0|0:0,0:0:0:0:
512,184,78875,1,2,0:2:0:0:
332,99,79143,5,0,1:0:0:0:
332,99,79277,2,0,B|355:101|355:101|382:82|412:83,1,85,2|0,0:0|0:0,0:0:0:0:
367,235,79545,2,0,B|373:258|373:258|399:277|408:307,1,85,0|0,1:0|0:0,0:0:0:0:
249,311,79813,2,0,B|229:323|229:323|218:355|193:372,1,85,8|0,0:0|0:0,0:0:0:0:
139,222,80080,2,0,B|122:207|122:207|89:206|64:187,1,85,8|0,0:0|0:0,0:0:0:0:
40,99,80348,5,6,1:1:0:0:
256,192,80750,1,6,1:1:0:0:
472,99,81152,1,6,1:1:0:0:
256,192,81219,12,0,82223,0:0:0:0:
477,268,82491,5,6,0:1:0:0:
256,192,82893,1,6,0:1:0:0:
35,268,83295,1,6,0:1:0:0:
256,384,83696,5,8,0:3:0:0:
256,288,83964,1,4,0:3:0:0:
256,195,84232,5,8,2:3:0:0:
256,288,84366,1,8,0:0:0:0:
90,116,84634,5,6,0:1:0:0:
256,195,85036,1,6,0:1:0:0:
422,116,85438,1,6,0:1:0:0:
256,0,85973,5,8,2:3:0:0:
256,195,86375,5,8,0:3:0:0:
256,96,86509,1,8,0:0:0:0:
75,30,86777,6,0,L|159:20,2,85,12|0|0,1:2|3:0|3:0,0:0:0:0:
340,105,87179,6,0,L|255:95,2,85,12|0|0,1:2|3:0|3:0,0:0:0:0:
39,175,87580,6,0,L|123:165,2,85,12|0|0,1:2|3:0|3:0,0:0:0:0:
348,255,87982,6,0,L|263:245,2,85,12|0|0,1:2|3:0|3:0,0:0:0:0:
87,370,88384,5,12,1:2:0:0:
155,280,88518,1,0,3:0:0:0:
199,384,88652,1,0,3:0:0:0:
170,149,88786,5,14,1:0:0:0:
