osu file format v14

[General]
AudioFilename: audio.mp3
AudioLeadIn: 0
PreviewTime: 58508
Countdown: 1
SampleSet: Soft
StackLeniency: 0.7
Mode: 0
LetterboxInBreaks: 0
WidescreenStoryboard: 1

[Editor]
Bookmarks: 1423,9651,23365,34337,45308,59023,69994,80965,91937,100165,108394
DistanceSpacing: 1.5
BeatDivisor: 4
GridSize: 32
TimelineZoom: 1.3

[Metadata]
Title:Mahou no Kotoba
TitleUnicode:マホウノコトバ
Artist:Sakakibara Yui & Sakuragawa Megu
ArtistUnicode:榊原ゆい&櫻川めぐ
Creator:Loli Knight
Version:Ayyfayla's Hard
Source:まほ×ろば-Witches spiritual home-
Tags:Rolniczy Ayyri eiri- Lafayla mahoxroba maho x roba
BeatmapID:1883019
BeatmapSetID:887985

[Difficulty]
HPDrainRate:4.5
CircleSize:3.5
OverallDifficulty:6.5
ApproachRate:8
SliderMultiplier:1.3
SliderTickRate:1

[Events]
//Background and Video events
0,0,"0247_ev117q.png",0,0
//Break Periods
//Storyboard Layer 0 (Background)
//Storyboard Layer 1 (Fail)
//Storyboard Layer 2 (Pass)
//Storyboard Layer 3 (Foreground)
//Storyboard Sound Samples

[TimingPoints]
1423,342.857142857143,4,2,1,75,1,0
1423,-117.647058823529,4,2,1,75,0,0
8965,-100,4,2,1,30,0,0
9137,-100,4,2,1,45,0,0
9308,-100,4,2,1,75,0,0
9651,-105.263157894737,4,2,1,75,0,0
17880,-105.263157894737,4,2,2,75,0,0
21994,-105.263157894737,4,2,1,75,0,0
23365,-117.647058823529,4,2,1,45,0,0
33994,-117.647058823529,4,2,1,60,0,0
34337,-105.263157894737,4,2,1,75,0,0
50794,-105.263157894737,4,2,2,75,0,0
53537,-105.263157894737,4,2,1,75,0,0
59023,-95.2380952380954,4,2,1,75,0,1
67251,-95.2380952380954,4,2,2,75,0,1
72737,-95.2380952380954,4,2,1,75,0,1
78223,-95.2380952380954,4,2,2,75,0,1
80965,-105.263157894737,4,2,1,75,0,0
84051,-105.263157894737,4,2,2,75,0,0
85080,-105.263157894737,4,2,1,75,0,0
94680,-105.263157894737,4,2,2,75,0,0
100165,-105.263157894737,4,2,1,75,0,0
108394,-105.263157894737,4,2,1,15,0,0

[Colours]
Combo1 : 255,128,131
Combo2 : 251,192,153
Combo3 : 217,170,255
Combo4 : 145,219,238

[HitObjects]
32,99,1251,5,0,0:0:0:0:
32,99,1423,6,0,P|90:75|146:103,1,110.50000210762,0|0,0:0|0:0,0:0:0:0:
205,150,1937,1,0,0:0:0:0:
368,56,2280,2,0,L|361:-3,2,55.2500010538101,0|0|0,0:0|0:0|0:0,0:0:0:0:
448,105,2794,2,0,L|435:220,1,110.50000210762,0|0,0:0|0:0,0:0:0:0:
328,369,3480,2,0,L|316:259,1,110.50000210762,0|0,0:0|0:0,0:0:0:0:
277,75,4165,6,0,P|242:127|179:136,1,110.50000210762,0|0,0:0|0:0,0:0:0:0:
105,121,4680,1,0,0:0:0:0:
74,101,5023,1,0,0:0:0:0:
42,92,5365,1,0,0:0:0:0:
42,92,5538,2,0,P|8:133|11:187,1,110.50000210762,0|0,0:0|0:0,0:0:0:0:
68,366,6223,2,0,P|81:313|125:283,1,110.50000210762,0|0,0:0|0:0,0:0:0:0:
303,339,6908,6,0,L|291:229,1,110.50000210762,0|0,0:0|0:0,0:0:0:0:
281,134,7423,1,0,0:0:0:0:
282,123,9137,1,2,0:0:0:0:
359,70,9308,1,0,0:0:0:0:
431,129,9480,1,0,0:0:0:0:
431,129,9565,1,0,0:0:0:0:
431,129,9651,6,0,L|421:219,2,61.7499983510972,4|0|8,0:0|0:0|0:0,0:0:0:0:
447,28,10165,1,0,0:0:0:0:
509,207,10508,1,0,0:0:0:0:
509,207,10594,1,0,0:0:0:0:
509,207,10680,2,0,L|506:264,1,30.8749991755486,2|2,0:0|0:0,0:0:0:0:
504,290,10851,5,2,0:0:0:0:
326,237,11194,1,2,0:0:0:0:
326,237,11365,1,2,0:0:0:0:
252,294,11537,2,0,L|168:291,1,61.7499983510972,0|0,0:0|0:0,0:0:0:0:
97,298,11880,1,2,0:0:0:0:
97,298,11965,1,2,0:0:0:0:
97,298,12051,2,0,L|90:345,2,30.8749991755486,2|2|2,0:0|0:0|0:0,0:0:0:0:
113,198,12394,6,0,P|158:184|192:183,1,61.7499983510972,0|0,0:0|0:0,0:0:0:0:
261,209,12737,1,2,0:0:0:0:
332,160,12908,2,0,L|337:76,1,61.7499983510972,2|0,0:0|0:0,0:0:0:0:
344,5,13251,1,0,0:0:0:0:
503,91,13594,5,2,0:0:0:0:
479,274,13937,1,0,0:0:0:0:
479,274,14108,2,0,L|396:269,1,61.7499983510972,2|0,0:0|0:0,0:0:0:0:
336,316,14451,2,0,L|253:311,1,61.7499983510972,2|0,0:0|0:0,0:0:0:0:
181,307,14794,1,2,0:0:0:0:
213,220,14965,1,2,0:0:0:0:
213,220,15051,1,2,0:0:0:0:
213,220,15137,6,0,L|216:143,2,61.7499983510972,6|2|2,0:0|0:0|0:0,0:0:0:0:
120,230,15651,1,2,0:0:0:0:
165,50,15994,1,0,0:0:0:0:
165,50,16080,1,0,0:0:0:0:
165,50,16165,2,0,L|224:46,1,30.8749991755486,2|2,0:0|0:0,0:0:0:0:
242,45,16337,5,2,0:0:0:0:
427,34,16680,1,0,0:0:0:0:
427,34,16851,1,0,0:0:0:0:
469,116,17023,2,0,L|466:189,1,61.7499983510972,2|0,0:0|0:0,0:0:0:0:
423,259,17365,1,2,0:0:0:0:
423,259,17450,1,2,0:0:0:0:
423,259,17537,2,0,L|432:317,2,30.8749991755486,2|0|0,0:0|0:0|0:0,0:0:0:0:
342,187,17880,6,0,P|297:173|210:198,1,123.499996702194,6|0,0:0|0:0,0:0:0:0:
168,262,18393,1,0,0:0:0:0:
88,226,18565,2,0,L|78:83,1,123.499996702194,0|0,0:0|0:0,0:0:0:0:
78,16,19079,1,0,0:0:0:0:
78,16,19165,1,0,0:0:0:0:
78,16,19251,6,0,L|161:11,1,61.7499983510972,4|0,0:0|0:0,0:0:0:0:
220,42,19594,2,0,L|303:37,1,61.7499983510972,0|0,0:0|0:0,0:0:0:0:
374,34,19937,1,0,0:0:0:0:
360,125,20108,1,0,0:0:0:0:
452,115,20280,2,0,L|449:192,1,61.7499983510972,0|0,0:0|0:0,0:0:0:0:
446,269,20623,5,6,0:0:0:0:
290,343,20965,2,0,L|287:266,1,61.7499983510972,8|8,0:0|0:0,0:0:0:0:
284,189,21308,1,8,0:0:0:0:
284,189,21480,1,8,0:0:0:0:
201,124,21651,1,8,0:0:0:0:
201,124,21823,1,8,0:0:0:0:
104,197,21994,1,4,0:0:0:0:
104,197,23365,6,0,P|101:131|147:94,1,110.50000210762,2|0,0:0|0:0,0:0:0:0:
218,74,23880,1,2,0:0:0:0:
288,135,24051,2,0,L|276:244,1,110.50000210762,2|2,0:0|0:0,0:0:0:0:
239,331,24565,1,2,0:0:0:0:
318,380,24737,6,0,P|345:379|371:369,1,55.2500010538101,0|0,0:0|0:0,0:0:0:0:
445,311,25080,1,2,0:0:0:0:
435,278,25423,1,2,0:0:0:0:
421,243,25765,1,2,0:0:0:0:
502,73,26108,6,0,P|457:104|402:104,1,110.50000210762,2|2,0:0|0:0,0:0:0:0:
325,49,26623,2,0,P|270:49|225:80,1,110.50000210762,2|0,0:0|0:0,0:0:0:0:
187,166,27137,1,2,0:0:0:0:
51,35,27480,6,0,L|38:154,1,110.50000210762,2|0,0:0|0:0,0:0:0:0:
8,234,27994,1,0,0:0:0:0:
62,310,28165,2,0,P|95:310|137:293,1,55.2500010538101,2|0,0:0|0:0,0:0:0:0:
191,361,28508,2,0,P|220:344|248:309,1,55.2500010538101,2|0,0:0|0:0,0:0:0:0:
264,239,28851,6,0,L|252:129,1,110.50000210762,2|0,0:0|0:0,0:0:0:0:
395,6,29537,1,2,0:0:0:0:
416,34,29880,1,2,0:0:0:0:
440,60,30223,6,0,L|451:169,1,110.50000210762,2|0,0:0|0:0,0:0:0:0:
509,243,30737,1,2,0:0:0:0:
453,318,30908,2,0,P|427:327|399:329,1,55.2500010538101,2|0,0:0|0:0,0:0:0:0:
334,262,31251,2,0,P|306:263|280:273,1,55.2500010538101,2|0,0:0|0:0,0:0:0:0:
192,306,31594,6,0,P|174:253|184:198,1,110.50000210762,2|0,0:0|0:0,0:0:0:0:
134,18,32280,2,0,P|134:45|126:72,1,55.2500010538101,2|0,0:0|0:0,0:0:0:0:
37,100,32623,2,0,P|29:126|29:154,1,55.2500010538101,2|0,0:0|0:0,0:0:0:0:
18,247,32965,6,0,L|143:233,1,110.50000210762,2|2,0:0|0:0,0:0:0:0:
177,316,33480,2,0,L|302:302,1,110.50000210762,2|0,0:0|0:0,0:0:0:0:
375,337,33994,1,2,0:0:0:0:
425,258,34165,1,0,0:0:0:0:
396,147,34337,6,0,L|307:138,1,61.7499983510972,6|0,0:0|0:0,0:0:0:0:
271,208,34680,2,0,L|182:199,1,61.7499983510972,0|0,0:0|0:0,0:0:0:0:
152,128,35023,2,0,L|17:115,1,123.499996702194,0|2,0:0|0:0,0:0:0:0:
2,27,35537,2,0,P|40:0|118:6,1,123.499996702194,0|0,0:0|0:0,0:0:0:0:
195,48,36051,6,0,L|269:38,1,61.7499983510972,0|0,0:0|0:0,0:0:0:0:
321,114,36394,2,0,L|247:124,1,61.7499983510972,2|8,0:0|0:0,0:0:0:0:
238,212,36737,2,0,L|312:202,1,61.7499983510972,2|8,0:0|0:0,0:0:0:0:
364,278,37080,2,0,L|236:295,1,123.499996702194,2|2,0:0|0:0,0:0:0:0:
149,308,37594,2,0,P|130:271|140:170,1,123.499996702194,0|0,0:0|0:0,0:0:0:0:
156,101,38108,2,0,P|114:109|95:107,1,61.7499983510972,2|0,0:0|0:0,0:0:0:0:
117,16,38451,6,0,P|159:8|241:33,1,123.499996702194,2|2,0:0|0:0,0:0:0:0:
292,102,38965,1,0,0:0:0:0:
292,102,39137,2,0,L|366:99,1,61.7499983510972,2|8,0:0|0:0,0:0:0:0:
323,187,39480,2,0,L|249:190,1,61.7499983510972,2|8,0:0|0:0,0:0:0:0:
138,198,39823,6,0,B|114:130|166:155|123:56,1,123.499996702194,4|2,0:0|0:0,0:0:0:0:
39,238,40508,2,0,L|46:307,1,61.7499983510972,2|0,0:0|0:0,0:0:0:0:
138,298,40851,2,0,L|145:367,1,61.7499983510972,2|0,0:0|0:0,0:0:0:0:
227,318,41194,2,0,P|250:273|236:191,1,123.499996702194,2|0,0:0|0:0,0:0:0:0:
206,116,41708,1,2,0:0:0:0:
206,116,41880,2,0,L|286:117,1,61.7499983510972,2|8,0:0|0:0,0:0:0:0:
227,32,42223,2,0,L|147:33,1,61.7499983510972,2|8,0:0|0:0,0:0:0:0:
73,38,42565,6,0,P|47:92|29:164,1,123.499996702194,2|0,0:0|0:0,0:0:0:0:
10,337,43251,1,2,0:0:0:0:
84,281,43423,1,0,0:0:0:0:
84,281,43508,1,0,0:0:0:0:
84,281,43594,2,0,L|159:274,1,61.7499983510972,6|0,0:0|0:0,0:0:0:0:
250,265,43937,6,0,P|264:220|258:178,1,61.7499983510972,8|2,0:0|0:0,0:0:0:0:
235,104,44280,1,2,0:0:0:0:
164,181,44451,2,0,P|119:195|77:189,1,61.7499983510972,8|2,0:0|0:0,0:0:0:0:
3,166,44794,1,2,0:0:0:0:
3,166,44880,1,0,0:0:0:0:
3,166,44965,2,0,L|-6:128,3,30.8749991755486,0|0|0|0,0:0|0:0|0:0|0:0,0:0:0:0:
9,84,45308,6,0,B|116:48|80:119|188:84,1,185.249995053291,10|0,0:0|0:0,0:0:0:0:
188,84,46337,1,0,0:0:0:0:
188,84,46508,1,0,0:0:0:0:
324,300,47537,1,10,0:0:0:0:
324,300,47708,1,0,0:0:0:0:
300,321,48051,6,0,L|308:406,2,61.7499983510972,8|2|2,0:0|0:0|0:0,0:0:0:0:
213,287,48565,2,0,L|204:201,1,61.7499983510972,8|2,0:0|0:0,0:0:0:0:
253,145,48908,1,2,0:0:0:0:
170,101,49080,6,0,P|139:100|109:108,2,61.7499983510972,8|2|2,0:0|0:0|0:0,0:0:0:0:
234,34,49594,2,0,P|263:41|290:57,1,61.7499983510972,8|2,0:0|0:0,0:0:0:0:
357,121,49937,1,2,0:0:0:0:
321,206,50108,2,0,L|317:236,3,30.8749991755486,0|0|8|0,0:0|0:0|0:0|0:0,0:0:0:0:
286,271,50451,2,0,L|292:330,3,30.8749991755486,8|8|8|0,0:0|0:0|0:0|0:0,0:0:0:0:
311,342,50794,6,0,P|365:367|421:347,1,123.499996702194,14|8,0:0|0:0,0:0:0:0:
474,270,51308,1,0,0:0:0:0:
408,203,51480,2,0,P|401:173|403:142,1,61.7499983510972,8|0,0:0|0:0,0:0:0:0:
427,52,51823,1,8,0:0:0:0:
350,0,51994,1,0,0:0:0:0:
266,39,52165,6,0,L|259:100,1,61.7499983510972,8|0,0:0|0:0,0:0:0:0:
291,187,52508,2,0,P|274:217|249:233,1,61.7499983510972,8|0,0:0|0:0,0:0:0:0:
247,324,52851,2,0,P|217:342|188:343,1,61.7499983510972,8|0,0:0|0:0,0:0:0:0:
98,342,53194,1,8,0:0:0:0:
74,252,53365,1,0,0:0:0:0:
74,252,53451,1,0,0:0:0:0:
74,252,53537,6,0,L|87:125,1,123.499996702194,4|0,0:0|0:0,0:0:0:0:
76,36,54051,1,0,0:0:0:0:
165,9,54223,2,0,P|195:11|220:28,1,61.7499983510972,8|2,0:0|0:0,0:0:0:0:
270,106,54565,1,0,0:0:0:0:
270,106,54737,1,2,0:0:0:0:
438,30,55079,5,0,0:0:0:0:
438,30,55251,1,0,0:0:0:0:
490,207,55594,2,0,L|483:268,1,61.7499983510972,0|0,0:0|0:0,0:0:0:0:
394,313,55937,2,0,L|387:251,1,61.7499983510972,0|0,0:0|0:0,0:0:0:0:
327,181,56280,6,0,P|301:164|271:161,1,61.7499983510972,4|0,0:0|0:0,0:0:0:0:
181,185,56623,1,0,0:0:0:0:
159,95,56794,2,0,P|128:93|100:105,1,61.7499983510972,4|0,0:0|0:0,0:0:0:0:
50,183,57137,1,0,3:0:0:0:
50,183,57223,1,0,3:0:0:0:
50,183,57308,2,0,L|46:216,3,30.8749991755486,0|0|0|0,3:0|3:0|3:0|3:0,0:0:0:0:
42,259,57651,1,0,3:0:0:0:
42,259,59023,6,0,L|141:251,1,68.2499979171754,6|0,0:0|0:0,0:0:0:0:
200,282,59365,1,2,0:0:0:0:
211,186,59537,2,0,L|215:89,1,68.2499979171754,0|0,0:0|0:0,0:0:0:0:
221,22,59880,1,0,0:0:0:0:
221,22,60051,2,0,P|280:21|298:26,1,68.2499979171754,2|0,0:0|0:0,0:0:0:0:
372,69,60394,2,0,P|385:110|359:199,1,136.499995834351,2|0,0:0|0:0,0:0:0:0:
216,324,61080,2,0,L|308:317,1,68.2499979171754,2|0,0:0|0:0,0:0:0:0:
232,237,61423,2,0,L|140:244,1,68.2499979171754,2|0,0:0|0:0,0:0:0:0:
54,252,61765,6,0,P|32:203|39:101,1,136.499995834351,2|2,0:0|0:0,0:0:0:0:
96,47,62280,2,0,L|180:39,1,68.2499979171754,0|0,0:0|0:0,0:0:0:0:
234,105,62623,1,0,0:0:0:0:
312,51,62794,1,2,0:0:0:0:
380,117,62965,1,2,0:0:0:0:
380,117,63051,1,2,0:0:0:0:
380,117,63137,6,0,P|393:157|374:256,1,136.499995834351,2|2,0:0|0:0,0:0:0:0:
309,330,63651,1,2,0:0:0:0:
287,308,63994,1,0,0:0:0:0:
255,217,64165,1,0,0:0:0:0:
166,254,64337,1,2,0:0:0:0:
166,254,64423,1,2,0:0:0:0:
166,254,64508,6,0,L|81:256,1,68.2499979171754,6|0,0:0|0:0,0:0:0:0:
40,179,64851,1,0,0:0:0:0:
102,106,65023,2,0,P|141:94|242:123,1,136.499995834351,0|0,0:0|0:0,0:0:0:0:
297,184,65537,1,2,0:0:0:0:
357,110,65708,1,0,0:0:0:0:
435,194,65880,6,0,P|437:233|426:277,1,68.2499979171754,2|0,0:0|0:0,0:0:0:0:
391,348,66223,1,2,0:0:0:0:
391,348,66394,2,0,L|240:341,1,136.499995834351,2|0,0:0|0:0,0:0:0:0:
159,334,66908,1,2,0:0:0:0:
159,334,67080,1,2,0:0:0:0:
202,235,67251,6,0,L|190:153,1,68.2499979171754,4|0,0:0|0:0,0:0:0:0:
269,110,67594,2,0,L|281:192,1,68.2499979171754,0|0,0:0|0:0,0:0:0:0:
371,202,67937,2,0,L|359:120,1,68.2499979171754,0|0,0:0|0:0,0:0:0:0:
438,77,68280,2,0,L|450:159,1,68.2499979171754,0|0,0:0|0:0,0:0:0:0:
470,250,68623,5,2,0:0:0:0:
462,272,68965,1,2,0:0:0:0:
355,259,69137,1,0,0:0:0:0:
298,336,69308,2,0,P|250:334|219:321,1,68.2499979171754,2|0,0:0|0:0,0:0:0:0:
194,238,69651,2,0,L|190:198,3,34.1249989585877,0|0|0|0,0:0|0:0|0:0|0:0,0:0:0:0:
214,162,69994,6,0,P|208:128|185:103,1,68.2499979171754,2|0,0:0|0:0,0:0:0:0:
92,80,70337,1,2,0:0:0:0:
5,120,70508,2,0,L|18:255,1,136.499995834351,0|0,0:0|0:0,0:0:0:0:
63,341,71023,1,0,0:0:0:0:
141,287,71194,1,0,0:0:0:0:
205,357,71365,2,0,P|269:332|259:249,1,136.499995834351,8|0,0:0|0:0,0:0:0:0:
188,101,72051,2,0,L|270:89,1,68.2499979171754,0|0,0:0|0:0,0:0:0:0:
330,31,72394,2,0,L|412:43,1,68.2499979171754,0|0,0:0|0:0,0:0:0:0:
478,91,72737,5,4,0:0:0:0:
439,178,72908,1,0,0:0:0:0:
439,178,72994,1,0,0:0:0:0:
439,178,73080,1,0,0:0:0:0:
498,252,73251,1,8,0:0:0:0:
480,277,73594,1,8,0:0:0:0:
465,305,73937,6,0,B|408:311|408:311|384:295|384:295|323:302,1,136.499995834351,2|0,0:0|0:0,0:0:0:0:
255,356,74451,1,2,0:0:0:0:
193,282,74623,2,0,P|186:245|197:201,1,68.2499979171754,2|2,0:0|0:0,0:0:0:0:
259,148,74965,1,2,0:0:0:0:
184,87,75137,2,0,L|110:94,1,68.2499979171754,0|0,0:0|0:0,0:0:0:0:
20,83,75480,6,0,B|-2:119|-2:119|8:223,1,136.499995834351,4|0,0:0|0:0,0:0:0:0:
117,368,76165,2,0,L|124:294,1,68.2499979171754,10|2,0:0|0:0,0:0:0:0:
189,229,76508,1,0,0:0:0:0:
240,309,76679,1,0,0:0:0:0:
335,315,76851,2,0,P|359:249|299:193,1,136.499995834351,2|0,0:0|0:0,0:0:0:0:
180,73,77536,2,0,P|212:88|245:86,1,68.2499979171754,8|0,0:0|0:0,0:0:0:0:
320,28,77880,2,0,P|353:27|384:42,1,68.2499979171754,0|0,0:0|0:0,0:0:0:0:
480,47,78223,6,0,L|466:182,1,136.499995834351,10|8,0:0|0:0,0:0:0:0:
511,267,78737,1,0,0:0:0:0:
454,343,78908,2,0,P|379:362|312:327,1,136.499995834351,8|8,0:0|0:0,0:0:0:0:
272,260,79423,1,0,0:0:0:0:
305,170,79594,6,0,P|288:136|252:111,1,68.2499979171754,8|0,0:0|0:0,0:0:0:0:
238,25,79937,2,0,P|203:11|160:16,1,68.2499979171754,8|0,0:0|0:0,0:0:0:0:
79,34,80280,2,0,B|73:88|73:88|87:112|87:112|81:171,1,136.499995834351,8|8,0:0|0:0,0:0:0:0:
61,337,80965,6,0,L|151:327,2,61.7499983510972,4|0|0,0:0|0:0|0:0,0:0:0:0:
22,259,81479,1,2,0:0:0:0:
194,253,81822,1,0,0:0:0:0:
194,253,81908,1,0,0:0:0:0:
194,253,81994,2,0,L|251:250,1,30.8749991755486,2|2,0:0|0:0,0:0:0:0:
277,248,82165,5,0,0:0:0:0:
232,80,82508,1,0,0:0:0:0:
232,80,82679,1,2,0:0:0:0:
317,95,82851,2,0,L|401:92,1,61.7499983510972,0|0,0:0|0:0,0:0:0:0:
472,99,83194,1,2,0:0:0:0:
472,99,83279,1,0,0:0:0:0:
472,99,83365,2,0,L|479:146,2,30.8749991755486,2|0|2,0:0|0:0|0:0,0:0:0:0:
441,17,83708,6,0,P|396:3|362:2,1,61.7499983510972,4|0,0:0|0:0,0:0:0:0:
294,4,84051,1,8,0:0:0:0:
294,4,84223,1,8,0:0:0:0:
239,70,84394,2,0,L|150:63,1,61.7499983510972,8|8,0:0|0:0,0:0:0:0:
115,4,84737,2,0,L|26:-3,1,61.7499983510972,8|8,0:0|0:0,0:0:0:0:
0,92,85080,5,4,0:0:0:0:
19,116,85422,2,0,L|24:199,1,61.7499983510972,0|0,0:0|0:0,0:0:0:0:
93,227,85765,2,0,L|98:310,1,61.7499983510972,0|0,0:0|0:0,0:0:0:0:
103,375,86108,1,0,0:0:0:0:
186,217,86451,6,0,L|189:140,2,61.7499983510972,2|2|2,0:0|0:0|0:0,0:0:0:0:
93,227,86965,1,4,0:0:0:0:
88,54,87308,1,0,0:0:0:0:
88,54,87394,1,0,0:0:0:0:
88,54,87479,2,0,L|147:50,1,30.8749991755486,2|2,0:0|0:0,0:0:0:0:
165,49,87651,5,2,0:0:0:0:
313,137,87994,1,0,0:0:0:0:
313,137,88165,1,2,0:0:0:0:
394,106,88337,2,0,L|391:179,1,61.7499983510972,2|0,0:0|0:0,0:0:0:0:
348,249,88679,1,2,0:0:0:0:
348,249,88764,1,2,0:0:0:0:
348,249,88851,2,0,L|357:307,2,30.8749991755486,2|2|2,0:0|0:0|0:0,0:0:0:0:
278,186,89194,6,0,P|233:172|146:197,1,123.499996702194,4|2,0:0|0:0,0:0:0:0:
104,261,89707,1,0,0:0:0:0:
128,89,90051,1,0,0:0:0:0:
300,75,90394,6,0,L|383:70,1,61.7499983510972,2|0,0:0|0:0,0:0:0:0:
401,148,90737,1,0,0:0:0:0:
401,148,90908,2,0,L|318:153,1,61.7499983510972,2|0,0:0|0:0,0:0:0:0:
253,163,91251,1,2,0:0:0:0:
293,239,91422,1,0,0:0:0:0:
253,316,91594,2,0,L|176:319,1,61.7499983510972,2|0,0:0|0:0,0:0:0:0:
114,278,91937,6,0,P|101:250|101:219,1,61.7499983510972,2|2,0:0|0:0,0:0:0:0:
134,139,92280,1,2,0:0:0:0:
212,173,92451,1,4,0:0:0:0:
324,41,92794,1,0,0:0:0:0:
324,41,92880,1,0,0:0:0:0:
324,41,92965,2,0,L|328:100,1,30.8749991755486,2|2,0:0|0:0,0:0:0:0:
332,115,93137,5,2,0:0:0:0:
246,272,93480,1,0,0:0:0:0:
246,272,93651,1,2,0:0:0:0:
328,307,93823,2,0,P|358:305|386:292,1,61.7499983510972,2|0,0:0|0:0,0:0:0:0:
462,245,94165,1,2,0:0:0:0:
462,245,94250,1,2,0:0:0:0:
462,245,94337,2,0,L|471:303,2,30.8749991755486,2|2|2,0:0|0:0|0:0,0:0:0:0:
487,158,94680,6,0,L|472:19,1,123.499996702194,10|8,0:0|0:0,0:0:0:0:
387,2,95193,1,0,0:0:0:0:
315,61,95365,2,0,P|301:97|303:143,1,61.7499983510972,8|0,0:0|0:0,0:0:0:0:
236,187,95708,2,0,P|250:223|247:269,1,61.7499983510972,8|0,0:0|0:0,0:0:0:0:
206,327,96051,6,0,B|169:347|169:347|65:336,1,123.499996702194,8|8,0:0|0:0,0:0:0:0:
6,293,96565,1,0,0:0:0:0:
3,200,96737,2,0,P|38:146|116:157,1,123.499996702194,8|8,0:0|0:0,0:0:0:0:
162,206,97251,1,0,0:0:0:0:
253,192,97423,6,0,L|261:115,1,61.7499983510972,6|0,0:0|0:0,0:0:0:0:
231,42,97766,1,8,0:0:0:0:
313,0,97937,1,8,0:0:0:0:
377,66,98108,2,0,L|383:127,1,61.7499983510972,8|8,0:0|0:0,0:0:0:0:
362,217,98451,1,8,0:0:0:0:
437,271,98623,1,8,0:0:0:0:
379,343,98794,5,6,0:0:0:0:
149,187,99308,1,0,0:0:0:0:
149,187,99394,1,10,0:0:0:0:
149,187,99480,2,0,P|118:187|90:200,2,61.7499983510972,10|10|10,0:0|0:0|0:0,0:0:0:0:
329,228,100165,1,14,0:0:0:0:
256,192,100251,12,0,102908,0:0:0:0:
256,192,103423,5,0,0:0:0:0:
256,192,103508,12,0,108394,0:0:0:0:
