osu file format v14

[General]
AudioFilename: audio.mp3
AudioLeadIn: 0
PreviewTime: 62096
Countdown: 0
SampleSet: Normal
StackLeniency: 0.7
Mode: 1
LetterboxInBreaks: 0
WidescreenStoryboard: 1

[Editor]
Bookmarks: 15918,33061,46775
DistanceSpacing: 1.6
BeatDivisor: 4
GridSize: 32
TimelineZoom: 2.1

[Metadata]
Title:Try & Fly (Short Ver.)
TitleUnicode:Try & Fly (Short Ver.)
Artist:Sakakibara Yui / Yakushi Ruri
ArtistUnicode:榊原ゆい / 薬師るり
Creator:[R]
Version:Nytrioum's Muzukashii
Source:竜姫ぐーたらいふ
Tags:ron yuki_momoiro722 Nytrioum Drapri Guu-ta-life Whirlpool Slobbish Dragon Princess visual novel eroge opening op japanese pop jpop j-pop video game and version
BeatmapID:2985417
BeatmapSetID:1438500

[Difficulty]
HPDrainRate:6
CircleSize:2
OverallDifficulty:4.5
ApproachRate:5
SliderMultiplier:1.4
SliderTickRate:1

[Events]
//Background and Video events
0,0,"2.jpg",0,60
//Break Periods
//Storyboard Layer 0 (Background)
//Storyboard Layer 1 (Fail)
//Storyboard Layer 2 (Pass)
//Storyboard Layer 3 (Foreground)
//Storyboard Layer 4 (Overlay)
//Storyboard Sound Samples

[TimingPoints]
2204,428.571428571429,4,1,0,90,1,0
62204,-100,4,1,0,100,0,1
89632,-100,4,1,0,100,0,0
89739,-100,4,1,0,90,0,0

[HitObjects]
255,191,2204,5,0,0:0:0:0:
255,191,2418,1,8,0:0:0:0:
255,191,2632,1,8,0:0:0:0:
255,191,2846,1,0,0:0:0:0:
255,191,3061,1,8,0:0:0:0:
255,191,3489,1,8,0:0:0:0:
255,191,3704,1,8,0:0:0:0:
255,191,3918,1,0,0:0:0:0:
255,191,4346,1,0,0:0:0:0:
255,191,4561,1,8,0:0:0:0:
255,191,4775,1,0,0:0:0:0:
255,191,5204,1,8,0:0:0:0:
255,191,5632,1,0,0:0:0:0:
255,191,5846,1,8,0:0:0:0:
255,191,6061,1,8,0:0:0:0:
255,191,6275,1,0,0:0:0:0:
255,191,6489,1,8,0:0:0:0:
255,191,6918,1,0,0:0:0:0:
255,191,7132,1,8,0:0:0:0:
255,191,7346,1,12,0:0:0:0:
255,191,8204,1,0,0:0:0:0:
255,191,8311,1,0,0:0:0:0:
255,191,8525,1,8,0:0:0:0:
255,191,8739,1,8,0:0:0:0:
255,191,8846,1,8,0:0:0:0:
255,191,9061,1,4,0:0:0:0:
255,191,9489,1,8,0:0:0:0:
255,191,9596,1,8,0:0:0:0:
255,191,9704,1,8,0:0:0:0:
255,191,9918,1,0,0:0:0:0:
255,191,10346,1,8,0:0:0:0:
255,191,10561,1,0,0:0:0:0:
255,191,10775,1,0,0:0:0:0:
255,191,11204,1,0,0:0:0:0:
255,191,11418,1,0,0:0:0:0:
255,191,11632,1,8,0:0:0:0:
255,191,12061,1,8,0:0:0:0:
255,191,12489,1,0,0:0:0:0:
255,191,12704,1,8,0:0:0:0:
255,191,12918,1,0,0:0:0:0:
255,191,13025,1,0,0:0:0:0:
255,191,13132,1,0,0:0:0:0:
255,191,13346,1,8,0:0:0:0:
255,191,13775,1,0,0:0:0:0:
255,191,13989,1,8,0:0:0:0:
255,191,14204,1,0,0:0:0:0:
255,191,14632,1,8,0:0:0:0:
255,191,14846,1,0,0:0:0:0:
255,191,15061,1,8,0:0:0:0:
255,191,15489,1,0,0:0:0:0:
255,191,15918,1,8,0:0:0:0:
255,191,16561,1,0,0:0:0:0:
255,191,16775,1,8,0:0:0:0:
255,191,17632,1,0,0:0:0:0:
255,191,17846,1,0,0:0:0:0:
255,191,18275,1,8,0:0:0:0:
255,191,18382,1,8,0:0:0:0:
255,191,18489,1,8,0:0:0:0:
255,191,18704,1,4,0:0:0:0:
255,191,19132,1,0,0:0:0:0:
255,191,19346,1,8,0:0:0:0:
255,191,19989,1,8,0:0:0:0:
255,191,20418,1,0,0:0:0:0:
255,191,20846,1,8,0:0:0:0:
255,191,21061,1,8,0:0:0:0:
255,191,21275,1,0,0:0:0:0:
255,191,21489,1,8,0:0:0:0:
255,191,21918,1,0,0:0:0:0:
255,191,22346,1,8,0:0:0:0:
255,191,22775,1,0,0:0:0:0:
255,191,23418,1,8,0:0:0:0:
255,191,23846,1,0,0:0:0:0:
255,191,24275,1,8,0:0:0:0:
255,191,24489,1,8,0:0:0:0:
255,191,24704,1,0,0:0:0:0:
255,191,24918,1,8,0:0:0:0:
255,191,25346,1,0,0:0:0:0:
255,191,25775,1,8,0:0:0:0:
255,191,26204,1,0,0:0:0:0:
255,191,26846,1,8,0:0:0:0:
255,191,27275,1,8,0:0:0:0:
255,191,27489,1,0,0:0:0:0:
255,191,27704,1,8,0:0:0:0:
255,191,27918,1,8,0:0:0:0:
255,191,28346,1,0,0:0:0:0:
255,191,28561,1,8,0:0:0:0:
255,191,28989,1,8,0:0:0:0:
255,191,29418,1,8,0:0:0:0:
255,191,29632,1,0,0:0:0:0:
255,191,29846,1,0,0:0:0:0:
255,191,30061,1,8,0:0:0:0:
255,191,30918,1,0,0:0:0:0:
255,191,31346,1,8,0:0:0:0:
255,191,31775,1,0,0:0:0:0:
255,191,32204,1,8,0:0:0:0:
255,191,32418,1,0,0:0:0:0:
255,191,32525,1,0,0:0:0:0:
255,191,32632,1,0,0:0:0:0:
255,191,32846,1,0,0:0:0:0:
255,191,33061,1,8,0:0:0:0:
255,191,33704,1,8,0:0:0:0:
255,191,34132,1,0,0:0:0:0:
255,191,34561,1,8,0:0:0:0:
255,191,34775,1,0,0:0:0:0:
255,191,34989,1,0,0:0:0:0:
255,191,35204,1,8,0:0:0:0:
255,191,35632,1,0,0:0:0:0:
255,191,35846,1,0,0:0:0:0:
255,191,36061,1,8,0:0:0:0:
255,191,36489,1,8,0:0:0:0:
255,191,37132,1,8,0:0:0:0:
255,191,37561,1,0,0:0:0:0:
255,191,37775,1,0,0:0:0:0:
255,191,37989,1,8,0:0:0:0:
255,191,38204,1,0,0:0:0:0:
255,191,38418,1,0,0:0:0:0:
255,191,38632,1,8,0:0:0:0:
255,191,39061,1,8,0:0:0:0:
255,191,39168,1,8,0:0:0:0:
255,191,39275,1,8,0:0:0:0:
255,191,39489,1,0,0:0:0:0:
255,191,39918,1,0,0:0:0:0:
255,191,40561,1,8,0:0:0:0:
255,191,40989,1,0,0:0:0:0:
255,191,41204,1,0,0:0:0:0:
255,191,41418,1,8,0:0:0:0:
255,191,41632,1,0,0:0:0:0:
255,191,42061,1,8,0:0:0:0:
255,191,42275,1,0,0:0:0:0:
255,191,42704,1,0,0:0:0:0:
255,191,42811,1,0,0:0:0:0:
255,191,42918,1,0,0:0:0:0:
255,191,43132,1,8,0:0:0:0:
255,191,43346,1,0,0:0:0:0:
255,191,43561,1,0,0:0:0:0:
255,191,43775,1,8,0:0:0:0:
255,191,44632,1,0,0:0:0:0:
255,191,45061,1,8,0:0:0:0:
255,191,45489,1,0,0:0:0:0:
255,191,45704,1,8,0:0:0:0:
255,191,46132,1,8,0:0:0:0:
255,191,46346,1,0,0:0:0:0:
255,191,46561,1,0,0:0:0:0:
255,191,46775,1,8,0:0:0:0:
255,191,47096,1,8,0:0:0:0:
255,191,47204,1,0,0:0:0:0:
255,191,47418,1,8,0:0:0:0:
255,191,48061,1,12,0:0:0:0:
255,191,48489,1,8,0:0:0:0:
255,191,48918,1,0,0:0:0:0:
255,191,49132,1,8,0:0:0:0:
255,191,49561,1,0,0:0:0:0:
255,191,49775,1,8,0:0:0:0:
255,191,49989,1,8,0:0:0:0:
255,191,50096,1,8,0:0:0:0:
255,191,50204,1,8,0:0:0:0:
255,191,50525,1,0,0:0:0:0:
255,191,50632,1,8,0:0:0:0:
255,191,50846,1,8,0:0:0:0:
255,191,51489,1,0,0:0:0:0:
255,191,51918,1,8,0:0:0:0:
255,191,52346,1,0,0:0:0:0:
255,191,52561,1,8,0:0:0:0:
255,191,52989,1,8,0:0:0:0:
255,191,53096,1,8,0:0:0:0:
255,191,53204,1,8,0:0:0:0:
255,191,53418,1,0,0:0:0:0:
255,191,53632,1,8,0:0:0:0:
255,191,53954,1,8,0:0:0:0:
255,191,54061,1,0,0:0:0:0:
255,191,54275,1,8,0:0:0:0:
255,191,54918,1,12,0:0:0:0:
255,191,55346,1,8,0:0:0:0:
255,191,55561,1,0,0:0:0:0:
255,191,55989,1,8,0:0:0:0:
255,191,56418,1,0,0:0:0:0:
255,191,56632,1,8,0:0:0:0:
255,191,56846,1,8,0:0:0:0:
255,191,56954,1,8,0:0:0:0:
255,191,57061,1,8,0:0:0:0:
255,191,57275,1,8,0:0:0:0:
255,191,57489,1,0,0:0:0:0:
255,191,57704,1,8,0:0:0:0:
255,191,58132,1,0,0:0:0:0:
255,191,58346,1,8,0:0:0:0:
255,191,58775,1,8,0:0:0:0:
255,191,58989,1,0,0:0:0:0:
255,191,59204,1,8,0:0:0:0:
255,191,59418,1,8,0:0:0:0:
255,191,59525,1,8,0:0:0:0:
255,191,59632,1,8,0:0:0:0:
255,191,59846,1,0,0:0:0:0:
255,191,60061,1,8,0:0:0:0:
255,191,60275,1,8,0:0:0:0:
255,191,60382,1,8,0:0:0:0:
255,191,60489,1,8,0:0:0:0:
255,191,60811,1,8,0:0:0:0:
255,191,61132,1,8,0:0:0:0:
255,191,61775,1,4,0:0:0:0:
255,191,62204,1,4,0:0:0:0:
255,191,62418,1,0,0:0:0:0:
255,191,62632,1,8,0:0:0:0:
255,191,62846,1,0,0:0:0:0:
255,191,63275,1,0,0:0:0:0:
255,191,63489,1,8,0:0:0:0:
255,191,63704,1,8,0:0:0:0:
255,191,63918,1,0,0:0:0:0:
255,191,64346,1,0,0:0:0:0:
255,191,64561,1,8,0:0:0:0:
255,191,64989,1,8,0:0:0:0:
255,191,65204,1,8,0:0:0:0:
255,191,65418,1,0,0:0:0:0:
255,191,65632,1,8,0:0:0:0:
255,191,66061,1,8,0:0:0:0:
255,191,66489,1,0,0:0:0:0:
255,191,66704,1,8,0:0:0:0:
255,191,66918,1,0,0:0:0:0:
255,191,67132,1,0,0:0:0:0:
248,194,67239,1,0,0:0:0:0:
255,191,67346,1,0,0:0:0:0:
255,191,67561,1,8,0:0:0:0:
255,191,67989,1,0,0:0:0:0:
255,191,68204,1,8,0:0:0:0:
255,191,68418,1,0,0:0:0:0:
255,191,69061,1,8,0:0:0:0:
255,191,69489,1,0,0:0:0:0:
255,191,69704,1,8,0:0:0:0:
255,191,69918,1,0,0:0:0:0:
255,191,70346,1,0,0:0:0:0:
255,191,70561,1,8,0:0:0:0:
255,191,70668,1,8,0:0:0:0:
255,191,70775,1,8,0:0:0:0:
255,191,70989,1,8,0:0:0:0:
255,191,71204,1,0,0:0:0:0:
255,191,71418,1,0,0:0:0:0:
255,191,71632,1,8,0:0:0:0:
255,191,71954,1,8,0:0:0:0:
255,191,72704,1,0,0:0:0:0:
255,191,72918,1,8,0:0:0:0:
255,191,73132,1,0,0:0:0:0:
255,191,73239,1,0,0:0:0:0:
255,191,73346,1,0,0:0:0:0:
255,191,73561,1,8,0:0:0:0:
255,191,73775,1,0,0:0:0:0:
255,191,73989,1,8,0:0:0:0:
255,191,74418,1,0,0:0:0:0:
255,191,74632,1,8,0:0:0:0:
255,191,74846,1,8,0:0:0:0:
255,191,74954,1,8,0:0:0:0:
255,191,75061,1,8,0:0:0:0:
255,191,75275,1,0,0:0:0:0:
255,191,75489,1,8,0:0:0:0:
255,191,75918,1,0,0:0:0:0:
255,191,76025,1,0,0:0:0:0:
255,191,76132,1,0,0:0:0:0:
255,191,76346,1,8,0:0:0:0:
255,191,76561,1,0,0:0:0:0:
255,191,77204,1,8,0:0:0:0:
255,191,77418,1,0,0:0:0:0:
255,191,77632,1,8,0:0:0:0:
255,191,77846,1,8,0:0:0:0:
255,191,78061,1,0,0:0:0:0:
255,191,78275,1,8,0:0:0:0:
255,191,78704,1,0,0:0:0:0:
255,191,78811,1,0,0:0:0:0:
255,191,78918,1,0,0:0:0:0:
255,191,79132,1,0,0:0:0:0:
255,191,79346,1,8,0:0:0:0:
255,191,79561,1,8,0:0:0:0:
255,191,79775,1,0,0:0:0:0:
255,191,80204,1,8,0:0:0:0:
255,191,80311,1,8,0:0:0:0:
255,191,80418,1,8,0:0:0:0:
255,191,80632,1,8,0:0:0:0:
255,191,80846,1,8,0:0:0:0:
255,191,81061,1,0,0:0:0:0:
255,191,81275,1,8,0:0:0:0:
255,191,81704,1,8,0:0:0:0:
255,191,81918,1,0,0:0:0:0:
255,191,82132,1,8,0:0:0:0:
255,191,82775,1,8,0:0:0:0:
255,191,82989,1,8,0:0:0:0:
255,191,83204,1,0,0:0:0:0:
255,191,83418,1,8,0:0:0:0:
255,191,83632,1,0,0:0:0:0:
255,191,84061,1,8,0:0:0:0:
255,191,84275,1,0,0:0:0:0:
255,191,84382,1,0,0:0:0:0:
255,191,84489,1,0,0:0:0:0:
255,191,84704,1,8,0:0:0:0:
255,191,84918,1,8,0:0:0:0:
255,191,85132,1,0,0:0:0:0:
255,191,85346,1,8,0:0:0:0:
255,191,85668,1,8,0:0:0:0:
255,191,86418,1,8,0:0:0:0:
255,191,86632,1,0,0:0:0:0:
255,191,86846,1,8,0:0:0:0:
255,191,87061,1,8,0:0:0:0:
255,191,87489,1,8,0:0:0:0:
255,191,87596,1,8,0:0:0:0:
255,191,87704,1,8,0:0:0:0:
255,191,87918,1,4,0:0:0:0:
255,191,88561,1,12,0:0:0:0:
255,191,89204,1,4,0:0:0:0:
255,191,89418,1,8,0:0:0:0:
255,191,89525,1,8,0:0:0:0:
255,191,89632,1,8,0:0:0:0:
255,191,90275,1,0,0:0:0:0:
255,191,90489,1,8,0:0:0:0:
255,191,91132,1,0,0:0:0:0:
255,191,91239,1,0,0:0:0:0:
255,191,91346,1,0,0:0:0:0:
255,191,91668,1,8,0:0:0:0:
255,191,91989,1,0,0:0:0:0:
255,191,92418,1,0,0:0:0:0:
255,191,92525,1,0,0:0:0:0:
255,191,92632,1,0,0:0:0:0:
255,191,92846,1,8,0:0:0:0:
255,191,93061,1,4,0:0:0:0:
255,191,94561,1,8,0:0:0:0:
255,191,94668,1,8,0:0:0:0:
255,191,94775,1,8,0:0:0:0:
