osu file format v14

[General]
AudioFilename: audio.mp3
AudioLeadIn: 0
PreviewTime: 62096
Countdown: 0
SampleSet: Normal
StackLeniency: 0.7
Mode: 1
LetterboxInBreaks: 0
WidescreenStoryboard: 0

[Editor]
Bookmarks: 15918,33061,46775
DistanceSpacing: 1.4
BeatDivisor: 4
GridSize: 32
TimelineZoom: 2.1

[Metadata]
Title:Try & Fly (Short Ver.)
TitleUnicode:Try & Fly (Short Ver.)
Artist:Sakakibara Yui / Yakushi Ruri
ArtistUnicode:榊原ゆい / 薬師るり
Creator:[R]
Version:Inner Oni
Source:竜姫ぐーたらいふ
Tags:ron yuki_momoiro722 Nytrioum Drapri Guu-ta-life Whirlpool Slobbish Dragon Princess visual novel eroge opening op japanese pop jpop j-pop video game and version
BeatmapID:2959878
BeatmapSetID:1438500

[Difficulty]
HPDrainRate:5.5
CircleSize:5
OverallDifficulty:6
ApproachRate:5
SliderMultiplier:1.4
SliderTickRate:1

[Events]
//Background and Video events
0,0,"1.jpg",0,60
//Break Periods
//Storyboard Layer 0 (Background)
//Storyboard Layer 1 (Fail)
//Storyboard Layer 2 (Pass)
//Storyboard Layer 3 (Foreground)
//Storyboard Layer 4 (Overlay)
//Storyboard Sound Samples

[TimingPoints]
2204,428.571428571429,4,1,0,90,1,0
62204,-90.9090909090909,4,1,0,100,0,1
89471,-95.2380952380952,4,1,0,100,0,1
89632,-100,4,1,0,100,0,0
89741,-100,4,1,0,90,0,0

[HitObjects]
256,192,597,5,0,0:0:0:0:
256,192,704,1,8,0:0:0:0:
256,192,918,1,8,0:0:0:0:
256,192,1025,1,8,0:0:0:0:
256,192,1240,1,8,0:0:0:0:
256,192,1347,1,0,0:0:0:0:
256,192,1561,1,0,0:0:0:0:
256,192,1775,1,0,0:0:0:0:
256,192,1882,1,0,0:0:0:0:
256,192,1990,1,8,0:0:0:0:
256,192,2097,1,8,0:0:0:0:
256,192,2204,1,0,0:0:0:0:
256,192,2311,1,8,0:0:0:0:
256,192,2418,1,8,0:0:0:0:
256,192,2525,1,0,0:0:0:0:
256,192,2632,1,8,0:0:0:0:
256,192,2739,1,8,0:0:0:0:
256,192,2846,1,8,0:0:0:0:
256,192,2954,1,8,0:0:0:0:
256,192,3061,1,0,0:0:0:0:
256,192,3275,1,8,0:0:0:0:
256,192,3489,1,8,0:0:0:0:
256,192,3704,1,8,0:0:0:0:
256,192,3918,1,0,0:0:0:0:
256,192,4025,1,8,0:0:0:0:
256,192,4132,1,8,0:0:0:0:
256,192,4239,1,0,0:0:0:0:
256,192,4346,1,8,0:0:0:0:
256,192,4454,1,8,0:0:0:0:
256,192,4561,1,0,0:0:0:0:
256,192,4668,1,8,0:0:0:0:
256,192,4775,1,0,0:0:0:0:
256,192,4989,1,8,0:0:0:0:
256,192,5204,1,8,0:0:0:0:
256,192,5632,1,0,0:0:0:0:
256,192,5739,1,8,0:0:0:0:
256,192,5846,1,8,0:0:0:0:
256,192,5954,1,0,0:0:0:0:
256,192,6061,1,8,0:0:0:0:
256,192,6168,1,8,0:0:0:0:
256,192,6275,1,8,0:0:0:0:
256,192,6382,1,8,0:0:0:0:
256,192,6489,1,0,0:0:0:0:
256,192,6704,1,8,0:0:0:0:
256,192,6918,1,8,0:0:0:0:
256,192,7132,1,8,0:0:0:0:
256,192,7346,1,4,0:0:0:0:
256,192,8204,1,8,0:0:0:0:
256,192,8311,1,8,0:0:0:0:
256,192,8525,1,8,0:0:0:0:
256,192,8739,1,8,0:0:0:0:
256,192,8846,1,8,0:0:0:0:
256,192,8954,1,8,0:0:0:0:
256,192,9061,1,4,0:0:0:0:
256,192,9275,1,8,0:0:0:0:
256,192,9382,1,0,0:0:0:0:
256,192,9489,1,8,0:0:0:0:
256,192,9596,1,8,0:0:0:0:
256,192,9704,1,0,0:0:0:0:
256,192,9811,1,8,0:0:0:0:
256,192,9918,1,0,0:0:0:0:
256,192,10132,1,8,0:0:0:0:
256,192,10346,1,8,0:0:0:0:
256,192,10561,1,8,0:0:0:0:
256,192,10775,1,0,0:0:0:0:
256,192,10882,1,8,0:0:0:0:
256,192,10989,1,0,0:0:0:0:
256,192,11096,1,0,0:0:0:0:
256,192,11204,1,8,0:0:0:0:
256,192,11311,1,8,0:0:0:0:
256,192,11418,1,0,0:0:0:0:
256,192,11632,1,12,0:0:0:0:
256,192,11846,1,0,0:0:0:0:
256,192,12061,1,12,0:0:0:0:
256,192,12275,1,0,0:0:0:0:
256,192,12489,1,0,0:0:0:0:
256,192,12596,1,0,0:0:0:0:
256,192,12704,1,8,0:0:0:0:
256,192,12811,1,0,0:0:0:0:
256,192,12918,1,8,0:0:0:0:
256,192,13025,1,8,0:0:0:0:
256,192,13132,1,0,0:0:0:0:
256,192,13239,1,8,0:0:0:0:
256,192,13346,1,0,0:0:0:0:
256,192,13561,1,8,0:0:0:0:
256,192,13775,1,8,0:0:0:0:
256,192,13989,1,8,0:0:0:0:
256,192,14204,1,0,0:0:0:0:
256,192,14311,1,8,0:0:0:0:
256,192,14418,1,0,0:0:0:0:
256,192,14525,1,0,0:0:0:0:
256,192,14632,1,8,0:0:0:0:
256,192,14739,1,8,0:0:0:0:
256,192,14846,1,0,0:0:0:0:
256,192,15061,1,0,0:0:0:0:
256,192,15168,1,0,0:0:0:0:
256,192,15275,1,8,0:0:0:0:
256,192,15489,1,8,0:0:0:0:
256,192,15704,1,8,0:0:0:0:
256,192,15811,1,8,0:0:0:0:
256,192,15918,1,4,0:0:0:0:
256,192,16561,1,0,0:0:0:0:
256,192,16775,1,8,0:0:0:0:
256,192,17632,1,0,0:0:0:0:
256,192,17846,1,0,0:0:0:0:
256,192,18275,1,0,0:0:0:0:
256,192,18382,1,0,0:0:0:0:
256,192,18489,1,8,0:0:0:0:
256,192,18704,1,8,0:0:0:0:
256,192,18918,1,0,0:0:0:0:
256,192,19132,1,0,0:0:0:0:
256,192,19346,1,12,0:0:0:0:
256,192,19775,1,0,0:0:0:0:
256,192,19989,1,8,0:0:0:0:
256,192,20204,1,8,0:0:0:0:
256,192,20418,1,0,0:0:0:0:
256,192,20846,1,8,0:0:0:0:
256,192,21061,1,8,0:0:0:0:
256,192,21275,1,0,0:0:0:0:
256,192,21489,1,0,0:0:0:0:
256,192,21918,1,0,0:0:0:0:
256,192,22132,1,0,0:0:0:0:
256,192,22346,1,8,0:0:0:0:
256,192,22775,1,0,0:0:0:0:
256,192,23204,1,8,0:0:0:0:
256,192,23418,1,0,0:0:0:0:
256,192,23632,1,0,0:0:0:0:
256,192,23846,1,8,0:0:0:0:
256,192,24275,1,0,0:0:0:0:
256,192,24489,1,0,0:0:0:0:
256,192,24704,1,8,0:0:0:0:
256,192,24918,1,8,0:0:0:0:
256,192,25346,1,8,0:0:0:0:
256,192,25561,1,8,0:0:0:0:
256,192,25775,1,0,0:0:0:0:
256,192,26204,1,8,0:0:0:0:
256,192,26632,1,0,0:0:0:0:
256,192,26846,1,8,0:0:0:0:
256,192,27061,1,0,0:0:0:0:
256,192,27275,1,8,0:0:0:0:
256,192,27704,1,8,0:0:0:0:
256,192,27918,1,8,0:0:0:0:
256,192,28346,1,8,0:0:0:0:
256,192,28561,1,0,0:0:0:0:
256,192,28775,1,8,0:0:0:0:
256,192,28989,1,0,0:0:0:0:
256,192,29204,1,8,0:0:0:0:
256,192,29418,1,8,0:0:0:0:
256,192,29632,1,0,0:0:0:0:
256,192,29846,1,8,0:0:0:0:
256,192,30061,1,0,0:0:0:0:
256,192,30489,1,0,0:0:0:0:
256,192,30704,1,8,0:0:0:0:
256,192,30918,1,0,0:0:0:0:
256,192,31132,1,8,0:0:0:0:
256,192,31561,1,0,0:0:0:0:
256,192,31668,1,0,0:0:0:0:
256,192,31775,1,0,0:0:0:0:
256,192,31989,1,8,0:0:0:0:
256,192,32204,1,0,0:0:0:0:
256,192,32418,1,0,0:0:0:0:
256,192,32525,1,0,0:0:0:0:
256,192,32632,1,8,0:0:0:0:
256,192,32846,1,8,0:0:0:0:
256,192,32954,1,8,0:0:0:0:
256,192,33061,1,4,0:0:0:0:
256,192,33382,1,0,0:0:0:0:
256,192,33489,1,8,0:0:0:0:
256,192,33704,1,0,0:0:0:0:
256,192,33918,1,0,0:0:0:0:
256,192,34025,1,8,0:0:0:0:
256,192,34132,1,0,0:0:0:0:
256,192,34346,1,8,0:0:0:0:
256,192,34561,1,0,0:0:0:0:
256,192,34775,1,8,0:0:0:0:
256,192,34882,1,0,0:0:0:0:
256,192,34989,1,8,0:0:0:0:
256,192,35096,1,8,0:0:0:0:
256,192,35204,1,0,0:0:0:0:
256,192,35418,1,8,0:0:0:0:
256,192,35632,1,0,0:0:0:0:
256,192,35739,1,8,0:0:0:0:
256,192,35846,1,0,0:0:0:0:
256,192,35954,1,0,0:0:0:0:
256,192,36061,1,8,0:0:0:0:
256,192,36275,1,0,0:0:0:0:
256,192,36489,1,8,0:0:0:0:
256,192,36811,1,8,0:0:0:0:
256,192,36918,1,0,0:0:0:0:
256,192,37132,1,8,0:0:0:0:
256,192,37346,1,0,0:0:0:0:
256,192,37454,1,8,0:0:0:0:
256,192,37561,1,0,0:0:0:0:
256,192,37775,1,8,0:0:0:0:
256,192,37989,1,0,0:0:0:0:
256,192,38204,1,8,0:0:0:0:
256,192,38311,1,8,0:0:0:0:
256,192,38418,1,0,0:0:0:0:
256,192,38525,1,0,0:0:0:0:
256,192,38632,1,8,0:0:0:0:
256,192,38846,1,8,0:0:0:0:
256,192,38954,1,0,0:0:0:0:
256,192,39061,1,8,0:0:0:0:
256,192,39168,1,8,0:0:0:0:
256,192,39275,1,0,0:0:0:0:
256,192,39489,1,8,0:0:0:0:
256,192,39704,1,8,0:0:0:0:
256,192,39918,1,0,0:0:0:0:
256,192,40239,1,0,0:0:0:0:
256,192,40346,1,8,0:0:0:0:
256,192,40561,1,0,0:0:0:0:
256,192,40775,1,0,0:0:0:0:
256,192,40882,1,8,0:0:0:0:
256,192,40989,1,0,0:0:0:0:
256,192,41204,1,8,0:0:0:0:
256,192,41418,1,0,0:0:0:0:
256,192,41632,1,8,0:0:0:0:
256,192,41954,1,8,0:0:0:0:
256,192,42061,1,0,0:0:0:0:
256,192,42275,1,8,0:0:0:0:
256,192,42489,1,8,0:0:0:0:
256,192,42596,1,0,0:0:0:0:
256,192,42704,1,8,0:0:0:0:
256,192,42918,1,0,0:0:0:0:
256,192,43132,1,8,0:0:0:0:
256,192,43346,1,0,0:0:0:0:
256,192,43454,1,0,0:0:0:0:
256,192,43561,1,8,0:0:0:0:
256,192,43668,1,8,0:0:0:0:
256,192,43775,1,0,0:0:0:0:
256,192,43989,1,8,0:0:0:0:
256,192,44204,1,0,0:0:0:0:
256,192,44311,1,8,0:0:0:0:
256,192,44418,1,0,0:0:0:0:
256,192,44525,1,0,0:0:0:0:
256,192,44632,1,8,0:0:0:0:
256,192,44846,1,0,0:0:0:0:
256,192,45061,1,8,0:0:0:0:
256,192,45168,1,8,0:0:0:0:
256,192,45275,1,0,0:0:0:0:
256,192,45382,1,0,0:0:0:0:
256,192,45489,1,8,0:0:0:0:
256,192,45704,1,8,0:0:0:0:
256,192,45811,1,0,0:0:0:0:
256,192,45918,1,8,0:0:0:0:
256,192,46025,1,8,0:0:0:0:
256,192,46132,1,0,0:0:0:0:
256,192,46239,1,0,0:0:0:0:
256,192,46346,1,8,0:0:0:0:
256,192,46454,1,8,0:0:0:0:
256,192,46561,1,0,0:0:0:0:
256,192,46775,1,12,0:0:0:0:
256,192,47096,1,0,0:0:0:0:
256,192,47204,1,0,0:0:0:0:
256,192,47418,1,8,0:0:0:0:
256,192,47632,1,0,0:0:0:0:
256,192,47739,1,8,0:0:0:0:
256,192,47846,1,0,0:0:0:0:
256,192,48061,1,12,0:0:0:0:
256,192,48275,1,8,0:0:0:0:
256,192,48382,1,8,0:0:0:0:
256,192,48489,1,0,0:0:0:0:
256,192,48704,1,0,0:0:0:0:
256,192,48918,1,8,0:0:0:0:
256,192,49132,1,8,0:0:0:0:
256,192,49239,1,0,0:0:0:0:
256,192,49454,1,0,0:0:0:0:
256,192,49561,1,8,0:0:0:0:
256,192,49775,1,8,0:0:0:0:
256,192,49989,1,8,0:0:0:0:
256,192,50096,1,0,0:0:0:0:
256,192,50204,1,8,0:0:0:0:
256,192,50525,1,8,0:0:0:0:
256,192,50632,1,0,0:0:0:0:
256,192,50846,1,8,0:0:0:0:
256,192,51061,1,0,0:0:0:0:
256,192,51168,1,0,0:0:0:0:
256,192,51275,1,8,0:0:0:0:
256,192,51489,1,8,0:0:0:0:
256,192,51704,1,0,0:0:0:0:
256,192,51918,1,8,0:0:0:0:
256,192,52132,1,0,0:0:0:0:
256,192,52239,1,8,0:0:0:0:
256,192,52346,1,0,0:0:0:0:
256,192,52561,1,8,0:0:0:0:
256,192,52775,1,0,0:0:0:0:
256,192,52882,1,8,0:0:0:0:
256,192,52989,1,0,0:0:0:0:
256,192,53096,1,0,0:0:0:0:
256,192,53204,1,8,0:0:0:0:
256,192,53418,1,0,0:0:0:0:
256,192,53632,1,12,0:0:0:0:
256,192,53954,1,0,0:0:0:0:
256,192,54061,1,0,0:0:0:0:
256,192,54275,1,8,0:0:0:0:
256,192,54489,1,0,0:0:0:0:
256,192,54596,1,8,0:0:0:0:
256,192,54704,1,0,0:0:0:0:
256,192,54918,1,12,0:0:0:0:
256,192,55132,1,8,0:0:0:0:
256,192,55239,1,8,0:0:0:0:
256,192,55346,1,0,0:0:0:0:
256,192,55561,1,0,0:0:0:0:
256,192,55775,1,8,0:0:0:0:
256,192,55989,1,8,0:0:0:0:
256,192,56096,1,0,0:0:0:0:
256,192,56311,1,0,0:0:0:0:
256,192,56418,1,8,0:0:0:0:
256,192,56632,1,8,0:0:0:0:
256,192,56846,1,0,0:0:0:0:
256,192,56954,1,0,0:0:0:0:
256,192,57007,1,0,0:0:0:0:
256,192,57061,1,8,0:0:0:0:
256,192,57275,1,0,0:0:0:0:
256,192,57489,1,8,0:0:0:0:
256,192,57704,1,0,0:0:0:0:
256,192,57811,1,0,0:0:0:0:
256,192,57918,1,8,0:0:0:0:
256,192,58025,1,8,0:0:0:0:
256,192,58132,1,0,0:0:0:0:
256,192,58346,1,8,0:0:0:0:
256,192,58561,1,0,0:0:0:0:
256,192,58668,1,0,0:0:0:0:
256,192,58775,1,8,0:0:0:0:
256,192,58989,1,0,0:0:0:0:
256,192,59204,1,8,0:0:0:0:
256,192,59418,1,8,0:0:0:0:
256,192,59525,1,0,0:0:0:0:
256,192,59632,1,8,0:0:0:0:
256,192,59739,1,8,0:0:0:0:
256,192,59846,1,0,0:0:0:0:
256,192,59954,1,0,0:0:0:0:
256,192,60061,1,8,0:0:0:0:
256,192,60275,1,0,0:0:0:0:
256,192,60489,1,12,0:0:0:0:
256,192,60811,1,12,0:0:0:0:
256,192,61132,1,12,0:0:0:0:
256,192,61561,1,0,0:0:0:0:
256,192,61775,1,12,0:0:0:0:
256,192,61989,1,0,0:0:0:0:
256,192,62204,1,4,0:0:0:0:
256,192,62418,1,8,0:0:0:0:
256,192,62632,1,0,0:0:0:0:
256,192,62846,1,8,0:0:0:0:
256,192,62954,1,8,0:0:0:0:
256,192,63061,1,0,0:0:0:0:
256,192,63168,1,0,0:0:0:0:
256,192,63275,1,8,0:0:0:0:
256,192,63489,1,8,0:0:0:0:
256,192,63704,1,8,0:0:0:0:
256,192,63811,1,0,0:0:0:0:
256,192,63918,1,8,0:0:0:0:
256,192,64025,1,8,0:0:0:0:
256,192,64132,1,0,0:0:0:0:
256,192,64346,1,8,0:0:0:0:
256,192,64561,1,0,0:0:0:0:
256,192,64775,1,0,0:0:0:0:
256,192,64882,1,8,0:0:0:0:
256,192,64989,1,0,0:0:0:0:
256,192,65204,1,8,0:0:0:0:
256,192,65418,1,0,0:0:0:0:
256,192,65632,1,0,0:0:0:0:
256,192,65739,1,0,0:0:0:0:
256,192,65846,1,8,0:0:0:0:
256,192,66061,1,8,0:0:0:0:
256,192,66275,1,8,0:0:0:0:
256,192,66382,1,0,0:0:0:0:
256,192,66489,1,8,0:0:0:0:
256,192,66596,1,8,0:0:0:0:
256,192,66704,1,0,0:0:0:0:
256,192,66811,1,0,0:0:0:0:
256,192,66918,1,8,0:0:0:0:
256,192,67132,1,8,0:0:0:0:
256,192,67239,1,8,0:0:0:0:
256,192,67346,1,0,0:0:0:0:
256,192,67561,1,0,0:0:0:0:
256,192,67668,1,8,0:0:0:0:
256,192,67775,1,0,0:0:0:0:
256,192,67989,1,8,0:0:0:0:
256,192,68204,1,0,0:0:0:0:
256,192,68418,1,0,0:0:0:0:
256,192,68525,1,0,0:0:0:0:
256,192,68632,1,8,0:0:0:0:
256,192,69061,1,0,0:0:0:0:
256,192,69275,1,8,0:0:0:0:
256,192,69382,1,0,0:0:0:0:
256,192,69489,1,8,0:0:0:0:
256,192,69704,1,0,0:0:0:0:
256,192,69918,1,8,0:0:0:0:
256,192,70025,1,0,0:0:0:0:
256,192,70132,1,8,0:0:0:0:
256,192,70239,1,8,0:0:0:0:
256,192,70346,1,0,0:0:0:0:
256,192,70561,1,8,0:0:0:0:
256,192,70775,1,0,0:0:0:0:
256,192,70882,1,0,0:0:0:0:
256,192,70989,1,8,0:0:0:0:
256,192,71096,1,0,0:0:0:0:
256,192,71204,1,8,0:0:0:0:
256,192,71418,1,0,0:0:0:0:
256,192,71632,1,8,0:0:0:0:
256,192,71739,1,8,0:0:0:0:
256,192,71846,1,0,0:0:0:0:
256,192,71954,1,0,0:0:0:0:
256,192,72061,1,8,0:0:0:0:
256,192,72275,1,8,0:0:0:0:
256,192,72382,1,8,0:0:0:0:
256,192,72489,1,0,0:0:0:0:
256,192,72704,1,0,0:0:0:0:
256,192,72918,1,8,0:0:0:0:
256,192,73239,1,0,0:0:0:0:
256,192,73346,1,8,0:0:0:0:
256,192,73561,1,0,0:0:0:0:
256,192,73775,1,0,0:0:0:0:
256,192,73882,1,0,0:0:0:0:
256,192,73989,1,8,0:0:0:0:
256,192,74204,1,8,0:0:0:0:
256,192,74418,1,0,0:0:0:0:
256,192,74632,1,0,0:0:0:0:
256,192,74739,1,8,0:0:0:0:
256,192,74954,1,8,0:0:0:0:
256,192,75061,1,0,0:0:0:0:
256,192,75168,1,0,0:0:0:0:
256,192,75275,1,8,0:0:0:0:
256,192,75382,1,0,0:0:0:0:
256,192,75489,1,8,0:0:0:0:
256,192,75704,1,8,0:0:0:0:
256,192,75811,1,8,0:0:0:0:
256,192,75918,1,4,0:0:0:0:
256,192,76132,1,8,0:0:0:0:
256,192,76346,1,0,0:0:0:0:
256,192,76561,1,8,0:0:0:0:
256,192,76668,1,8,0:0:0:0:
256,192,76775,1,0,0:0:0:0:
256,192,76882,1,0,0:0:0:0:
256,192,76989,1,8,0:0:0:0:
256,192,77204,1,8,0:0:0:0:
256,192,77418,1,8,0:0:0:0:
256,192,77525,1,0,0:0:0:0:
256,192,77632,1,8,0:0:0:0:
256,192,77739,1,8,0:0:0:0:
256,192,77846,1,0,0:0:0:0:
256,192,78061,1,8,0:0:0:0:
256,192,78275,1,0,0:0:0:0:
256,192,78489,1,0,0:0:0:0:
256,192,78596,1,8,0:0:0:0:
256,192,78704,1,0,0:0:0:0:
256,192,78918,1,8,0:0:0:0:
256,192,79132,1,0,0:0:0:0:
256,192,79346,1,0,0:0:0:0:
256,192,79454,1,0,0:0:0:0:
256,192,79561,1,8,0:0:0:0:
256,192,79775,1,8,0:0:0:0:
256,192,79989,1,8,0:0:0:0:
256,192,80096,1,0,0:0:0:0:
256,192,80204,1,8,0:0:0:0:
256,192,80311,1,8,0:0:0:0:
256,192,80418,1,0,0:0:0:0:
256,192,80525,1,0,0:0:0:0:
256,192,80632,1,8,0:0:0:0:
256,192,80846,1,8,0:0:0:0:
256,192,80954,1,8,0:0:0:0:
256,192,81061,1,0,0:0:0:0:
256,192,81275,1,0,0:0:0:0:
256,192,81382,1,8,0:0:0:0:
256,192,81489,1,0,0:0:0:0:
256,192,81704,1,8,0:0:0:0:
256,192,81918,1,0,0:0:0:0:
256,192,82132,1,8,0:0:0:0:
256,192,82239,1,8,0:0:0:0:
256,192,82346,1,0,0:0:0:0:
256,192,82561,1,8,0:0:0:0:
256,192,82775,1,0,0:0:0:0:
256,192,82882,1,8,0:0:0:0:
256,192,82989,1,8,0:0:0:0:
256,192,83096,1,0,0:0:0:0:
256,192,83204,1,8,0:0:0:0:
256,192,83418,1,0,0:0:0:0:
256,192,83632,1,8,0:0:0:0:
256,192,83739,1,0,0:0:0:0:
256,192,83846,1,8,0:0:0:0:
256,192,83954,1,8,0:0:0:0:
256,192,84061,1,0,0:0:0:0:
256,192,84275,1,8,0:0:0:0:
256,192,84489,1,0,0:0:0:0:
256,192,84596,1,0,0:0:0:0:
256,192,84704,1,8,0:0:0:0:
256,192,84811,1,0,0:0:0:0:
256,192,84918,1,8,0:0:0:0:
256,192,85132,1,0,0:0:0:0:
256,192,85346,1,8,0:0:0:0:
256,192,85454,1,8,0:0:0:0:
256,192,85561,1,0,0:0:0:0:
256,192,85668,1,0,0:0:0:0:
256,192,85775,1,8,0:0:0:0:
256,192,85989,1,8,0:0:0:0:
256,192,86096,1,8,0:0:0:0:
256,192,86204,1,0,0:0:0:0:
256,192,86418,1,0,0:0:0:0:
256,192,86632,1,8,0:0:0:0:
256,192,86846,1,0,0:0:0:0:
256,192,86954,1,0,0:0:0:0:
256,192,87061,1,8,0:0:0:0:
256,192,87168,1,0,0:0:0:0:
256,192,87275,1,8,0:0:0:0:
256,192,87382,1,0,0:0:0:0:
256,192,87489,1,8,0:0:0:0:
256,192,87596,1,8,0:0:0:0:
256,192,87704,1,0,0:0:0:0:
256,192,87918,1,12,0:0:0:0:
256,192,88561,1,12,0:0:0:0:
256,192,89204,1,12,0:0:0:0:
256,192,89418,1,8,0:0:0:0:
256,192,89525,1,8,0:0:0:0:
256,192,89632,1,4,0:0:0:0:
256,192,90061,1,8,0:0:0:0:
256,192,90275,1,0,0:0:0:0:
256,192,90489,1,8,0:0:0:0:
256,192,90918,1,0,0:0:0:0:
256,192,91132,1,8,0:0:0:0:
256,192,91239,1,8,0:0:0:0:
256,192,91346,1,0,0:0:0:0:
256,192,91561,1,8,0:0:0:0:
256,192,91668,1,0,0:0:0:0:
256,192,91775,1,8,0:0:0:0:
256,192,91989,1,0,0:0:0:0:
256,192,92418,1,0,0:0:0:0:
256,192,92632,1,8,0:0:0:0:
256,192,92846,1,8,0:0:0:0:
256,192,92954,1,8,0:0:0:0:
256,192,93061,1,4,0:0:0:0:
256,192,93489,1,8,0:0:0:0:
256,192,93918,1,8,0:0:0:0:
256,192,94346,1,8,0:0:0:0:
256,192,94561,1,0,0:0:0:0:
256,192,94668,1,0,0:0:0:0:
256,192,94775,1,12,0:0:0:0:
