osu file format v14

[General]
AudioFilename: audio.mp3
AudioLeadIn: 0
PreviewTime: 62096
Countdown: 0
SampleSet: Normal
StackLeniency: 0.7
Mode: 1
LetterboxInBreaks: 0
WidescreenStoryboard: 1

[Editor]
Bookmarks: 15918,33061,46775
DistanceSpacing: 1.4
BeatDivisor: 4
GridSize: 32
TimelineZoom: 1.2

[Metadata]
Title:Try & Fly (Short Ver.)
TitleUnicode:Try & Fly (Short Ver.)
Artist:Sakakibara Yui / Yakushi Ruri
ArtistUnicode:榊原ゆい / 薬師るり
Creator:[R]
Version:Futsuu
Source:竜姫ぐーたらいふ
Tags:ron yuki_momoiro722 Nytrioum Drapri Guu-ta-life Whirlpool Slobbish Dragon Princess visual novel eroge opening op japanese pop jpop j-pop video game and version
BeatmapID:2985414
BeatmapSetID:1438500

[Difficulty]
HPDrainRate:7
CircleSize:5
OverallDifficulty:4
ApproachRate:5
SliderMultiplier:1.4
SliderTickRate:1

[Events]
//Background and Video events
0,0,"1.jpg",0,60
//Break Periods
//Storyboard Layer 0 (Background)
//Storyboard Layer 1 (Fail)
//Storyboard Layer 2 (Pass)
//Storyboard Layer 3 (Foreground)
//Storyboard Layer 4 (Overlay)
//Storyboard Sound Samples

[TimingPoints]
2204,428.571428571429,4,1,0,90,1,0
62204,-100,4,1,0,100,0,1
89632,-100,4,1,0,100,0,0
89739,-100,4,1,0,90,0,0

[HitObjects]
256,192,2204,5,4,0:0:0:0:
256,192,3061,1,0,0:0:0:0:
256,192,3275,1,8,0:0:0:0:
256,192,3489,1,8,0:0:0:0:
256,192,3704,1,8,0:0:0:0:
256,192,3918,1,0,0:0:0:0:
256,192,4775,1,0,0:0:0:0:
256,192,4989,1,8,0:0:0:0:
256,192,5204,1,8,0:0:0:0:
256,192,5632,1,0,0:0:0:0:
256,192,6489,1,0,0:0:0:0:
256,192,6704,1,8,0:0:0:0:
256,192,6918,1,8,0:0:0:0:
256,192,7132,1,8,0:0:0:0:
256,192,7346,1,4,0:0:0:0:
256,192,8204,1,8,0:0:0:0:
256,192,8525,1,8,0:0:0:0:
256,192,8846,1,8,0:0:0:0:
256,192,9061,1,4,0:0:0:0:
256,192,9489,1,8,0:0:0:0:
256,192,9918,1,0,0:0:0:0:
256,192,10132,1,8,0:0:0:0:
256,192,10346,1,8,0:0:0:0:
256,192,10561,1,8,0:0:0:0:
256,192,10775,1,0,0:0:0:0:
256,192,11204,1,0,0:0:0:0:
256,192,11632,1,12,0:0:0:0:
256,192,12061,1,12,0:0:0:0:
256,192,12489,1,0,0:0:0:0:
256,192,12918,1,8,0:0:0:0:
256,192,13346,1,0,0:0:0:0:
256,192,13561,1,8,0:0:0:0:
256,192,13775,1,8,0:0:0:0:
256,192,13989,1,8,0:0:0:0:
256,192,14204,1,0,0:0:0:0:
256,192,14632,1,0,0:0:0:0:
256,192,15061,1,8,0:0:0:0:
256,192,15489,1,8,0:0:0:0:
256,192,15918,1,4,0:0:0:0:
256,192,16561,1,0,0:0:0:0:
256,192,16775,1,8,0:0:0:0:
256,192,17632,1,0,0:0:0:0:
256,192,17846,1,0,0:0:0:0:
256,192,18275,1,0,0:0:0:0:
256,192,18489,1,8,0:0:0:0:
256,192,18704,1,8,0:0:0:0:
256,192,19132,1,0,0:0:0:0:
256,192,19346,1,12,0:0:0:0:
256,192,19989,1,8,0:0:0:0:
256,192,20418,1,0,0:0:0:0:
256,192,20846,1,0,0:0:0:0:
256,192,21061,1,8,0:0:0:0:
256,192,21489,1,0,0:0:0:0:
256,192,22346,1,8,0:0:0:0:
256,192,22775,1,0,0:0:0:0:
256,192,23418,1,0,0:0:0:0:
256,192,23846,1,8,0:0:0:0:
256,192,24275,1,8,0:0:0:0:
256,192,24489,1,0,0:0:0:0:
256,192,24918,1,8,0:0:0:0:
256,192,25775,1,0,0:0:0:0:
256,192,26204,1,8,0:0:0:0:
256,192,26632,1,8,0:0:0:0:
256,192,26846,1,0,0:0:0:0:
256,192,27275,1,8,0:0:0:0:
256,192,27704,1,0,0:0:0:0:
256,192,27918,1,8,0:0:0:0:
256,192,28561,1,8,0:0:0:0:
256,192,28989,1,0,0:0:0:0:
256,192,29204,1,8,0:0:0:0:
256,192,29418,1,8,0:0:0:0:
256,192,29632,1,0,0:0:0:0:
256,192,30061,1,0,0:0:0:0:
256,192,30489,1,0,0:0:0:0:
256,192,30704,1,8,0:0:0:0:
256,192,31132,1,8,0:0:0:0:
256,192,32418,1,0,0:0:0:0:
256,192,32632,1,8,0:0:0:0:
256,192,33061,1,4,0:0:0:0:
256,192,33489,1,8,0:0:0:0:
256,192,33704,1,0,0:0:0:0:
256,192,34132,1,8,0:0:0:0:
256,192,34561,1,0,0:0:0:0:
256,192,34775,1,8,0:0:0:0:
256,192,34989,1,8,0:0:0:0:
256,192,35204,1,0,0:0:0:0:
256,192,36061,1,0,0:0:0:0:
256,192,36489,1,8,0:0:0:0:
256,192,36918,1,0,0:0:0:0:
256,192,37132,1,8,0:0:0:0:
256,192,37561,1,0,0:0:0:0:
256,192,37989,1,8,0:0:0:0:
256,192,38204,1,0,0:0:0:0:
256,192,38418,1,0,0:0:0:0:
256,192,38632,1,8,0:0:0:0:
256,192,39489,1,8,0:0:0:0:
256,192,39918,1,0,0:0:0:0:
256,192,40561,1,0,0:0:0:0:
256,192,40989,1,8,0:0:0:0:
256,192,41418,1,8,0:0:0:0:
256,192,41632,1,0,0:0:0:0:
256,192,42275,1,8,0:0:0:0:
256,192,42704,1,0,0:0:0:0:
256,192,43132,1,0,0:0:0:0:
256,192,43346,1,8,0:0:0:0:
256,192,43561,1,8,0:0:0:0:
256,192,43775,1,0,0:0:0:0:
256,192,44632,1,8,0:0:0:0:
256,192,44846,1,0,0:0:0:0:
256,192,45061,1,8,0:0:0:0:
256,192,45489,1,8,0:0:0:0:
256,192,45704,1,8,0:0:0:0:
256,192,46132,1,0,0:0:0:0:
256,192,46561,1,0,0:0:0:0:
256,192,46775,1,12,0:0:0:0:
256,192,47096,1,0,0:0:0:0:
256,192,47418,1,8,0:0:0:0:
256,192,48275,1,8,0:0:0:0:
256,192,48489,1,0,0:0:0:0:
256,192,48811,1,8,0:0:0:0:
256,192,49132,1,0,0:0:0:0:
256,192,49989,1,0,0:0:0:0:
256,192,50204,1,8,0:0:0:0:
256,192,50525,1,0,0:0:0:0:
256,192,50846,1,8,0:0:0:0:
256,192,51275,1,8,0:0:0:0:
256,192,51489,1,8,0:0:0:0:
256,192,51918,1,0,0:0:0:0:
256,192,52239,1,8,0:0:0:0:
256,192,52561,1,0,0:0:0:0:
256,192,52989,1,8,0:0:0:0:
256,192,53418,1,0,0:0:0:0:
256,192,53632,1,12,0:0:0:0:
256,192,53954,1,0,0:0:0:0:
256,192,54275,1,8,0:0:0:0:
256,192,55132,1,8,0:0:0:0:
256,192,55346,1,0,0:0:0:0:
256,192,55561,1,8,0:0:0:0:
256,192,55989,1,0,0:0:0:0:
256,192,56846,1,0,0:0:0:0:
256,192,57061,1,8,0:0:0:0:
256,192,57489,1,0,0:0:0:0:
256,192,57918,1,8,0:0:0:0:
256,192,58132,1,0,0:0:0:0:
256,192,58346,1,8,0:0:0:0:
256,192,58561,1,0,0:0:0:0:
256,192,58775,1,8,0:0:0:0:
256,192,59204,1,8,0:0:0:0:
256,192,59418,1,0,0:0:0:0:
256,192,59632,1,8,0:0:0:0:
256,192,60061,1,0,0:0:0:0:
256,192,60489,1,12,0:0:0:0:
256,192,60811,1,12,0:0:0:0:
256,192,61132,1,12,0:0:0:0:
256,192,61775,1,12,0:0:0:0:
256,192,62204,1,4,0:0:0:0:
256,192,62418,1,8,0:0:0:0:
256,192,62846,1,8,0:0:0:0:
256,192,63704,1,0,0:0:0:0:
256,192,63918,1,8,0:0:0:0:
256,192,64346,1,8,0:0:0:0:
256,192,64561,1,0,0:0:0:0:
256,192,64989,1,0,0:0:0:0:
256,192,65204,1,8,0:0:0:0:
256,192,65418,1,8,0:0:0:0:
256,192,65632,1,0,0:0:0:0:
256,192,66061,1,8,0:0:0:0:
256,192,66489,1,0,0:0:0:0:
256,192,66918,1,8,0:0:0:0:
256,192,67132,1,8,0:0:0:0:
256,192,67346,1,0,0:0:0:0:
256,192,67775,1,0,0:0:0:0:
256,192,67989,1,8,0:0:0:0:
256,192,68204,1,0,0:0:0:0:
256,192,68632,1,8,0:0:0:0:
256,192,69061,1,0,0:0:0:0:
256,192,69275,1,8,0:0:0:0:
256,192,69489,1,8,0:0:0:0:
256,192,69918,1,0,0:0:0:0:
256,192,70775,1,0,0:0:0:0:
256,192,70989,1,8,0:0:0:0:
256,192,71204,1,8,0:0:0:0:
256,192,71632,1,8,0:0:0:0:
256,192,72061,1,8,0:0:0:0:
256,192,72489,1,0,0:0:0:0:
256,192,72704,1,0,0:0:0:0:
256,192,72918,1,8,0:0:0:0:
256,192,73346,1,8,0:0:0:0:
256,192,73561,1,0,0:0:0:0:
256,192,73989,1,8,0:0:0:0:
256,192,74418,1,0,0:0:0:0:
256,192,74632,1,8,0:0:0:0:
256,192,75061,1,8,0:0:0:0:
256,192,75275,1,8,0:0:0:0:
256,192,75918,1,4,0:0:0:0:
256,192,76132,1,8,0:0:0:0:
256,192,76561,1,8,0:0:0:0:
256,192,77418,1,0,0:0:0:0:
256,192,77632,1,8,0:0:0:0:
256,192,78061,1,8,0:0:0:0:
256,192,78275,1,0,0:0:0:0:
256,192,78704,1,0,0:0:0:0:
256,192,78918,1,8,0:0:0:0:
256,192,79132,1,8,0:0:0:0:
256,192,79346,1,0,0:0:0:0:
256,192,79775,1,8,0:0:0:0:
256,192,80204,1,0,0:0:0:0:
256,192,80632,1,8,0:0:0:0:
256,192,80846,1,8,0:0:0:0:
256,192,81061,1,0,0:0:0:0:
256,192,81275,1,8,0:0:0:0:
256,192,81704,1,8,0:0:0:0:
256,192,81918,1,0,0:0:0:0:
256,192,82132,1,8,0:0:0:0:
256,192,82775,1,0,0:0:0:0:
256,192,82989,1,8,0:0:0:0:
256,192,83204,1,8,0:0:0:0:
256,192,83632,1,0,0:0:0:0:
256,192,84489,1,0,0:0:0:0:
256,192,84704,1,8,0:0:0:0:
256,192,84918,1,0,0:0:0:0:
256,192,85346,1,8,0:0:0:0:
256,192,85775,1,8,0:0:0:0:
256,192,86204,1,0,0:0:0:0:
256,192,86418,1,0,0:0:0:0:
256,192,86632,1,8,0:0:0:0:
256,192,86846,1,0,0:0:0:0:
256,192,87061,1,8,0:0:0:0:
256,192,87489,1,8,0:0:0:0:
256,192,87704,1,0,0:0:0:0:
256,192,87918,1,12,0:0:0:0:
256,192,88561,1,12,0:0:0:0:
256,192,89204,1,12,0:0:0:0:
256,192,89418,1,8,0:0:0:0:
256,192,89632,1,4,0:0:0:0:
256,192,90275,1,0,0:0:0:0:
256,192,90489,1,8,0:0:0:0:
256,192,91132,1,8,0:0:0:0:
256,192,91346,1,0,0:0:0:0:
256,192,91668,1,0,0:0:0:0:
256,192,91989,1,0,0:0:0:0:
256,192,92418,1,0,0:0:0:0:
256,192,92632,1,8,0:0:0:0:
256,192,93061,1,4,0:0:0:0:
256,192,93489,1,8,0:0:0:0:
256,192,93918,1,8,0:0:0:0:
256,192,94346,1,8,0:0:0:0:
256,192,94775,1,12,0:0:0:0:
