osu file format v14

[General]
AudioFilename: audio.mp3
AudioLeadIn: 0
PreviewTime: 12522
Countdown: 1
SampleSet: Normal
StackLeniency: 0.2
Mode: 1
LetterboxInBreaks: 0
WidescreenStoryboard: 1

[Editor]
DistanceSpacing: 0.56
BeatDivisor: 4
GridSize: 32
TimelineZoom: 0.9999998

[Metadata]
Title:Porky no Porky
TitleUnicode:ポーキーのポーキー
Artist:Sakai Shougo
ArtistUnicode:酒井省吾
Creator:Axer
Version:Kantan
Source:Mother 3
Tags:earthbound beginnings zero video game instrumental nintendo ost 3i Tokyo Itoi Shigesato Office Shogo 坂井将吾
BeatmapID:2353432
BeatmapSetID:1048641

[Difficulty]
HPDrainRate:8
CircleSize:2
OverallDifficulty:2
ApproachRate:10
SliderMultiplier:1.4
SliderTickRate:1

[Events]
//Background and Video events
0,0,"mother-3.jpg",0,0
//Break Periods
//Storyboard Layer 0 (Background)
//Storyboard Layer 1 (Fail)
//Storyboard Layer 2 (Pass)
//Storyboard Layer 3 (Foreground)
//Storyboard Layer 4 (Overlay)
//Storyboard Sound Samples

[TimingPoints]
20,416.666666666667,4,1,0,60,1,0
20,-99.9999999999999,4,1,0,60,0,0
2522,416.666666666667,4,1,0,60,1,0
2522,-99.9999999999999,4,1,0,60,0,0
27522,465.116279069767,4,1,0,60,1,0
27522,-89.5833333333334,4,1,0,60,0,0
29382,416.666666666667,4,1,0,60,1,1
29382,-99.9999999999999,4,1,0,60,0,1
41048,-99.9999999999999,4,1,0,60,0,0

[HitObjects]
256,192,20,5,8,0:0:0:0:
256,192,436,1,8,0:0:0:0:
256,192,853,1,8,0:0:0:0:
256,192,1686,1,8,0:0:0:0:
256,192,2103,1,8,0:0:0:0:
256,192,2520,1,0,0:0:0:0:
256,192,3355,1,8,0:0:0:0:
256,192,4188,1,0,0:0:0:0:
256,192,4605,1,0,0:0:0:0:
256,192,5022,1,8,0:0:0:0:
256,192,5855,1,0,0:0:0:0:
256,192,6272,1,8,0:0:0:0:
256,192,6688,1,0,0:0:0:0:
256,192,7105,1,8,0:0:0:0:
256,192,7522,1,0,0:0:0:0:
256,192,8355,1,8,0:0:0:0:
256,192,9188,1,0,0:0:0:0:
256,192,10855,1,8,0:0:0:0:
256,192,12522,1,0,0:0:0:0:
256,192,14188,1,8,0:0:0:0:
256,192,14605,1,8,0:0:0:0:
256,192,14813,1,0,0:0:0:0:
256,192,15438,1,8,0:0:0:0:
256,192,15855,1,0,0:0:0:0:
256,192,16688,1,0,0:0:0:0:
256,192,17105,1,0,0:0:0:0:
256,192,17522,1,8,0:0:0:0:
256,192,17938,1,0,0:0:0:0:
256,192,18147,1,8,0:0:0:0:
256,192,18772,1,8,0:0:0:0:
256,192,20022,1,8,0:0:0:0:
256,192,20438,1,0,0:0:0:0:
256,192,20855,1,8,0:0:0:0:
256,192,21272,1,0,0:0:0:0:
256,192,21480,1,8,0:0:0:0:
256,192,22105,1,8,0:0:0:0:
256,192,22522,1,0,0:0:0:0:
256,192,23355,1,0,0:0:0:0:
256,192,23772,1,0,0:0:0:0:
256,192,24188,1,8,0:0:0:0:
256,192,24605,1,8,0:0:0:0:
256,192,24813,1,0,0:0:0:0:
256,192,25438,1,8,0:0:0:0:
256,192,25855,1,0,0:0:0:0:
256,192,26688,1,8,0:0:0:0:
256,192,27522,1,0,0:0:0:0:
256,192,29382,1,8,0:0:0:0:
256,192,29798,1,8,0:0:0:0:
256,192,30007,1,0,0:0:0:0:
256,192,30632,1,8,0:0:0:0:
256,192,31465,1,0,0:0:0:0:
256,192,31882,1,8,0:0:0:0:
256,192,32298,1,8,0:0:0:0:
256,192,32715,1,0,0:0:0:0:
256,192,33132,1,8,0:0:0:0:
256,192,33340,1,0,0:0:0:0:
256,192,34798,1,8,0:0:0:0:
256,192,35215,1,0,0:0:0:0:
256,192,35632,1,8,0:0:0:0:
256,192,36048,1,0,0:0:0:0:
256,192,36465,1,8,0:0:0:0:
256,192,36673,1,0,0:0:0:0:
256,192,37298,1,8,0:0:0:0:
256,192,38132,1,8,0:0:0:0:
256,192,38548,1,0,0:0:0:0:
256,192,38965,1,8,0:0:0:0:
256,192,39382,1,8,0:0:0:0:
256,192,40215,1,0,0:0:0:0:
256,192,41048,1,8,0:0:0:0:
256,192,42715,1,8,0:0:0:0:
256,192,43548,1,0,0:0:0:0:
256,192,44382,1,8,0:0:0:0:
256,192,44798,1,0,0:0:0:0:
256,192,45215,1,8,0:0:0:0:
256,192,46048,12,0,47298,0:0:0:0:
256,192,47715,5,8,0:0:0:0:
256,192,48132,1,8,0:0:0:0:
256,192,48548,1,8,0:0:0:0:
256,192,49382,1,8,0:0:0:0:
256,192,49798,1,8,0:0:0:0:
256,192,50215,1,0,0:0:0:0:
256,192,50632,12,0,52298,0:0:0:0:
