osu file format v14

[General]
AudioFilename: audio.mp3
AudioLeadIn: 0
PreviewTime: 49591
Countdown: 0
SampleSet: Soft
StackLeniency: 0.7
Mode: 0
LetterboxInBreaks: 0
WidescreenStoryboard: 1

[Editor]
Bookmarks: 4833,19591,35075,42817,50559,66043,81527,89148
DistanceSpacing: 0.9
BeatDivisor: 4
GridSize: 32
TimelineZoom: 2.1

[Metadata]
Title:Identity (TV Size)
TitleUnicode:アイデンティティ (TV Size)
Artist:Sakai Mikio
ArtistUnicode:酒井ミキオ
Creator:MonsieurSebas
Version:Weoweet's Extreme
Source:落第騎士の英雄譚
Tags:ilay a tale of worst one blarpblarp breaking bad weoweet fiz kpmy nooj Anime Japanese op theme tv OPテーマ テーマ TVアニメ アニメ j-rock Rakudai Kishi no Kyabarurii Chivalry of a Failed Knight opening rock
BeatmapID:3826042
BeatmapSetID:1858779

[Difficulty]
HPDrainRate:4
CircleSize:4.5
OverallDifficulty:9
ApproachRate:9.5
SliderMultiplier:1.8
SliderTickRate:1

[Events]
//Background and Video events
0,0,"63921764_p0.jpg",0,0
//Break Periods
//Storyboard Layer 0 (Background)
//Storyboard Layer 1 (Fail)
//Storyboard Layer 2 (Pass)
//Storyboard Layer 3 (Foreground)
//Storyboard Layer 4 (Overlay)
//Storyboard Sound Samples

[TimingPoints]
237,241.935483870968,4,2,1,75,1,0
237,-100,4,2,1,75,0,0
3140,-100,4,2,1,50,0,0
4107,-133.333333333333,4,2,1,60,0,0
19591,-100,4,2,1,70,0,0
33381,-200,4,2,1,50,0,0
35075,-100,4,2,1,75,0,0
35801,-200,4,2,1,75,0,0
37011,-100,4,2,1,75,0,0
37736,-200,4,2,1,75,0,0
38946,-100,4,2,1,75,0,0
39672,-100,4,2,1,75,0,0
40156,-133.333333333333,4,2,1,75,0,0
40882,-100,4,2,1,75,0,0
41244,-133.333333333333,4,2,1,75,0,0
42817,-100,4,2,1,75,0,0
46688,-71.4285714285714,4,2,1,85,0,0
48623,-71.4285714285714,4,2,1,50,0,0
50075,-133.333333333333,4,2,1,50,0,0
50559,-66.6666666666667,4,2,1,90,0,0
50922,-83.3333333333333,4,2,1,90,0,0
58301,-66.6666666666667,4,2,1,90,0,0
58664,-83.3333333333333,4,2,1,90,0,0
60236,-100,4,2,1,90,0,0
60478,-66.6666666666667,4,2,1,90,0,0
60720,-142.857142857143,4,2,1,90,0,0
60962,-66.6666666666667,4,2,1,90,0,0
61204,-100,4,2,1,90,0,0
62172,-83.3333333333333,4,2,1,90,0,0
65075,-100,4,2,1,90,0,0
66043,-66.6666666666667,4,2,1,90,0,0
66406,-83.3333333333333,4,2,1,90,0,0
73785,-66.6666666666667,4,2,1,90,0,0
74148,-83.3333333333333,4,2,1,90,0,0
75720,-133.333333333333,4,2,1,90,0,0
75962,-66.6666666666667,4,2,1,90,0,0
76204,-133.333333333333,4,2,1,90,0,0
76446,-66.6666666666667,4,2,1,90,0,0
76688,-133.333333333333,4,2,1,90,0,0
76930,-66.6666666666667,4,2,1,90,0,0
77656,-83.3333333333333,4,2,1,90,0,0
79591,-66.6666666666667,4,2,1,90,0,0
80559,-83.3333333333333,4,2,1,90,0,0
81527,-100,4,2,1,90,0,0
84914,-333.333333333333,4,2,1,75,0,0
85519,-100,4,2,1,75,0,0
87333,-370.37037037037,4,2,1,75,0,0

[Colours]
Combo1 : 128,0,128
Combo2 : 128,128,255
Combo3 : 128,0,64
Combo4 : 0,128,255

[HitObjects]
10,374,236,5,4,1:0:0:0:
10,374,357,2,0,P|52:361|96:351,1,90,2|0,1:2|0:0,0:0:0:0:
113,226,599,2,0,P|128:266|169:282,1,90,2|8,0:0|0:0,0:0:0:0:
310,325,841,1,2,1:2:0:0:
322,250,962,1,0,1:0:0:0:
254,275,1083,1,8,0:0:0:0:
392,352,1204,5,8,0:0:0:0:
392,352,1325,2,0,P|444:365|495:395,1,90,8|0,0:0|1:0,0:0:0:0:
378,192,1567,2,0,P|337:208|321:249,1,90,12|0,0:0|1:0,0:0:0:0:
258,376,1809,5,8,0:1:0:0:
243,270,1930,1,8,0:1:0:0:
266,130,2051,1,8,0:1:0:0:
184,29,2898,6,0,L|139:21,3,45,2|0|2|0,0:0|3:0|0:0|3:0,0:0:0:0:
201,23,3140,5,2,0:0:0:0:
232,49,3261,1,0,1:0:0:0:
221,75,3381,1,0,1:0:0:0:
239,83,3502,1,2,0:0:0:0:
306,130,3623,5,8,0:3:0:0:
282,146,3744,1,8,0:3:0:0:
289,164,3865,1,4,0:3:0:0:
279,172,3986,1,4,0:3:0:0:
402,154,4107,6,4,P|466:140|481:77,1,135.000005149842,4|8,1:2|0:0,1:2:0:0:
434,22,4470,2,0,P|373:20|296:-3,1,135.000005149842,2|0,1:2|1:0,0:0:0:0:
231,34,4833,2,0,P|245:64|263:177,1,135.000005149842,10|0,0:0|1:0,0:0:0:0:
211,219,5196,2,10,P|186:198|156:183,1,67.5000025749208,2|8,0:0|0:0,0:0:0:0:
223,297,5438,1,2,0:0:0:0:
223,297,5559,1,2,1:2:0:0:
8,190,5801,1,10,0:0:0:0:
8,190,6043,6,0,B|93:180|48:162|142:153,1,135.000005149842,2|8,1:2|0:0,0:0:0:0:
196,196,6406,1,0,1:0:0:0:
114,80,6527,2,0,P|79:54|71:21,1,67.5000025749208,2|0,1:2|1:0,0:0:0:0:
121,234,6769,2,8,P|100:260|87:291,1,67.5000025749208,8|0,0:2|0:2,0:2:0:0:
353,147,7011,6,0,B|378:11,2,135.000005149842,2|8|0,1:2|0:0|1:0,0:0:0:0:
391,213,7615,1,0,1:0:0:0:
277,111,7736,2,0,L|252:37,1,67.5000025749208,8|0,0:0|0:0,0:0:0:0:
156,334,7978,6,0,P|204:378|264:357,1,135.000005149842,6|8,1:2|0:0,0:0:0:0:
300,291,8341,2,0,P|301:257|310:225,1,67.5000025749208,2|0,1:2|0:0,0:0:0:0:
242,182,8583,1,0,1:2:0:0:
242,182,8704,2,0,P|199:186|166:89,1,135.000005149842,10|0,0:0|1:0,0:0:0:0:
43,17,9188,6,0,B|54:103|68:63|82:146,2,135.000005149842,10|2|10,0:0|1:2|0:0,0:0:0:0:
87,363,9914,2,0,B|109:302|120:332|137:273,1,101.250003862381,2|0,1:2|0:0,0:0:0:0:
122,267,10156,1,8,0:0:0:0:
47,281,10277,2,0,P|30:252|0:239,1,67.5000025749208,0|0,1:0|0:0,0:0:0:0:
147,190,10519,1,0,1:0:0:0:
216,215,10640,2,0,P|247:210|270:178,1,67.5000025749208,8|0,0:0|0:0,0:0:0:0:
493,69,10881,6,0,P|444:83|398:103,1,101.250003862381,2|0,1:2|0:0,0:0:0:0:
382,103,11123,2,0,P|332:82|323:62,1,67.5000025749208,8|0,0:0|0:0,0:0:0:0:
442,11,11365,1,0,1:0:0:0:
485,77,11486,1,8,0:0:0:0:
487,154,11607,1,8,0:0:0:0:
455,225,11728,1,0,1:0:0:0:
463,237,11849,6,0,L|453:170,1,67.5000025749208,4|0,1:0|0:0,0:0:0:0:
358,156,12091,1,10,0:0:0:0:
358,156,12212,2,0,L|316:83,1,67.5000025749208,2|0,1:2|0:0,0:0:0:0:
233,153,12454,1,2,1:2:0:0:
233,153,12575,2,0,L|103:84,2,135.000005149842,10|0|8,0:0|1:0|0:0,0:0:0:0:
93,365,13301,6,0,P|43:354|29:310,1,101.250003862381,2|0,1:2|0:0,0:0:0:0:
21,300,13543,2,0,P|33:262|63:241,1,67.5000025749208,10|0,0:0|0:0,0:0:0:0:
174,347,13785,2,0,P|223:354|272:369,1,101.250003862381,2|0,1:2|0:0,0:0:0:0:
278,382,14027,1,8,0:0:0:0:
299,261,14148,2,0,P|266:270|233:275,1,67.5000025749208,0|0,1:0|0:0,0:0:0:0:
140,178,14390,1,0,1:0:0:0:
219,196,14511,5,10,0:0:0:0:
219,196,14631,1,0,0:0:0:0:
219,196,14752,2,0,B|236:112|254:161|274:65,1,135.000005149842,2|8,1:2|0:0,0:0:0:0:
312,308,15236,2,0,P|294:270|258:254,1,67.5000025749208,2|0,1:2|0:0,0:0:0:0:
223,121,15478,2,0,P|185:103|147:114,1,67.5000025749208,8|0,0:0|0:0,0:0:0:0:
0,234,15720,6,0,P|63:232|85:172,1,135.000005149842,0|8,1:0|0:0,0:0:0:0:
23,66,16083,1,0,1:0:0:0:
4,138,16325,5,0,1:0:0:0:
79,14,16446,2,0,P|88:-6|76:12,1,67.5000025749208,10|0,0:0|0:0,0:0:0:0:
214,44,16688,2,0,P|251:68|211:48,1,135.000005149842,2|8,1:0|0:0,0:0:0:0:
139,97,17051,2,0,P|120:81|133:101,1,67.5000025749208,2|0,1:0|1:0,0:0:0:0:
328,25,17414,1,10,0:0:0:0:
328,25,17535,2,0,P|346:11|330:27,1,67.5000025749208,10|0,0:0|1:0,0:0:0:0:
143,194,17898,6,0,B|128:272|157:246|142:337,1,135.000005149842,10|0,0:0|1:0,0:0:0:0:
73,361,18261,2,0,L|6:373,2,67.5000025749208,2|8|0,1:0|0:0|1:0,0:0:0:0:
211,240,18623,2,0,L|277:254,1,67.5000025749208,0|0,1:0|1:0,0:0:0:0:
402,347,18865,1,8,0:0:0:0:
332,362,18986,1,0,1:0:0:0:
323,372,19107,5,8,0:0:0:0:
345,294,19228,1,8,0:0:0:0:
399,232,19349,1,8,0:0:0:0:
474,203,19470,1,8,0:0:0:0:
401,112,19591,6,0,P|365:83|364:37,1,90,4|0,1:0|0:0,0:0:0:0:
203,60,19833,1,10,0:2:0:0:
203,60,19954,2,0,P|164:36|121:26,1,90,2|0,1:2|0:0,0:0:0:0:
219,138,20196,1,2,1:2:0:0:
219,138,20317,2,0,P|268:121|283:75,1,90,10|0,0:0|0:0,0:0:0:0:
60,195,20559,1,2,1:2:0:0:
34,266,20680,2,0,P|51:307|59:351,1,90,2|8,0:0|0:0,0:0:0:0:
154,184,20922,1,2,0:0:0:0:
104,126,21043,1,0,1:0:0:0:
464,219,21285,1,8,0:0:0:0:
464,219,21527,6,0,B|381:237|434:259|343:277,1,135,2|0,1:2|0:0,0:0:0:0:
280,245,21769,1,8,0:0:0:0:
340,202,21890,1,0,1:0:0:0:
299,329,22011,6,0,P|309:210|182:187,1,270,2|0,1:0|1:0,0:0:0:0:
250,95,22494,2,0,P|280:19|371:29,1,180,6|8,1:0|0:0,0:0:0:0:
427,140,22857,2,0,P|369:125|361:98,2,90,6|0|0,1:0|1:0|1:0,0:0:0:0:
487,193,23220,2,0,P|487:236|457:268,1,90,14|0,0:2|0:0,0:0:0:0:
162,355,23462,6,0,L|255:294,1,90,4|0,1:2|0:0,0:0:0:0:
66,217,23704,1,8,0:0:0:0:
66,217,23825,2,0,L|56:116,1,90,2|0,1:2|0:0,0:0:0:0:
29,376,24067,1,0,1:0:0:0:
29,376,24188,2,0,L|148:254,1,135,10|0,0:0|0:0,0:0:0:0:
136,277,24430,2,0,L|169:178,1,90,0|0,1:0|1:0,0:0:0:0:
260,0,24672,6,0,B|278:107|240:67|260:180,2,180,10|2|10,0:0|1:2|0:0,0:0:0:0:
331,127,25398,2,0,P|372:140|397:189,1,90,6|0,1:0|0:0,0:0:0:0:
150,237,25640,1,8,0:0:0:0:
183,169,25761,2,0,P|125:203|62:130,1,180,6|0,1:0|1:0,1:0:0:0:
64,4,26123,2,0,P|43:46|-2:59,1,90,12|0,0:0|0:0,0:0:0:0:
227,46,26365,1,0,1:0:0:0:
153,19,26486,1,10,1:0:0:0:
168,95,26607,1,10,1:0:0:0:
184,56,26728,1,0,1:0:0:0:
258,204,26849,5,12,1:0:0:0:
260,203,26970,2,0,P|274:144|252:200,1,180,12|0,1:0|0:0,0:0:0:0:
372,156,27333,6,0,B|455:147|417:125|506:113,1,135,4|0,1:2|0:0,0:0:0:0:
505,123,27575,2,0,L|406:102,1,90,10|0,0:0|1:0,0:0:0:0:
512,294,27817,2,0,L|433:233,1,90,2|0,0:0|1:0,0:0:0:0:
288,358,28059,2,0,B|194:344|243:331|159:317,1,135,8|0,0:0|0:0,0:0:0:0:
153,326,28301,1,2,1:0:0:0:
195,251,28422,2,0,L|282:231,1,90,2|8,1:0|0:0,0:0:0:0:
374,93,28664,1,2,1:0:0:0:
384,177,28785,6,0,P|320:155|256:134,1,135,0|0,1:0|0:0,3:0:0:0:
250,121,29027,2,0,P|266:74|318:67,1,90,8|0,0:0|0:0,0:0:0:0:
120,18,29269,6,0,P|37:29|29:112,1,180,6|8,1:0|0:0,0:0:0:0:
137,211,29631,2,0,P|197:210|138:202,1,180,6|0,1:0|1:0,0:0:0:0:
10,234,29994,2,0,P|51:219|66:179,1,90,12|0,0:0|0:0,0:0:0:0:
221,109,30236,6,0,L|234:20,1,90,2|0,1:2|0:0,0:0:0:0:
380,186,30478,2,0,L|316:272,1,90,10|0,0:2|0:0,0:0:0:0:
297,128,30720,6,0,B|412:109|347:84|461:63,1,180,2|10,1:0|0:0,0:0:0:0:
258,205,31204,2,0,P|227:172|193:142,1,90,4|0,1:0|0:0,0:0:0:0:
318,35,31446,1,8,0:0:0:0:
318,35,31567,2,0,P|279:49|215:61,1,90,0|0,1:0|0:0,0:0:0:0:
78,39,31809,1,0,1:0:0:0:
152,66,31930,1,8,0:0:0:0:
3,349,32172,5,0,1:0:0:0:
79,322,32293,1,8,0:0:0:0:
131,259,32414,1,8,0:0:0:0:
199,216,32535,1,8,0:0:0:0:
278,198,32656,1,12,0:0:0:0:
286,208,32898,5,8,0:0:0:0:
132,165,33019,1,12,0:0:0:0:
132,165,33381,6,0,L|123:210,1,45,2|0,2:0|0:0,0:0:0:0:
174,266,33623,2,0,L|180:310,1,45,2|0,2:0|0:0,0:0:0:0:
380,123,33865,2,0,L|388:168,1,45,2|0,2:0|2:0,3:0:0:0:
325,210,34107,2,0,L|317:255,1,45,2|0,0:0|0:0,0:0:0:0:
254,304,34349,2,0,L|266:348,5,45,2|0|2|0|2|0,2:0|0:0|0:0|0:0|2:0|2:0,0:0:0:0:
408,371,35075,6,0,P|463:354|450:264,1,135,12|0,0:0|0:0,0:0:0:0:
467,212,35317,1,0,1:0:0:0:
339,325,35438,2,0,B|251:311|299:297|208:282,1,135,12|0,0:0|0:0,0:0:0:0:
139,296,35680,1,0,1:0:0:0:
321,205,35801,2,0,P|341:177|364:153,1,67.5,12|0,0:0|0:0,0:0:0:0:
429,126,36043,1,0,1:0:0:0:
413,94,36164,1,0,1:0:0:0:
441,94,36285,1,8,3:0:0:0:
434,77,36406,1,4,3:0:0:0:
447,73,36527,1,8,0:0:0:0:
368,35,36769,5,4,0:3:0:0:
368,35,36890,1,0,1:0:0:0:
368,35,37011,2,0,B|276:56|339:64|221:85,1,135,12|0,0:0|0:0,0:0:0:0:
178,38,37252,1,0,1:0:0:0:
104,191,37373,2,0,P|135:248|198:242,1,135,12|0,0:0|0:0,0:0:0:0:
264,208,37615,1,0,1:0:0:0:
97,98,37736,2,0,P|65:88|31:82,1,67.5,12|0,0:0|0:0,0:0:0:0:
3,224,37978,5,8,0:0:0:0:
175,137,38220,1,8,0:0:0:0:
162,55,38462,5,0,1:0:0:0:
297,280,38704,1,8,0:0:0:0:
5,339,38946,6,0,P|73:307|136:264,1,135,12|0,0:0|0:0,0:0:0:0:
137,202,39188,1,0,1:0:0:0:
291,290,39309,2,0,P|239:277|221:194,1,135,12|0,0:0|0:0,0:0:0:0:
270,155,39551,1,0,1:0:0:0:
330,367,39672,2,0,B|415:355|383:341|461:330,1,135,12|0,0:0|0:0,0:0:0:0:
506,276,39914,2,0,P|483:252|440:249,2,60,8|8|8,1:0|0:0|0:0,0:0:0:0:
512,187,40156,6,0,L|490:119,1,67.5000025749208,8|8,0:0|0:0,0:0:0:0:
396,33,40398,1,8,0:3:0:0:
470,46,40640,5,4,3:0:0:0:
428,169,40761,1,0,1:0:0:0:
302,194,40882,2,0,L|473:272,1,180,12|0,0:0|1:0,0:0:0:0:
440,360,41244,2,0,L|356:244,1,135,0|4,1:0|3:0,0:0:0:0:
286,111,41607,2,0,L|144:67,2,135.000005149842,8|0|8,3:0|1:0|0:0,0:0:0:0:
7,50,42333,5,12,1:0:0:0:
83,205,42454,1,12,1:0:0:0:
1,143,42817,6,0,B|68:130|48:110|125:94,1,135,4|0,1:2|0:0,0:0:0:0:
192,145,43059,1,8,0:0:0:0:
192,145,43180,2,0,P|166:222|162:265,1,90,2|0,1:2|0:0,0:0:0:0:
267,126,43422,1,2,1:2:0:0:
247,53,43543,2,0,P|199:35|162:7,1,90,8|0,0:0|0:0,0:0:0:0:
334,163,43785,2,0,P|374:146|386:104,1,90,2|0,1:2|0:0,0:0:0:0:
229,280,44027,2,0,P|270:292|289:332,1,90,10|0,0:2|0:0,0:0:0:0:
511,219,44269,2,0,P|401:229|329:254,1,180,2|10,1:2|0:2,0:0:0:0:
3,384,44752,6,0,P|3:328|73:293,1,135,4|0,1:0|0:0,0:0:0:0:
126,343,44994,1,8,0:0:0:0:
126,343,45115,2,0,L|224:355,1,90,2|0,1:2|0:0,0:0:0:0:
187,162,45357,1,2,1:2:0:0:
257,140,45478,2,0,L|357:110,1,90,10|0,0:0|0:0,0:0:0:0:
119,229,45720,6,0,P|81:205|35:186,1,90,4|0,1:0|0:0,0:0:0:0:
282,295,45962,2,0,P|323:277|361:252,1,90,8|0,0:0|0:0,0:0:0:0:
170,73,46204,2,0,P|181:113|186:180,1,90,4|0,1:0|0:0,0:0:0:0:
134,373,46446,1,8,0:0:0:0:
134,373,46567,1,0,0:0:0:0:
305,337,46688,6,0,B|372:319|357:348|436:323,1,125.999996154785,8|0,0:0|1:0,0:0:0:0:
415,149,46930,1,0,1:0:0:0:
258,268,47051,2,0,B|314:228|310:260|376:210,1,125.999996154785,8|0,0:0|1:0,0:0:0:0:
297,53,47293,1,0,1:0:0:0:
190,218,47414,2,0,B|229:161|236:193|281:123,1,125.999996154785,12|0,0:0|1:0,0:0:0:0:
86,61,47656,5,0,1:0:0:0:
168,125,47777,1,12,0:0:0:0:
190,23,47898,1,0,1:0:0:0:
65,179,48019,5,0,1:0:0:0:
309,216,48140,2,0,L|431:188,1,125.999996154785,12|0,0:1|0:0,0:0:0:0:
167,351,48381,2,0,L|45:323,1,125.999996154785,12|0,0:1|0:0,0:0:0:0:
20,367,50075,6,0,L|27:337,10,22.5000008583069
7,371,50559,6,0,P|96:368|114:260,1,202.500007724762,4|0,1:0|0:0,0:0:0:0:
51,240,50801,1,8,0:1:0:0:
218,158,50922,2,0,P|270:160|298:204,1,107.999996704102,0|0,1:0|0:0,0:0:0:0:
194,235,51164,1,0,1:0:0:0:
328,384,51285,5,8,0:1:0:0:
328,384,51406,1,0,1:0:0:0:
328,384,51527,2,0,L|349:252,1,107.999996704102,0|0,1:0|0:0,0:0:0:0:
264,26,51769,1,8,0:0:0:0:
354,26,51890,2,0,L|284:127,1,107.999996704102,0|0,1:0|0:0,0:0:0:0:
412,362,52131,2,0,L|532:304,1,107.999996704102,0|8,1:0|0:0,0:0:0:0:
505,239,52373,1,0,0:0:0:0:
326,201,52494,6,0,B|206:225|263:244|112:275,1,215.999993408203,6|8,1:0|0:1,0:0:0:0:
507,116,52857,2,0,B|386:97|433:134|280:112,1,215.999993408203,6|0,1:0|1:1,0:0:0:0:
289,300,53220,2,0,B|240:330|265:336|207:373,1,107.999996704102,14|0,0:1|0:0,0:0:0:0:
31,233,53462,6,0,P|76:178|35:236,1,215.999993408203,6|8,1:0|0:1,0:0:0:0:
181,0,53825,2,0,P|247:28|177:9,1,215.999993408203,6|8,1:0|0:1,0:0:0:0:
169,161,54188,2,0,P|175:124|161:158,1,107.999996704102,8|8,0:0|0:0,0:0:0:0:
0,5,54430,6,0,P|33:47|63:92,1,107.999996704102,0|0,1:0|0:0,0:0:0:0:
329,240,54672,2,0,P|306:192|333:142,1,107.999996704102,8|0,0:0|0:0,0:0:0:0:
511,89,54914,2,0,P|424:130|386:41,1,215.999993408203,2|8,1:0|0:0,0:0:0:0:
458,10,55277,1,0,0:0:0:0:
304,70,55398,2,0,B|208:55|255:36|152:21,1,161.999995056153,2|0,1:0|0:0,0:0:0:0:
89,62,55640,1,8,0:0:0:0:
145,169,55761,2,0,B|209:159|181:146|257:131,2,107.999996704102,0|0|0,1:0|0:0|1:0,0:0:0:0:
90,293,56123,2,0,P|80:343|119:377,1,107.999996704102,8|0,0:0|0:0,0:0:0:0:
462,344,56365,6,0,L|238:283,1,215.999993408203,2|8,1:0|0:0,0:0:0:0:
184,320,56728,1,0,1:0:0:0:
313,228,56849,1,0,1:0:0:0:
287,155,56970,1,0,1:0:0:0:
499,162,57091,1,8,0:0:0:0:
499,162,57333,6,0,P|427:197|347:128,1,161.999995056153,0|0,1:0|0:0,0:0:0:0:
394,92,57575,1,10,0:1:0:0:
281,74,57696,2,0,P|337:46|335:-2,1,107.999996704102,0|0,1:0|1:0,0:0:0:0:
94,162,57938,1,0,1:0:0:0:
240,183,58059,1,8,0:1:0:0:
51,309,58180,1,8,0:1:0:0:
294,281,58301,6,0,B|405:311|344:320|508:363,1,202.500007724762,4|0,1:0|0:0,0:0:0:0:
512,294,58543,1,8,0:0:0:0:
383,136,58664,2,0,P|334:155|324:205,1,107.999996704102,0|2,1:0|0:1,0:0:0:0:
318,369,58906,1,0,1:1:0:0:
175,287,59027,5,8,0:0:0:0:
175,287,59148,1,2,1:1:0:0:
175,287,59269,2,0,L|162:179,1,107.999996704102,0|0,1:0|0:0,0:0:0:0:
285,0,59511,1,8,0:0:0:0:
314,73,59631,2,0,L|235:175,1,107.999996704102,0|0,1:0|0:0,0:0:0:0:
90,147,59873,1,0,1:0:0:0:
304,222,59994,1,8,0:0:0:0:
24,383,60236,6,0,P|15:316|0:250,1,135,0|0,1:0|0:0,0:0:0:0:
10,252,60478,2,0,P|1:321|127:304,1,202.500007724762,12|0,0:1|0:0,0:0:0:0:
182,273,60720,6,0,P|194:224|212:174,1,94.499997116089,0|0,1:0|0:0,0:0:0:0:
223,181,60962,2,0,P|178:267|94:228,1,202.500007724762,12|0,0:1|0:0,0:0:0:0:
19,115,61204,6,0,P|36:75|79:65,1,90,0|0,1:0|0:0,0:0:0:0:
263,21,61446,1,8,0:0:0:0:
143,29,61567,2,0,L|236:94,1,90,8|0,3:0|1:0,0:0:0:0:
188,303,61809,1,4,3:0:0:0:
317,333,61930,2,0,L|249:248,1,90,2|0,1:0|0:0,0:0:0:0:
510,40,62172,6,0,P|456:48|404:62,1,107.999996704102,8|0,0:0|0:0,0:0:0:0:
324,199,62414,1,0,1:0:0:0:
284,44,62535,2,0,P|327:86|310:133,1,107.999996704102,8|0,0:0|0:0,0:0:0:0:
279,270,62777,1,0,1:0:0:0:
404,197,62898,2,0,P|438:155|481:122,1,107.999996704102,12|0,0:1|0:0,0:0:0:0:
224,212,63140,1,0,1:0:0:0:
349,315,63261,2,0,P|397:335|419:383,1,107.999996704102,12|0,0:1|0:0,0:0:0:0:
266,277,63502,1,0,1:0:0:0:
326,162,63623,2,0,P|346:95|362:53,1,107.999996704102,12|0,0:1|0:0,0:0:0:0:
125,183,63865,2,0,P|143:233|158:285,1,107.999996704102,12|0,0:1|0:0,0:0:0:0:
0,337,64107,5,12,0:1:0:0:
74,305,64228,1,0,1:0:0:0:
64,384,64349,1,0,1:0:0:0:
11,203,64470,6,0,L|59:83,1,107.999996704102,12|0,0:1|1:0,0:0:0:0:
240,254,64712,1,0,1:0:0:0:
216,44,64833,1,12,1:0:0:0:
283,0,65075,6,0,P|340:27|335:90,1,135,8|0,0:0|0:0,0:0:0:0:
265,115,65317,1,0,1:0:0:0:
362,158,65438,1,8,0:0:0:0:
421,74,65559,1,0,1:0:0:0:
487,263,65680,5,8,0:1:0:0:
299,226,65801,1,8,0:1:0:0:
420,373,65922,1,8,0:1:0:0:
165,384,66043,6,0,P|87:374|90:260,1,202.500007724762,4|0,1:0|0:0,0:0:0:0:
153,236,66285,1,8,0:0:0:0:
25,184,66406,2,0,P|76:189|111:151,1,107.999996704102,0|0,1:0|0:0,0:0:0:0:
207,3,66648,1,0,1:0:0:0:
164,97,66769,5,8,0:0:0:0:
164,97,66890,1,0,1:0:0:0:
164,97,67011,2,0,L|105:-8,1,107.999996704102,2|0,1:0|0:0,0:0:0:0:
290,175,67252,1,8,0:0:0:0:
177,254,67373,2,0,L|222:155,1,107.999996704102,2|0,1:0|1:0,0:0:0:0:
32,279,67615,2,0,L|9:395,1,107.999996704102,0|8,1:0|0:0,0:0:0:0:
98,219,67857,1,0,0:0:0:0:
350,285,67978,6,0,P|301:262|264:397,1,215.999993408203,6|8,1:0|0:1,0:0:0:0:
381,209,68341,2,0,P|389:157|435:133,1,107.999996704102,6|0,1:0|0:0,0:0:0:0:
512,384,68583,1,8,0:1:0:0:
422,276,68704,2,0,P|455:315|506:310,1,107.999996704102,14|0,0:1|1:0,0:0:0:0:
352,91,68946,6,2,B|286:77|313:68|249:54,1,107.999996704102,6|0,1:0|1:0,0:0:0:0:
128,126,69188,1,8,0:1:0:0:
281,158,69309,2,0,B|154:175|223:196|66:217,1,215.999993408203,6|0,1:0|1:1,0:0:0:0:
28,281,69672,1,12,1:0:0:0:
28,281,69793,1,0,1:0:0:0:
155,384,69914,6,0,P|225:355|224:278,1,161.999995056153,4|0,1:2|0:0,0:0:0:0:
166,228,70156,1,8,0:0:0:0:
152,299,70277,1,0,1:0:0:0:
288,224,70398,6,0,P|324:164|285:222,1,215.999993408203,2|8,0:1|0:1,0:0:0:0:
308,302,70761,1,0,1:0:0:0:
476,275,70881,2,0,P|496:244|469:269,1,107.999996704102,2|0,1:0|0:0,0:0:0:0:
396,287,71123,1,8,0:0:0:0:
436,145,71244,2,0,P|409:170|430:140,1,107.999996704102,2|0,1:0|0:0,0:0:0:0:
512,159,71486,1,0,1:0:0:0:
363,38,71607,2,0,P|384:68|356:43,1,107.999996704102,10|0,0:1|0:0,0:0:0:0:
21,56,71849,6,0,B|118:77|62:85|182:111,1,161.999995056153,14|0,0:1|0:0,0:0:0:0:
247,130,72091,1,8,0:0:0:0:
234,58,72212,1,6,1:0:0:0:
181,220,72333,2,0,P|233:206|286:200,1,107.999996704102,0|0,0:0|1:0,0:0:0:0:
234,352,72575,1,8,0:0:0:0:
152,294,72696,1,6,0:1:0:0:
0,383,72817,6,0,P|68:363|43:273,1,161.999995056153,8|0,0:0|0:0,0:0:0:0:
1,239,73059,1,0,1:0:0:0:
93,206,73180,1,8,0:0:0:0:
144,282,73301,1,0,1:0:0:0:
29,152,73422,5,8,0:1:0:0:
154,48,73543,1,8,0:1:0:0:
0,28,73664,1,8,0:1:0:0:
280,8,73785,6,0,B|396:38|343:43|475:74,1,202.500007724762,6|0,1:0|0:0,0:0:0:0:
512,14,74027,1,8,0:0:0:0:
394,132,74148,2,0,P|362:174|311:172,1,107.999996704102,0|2,1:0|0:1,0:0:0:0:
398,249,74390,1,0,1:1:0:0:
246,118,74511,5,8,0:0:0:0:
246,118,74631,1,2,0:1:0:0:
246,118,74752,2,0,L|116:147,1,107.999996704102,2|0,1:0|0:0,0:0:0:0:
73,252,74994,1,8,0:0:0:0:
213,290,75115,2,0,L|-12:182,1,215.999993408203,2|0,1:0|1:0,0:0:0:0:
288,259,75478,1,8,0:0:0:0:
333,381,75720,6,0,P|325:333|364:304,1,101.250003862381,0|0,1:0|0:0,0:0:0:0:
361,289,75962,2,0,P|284:289|279:176,1,202.500007724762,12|0,0:1|0:0,0:0:0:0:
404,81,76204,6,0,P|365:115|317:99,1,101.250003862381,0|0,1:0|0:0,1:0:0:0:
310,93,76446,2,0,P|294:152|181:108,1,202.500007724762,12|0,0:1|0:0,0:0:0:0:
83,11,76688,6,0,P|111:49|87:91,1,101.250003862381,0|0,1:0|0:0,1:0:0:0:
92,106,76930,2,0,P|175:166|111:221,1,202.500007724762,12|0,0:1|0:0,0:0:0:0:
22,261,77172,5,8,0:0:0:0:
55,193,77293,1,0,1:0:0:0:
125,317,77414,1,8,0:0:0:0:
216,271,77535,1,8,0:0:0:0:
368,339,77656,6,0,P|434:320|520:304,1,107.999996704102,8|0,0:0|1:0,0:0:0:0:
304,384,77898,1,0,1:0:0:0:
217,192,78019,2,0,P|151:169|103:139,1,107.999996704102,8|0,0:0|1:0,0:0:0:0:
225,346,78261,1,0,1:0:0:0:
297,209,78381,2,0,P|294:156|333:121,1,107.999996704102,10|0,0:1|1:0,0:0:0:0:
297,288,78623,1,0,1:0:0:0:
151,322,78744,2,0,P|91:341|73:392,1,107.999996704102,10|0,0:1|1:0,0:0:0:0:
366,246,78986,1,0,1:0:0:0:
245,127,79107,2,0,P|239:73|227:20,1,107.999996704102,12|0,0:0|0:0,0:0:0:0:
439,148,79349,1,12,0:0:0:0:
511,85,79591,6,0,B|391:123|451:132|323:167,1,202.500007724762,4|0,1:0|0:0,0:0:0:0:
257,136,79833,1,8,0:0:0:0:
347,236,79954,1,8,0:0:0:0:
233,256,80075,1,0,1:0:0:0:
147,173,80196,1,8,0:1:0:0:
108,374,80317,5,8,0:1:0:0:
302,311,80438,1,8,0:1:0:0:
104,106,80559,6,0,P|50:96|0:80,1,107.999996704102,4|0,1:0|0:0,0:0:0:0:
44,247,80801,1,0,1:0:0:0:
44,247,80922,1,0,0:0:0:0:
159,46,81043,2,0,P|197:8|250:8,1,107.999996704102,4|0,1:0|0:0,0:0:0:0:
151,179,81285,2,0,P|198:200|208:251,1,107.999996704102,0|0,1:0|0:0,0:0:0:0:
465,363,81527,6,0,P|375:334|400:250,1,180,6|0,1:0|1:0,0:0:0:0:
459,248,81890,1,0,1:0:0:0:
459,248,82011,2,0,P|500:214|489:168,1,90,8|0,0:0|0:0,0:0:0:0:
291,87,82252,1,8,0:0:0:0:
291,87,82373,1,0,1:0:0:0:
409,186,82494,1,2,1:0:0:0:
408,186,82615,2,0,P|366:174|349:132,1,90,8|0,0:0|0:0,0:0:0:0:
512,63,82857,1,8,0:0:0:0:
512,63,82978,2,0,P|454:83|458:133,1,90,8|0,0:0|0:0,0:0:0:0:
269,231,83220,5,8,0:0:0:0:
305,298,83341,1,8,0:0:0:0:
272,368,83462,1,0,1:0:0:0:
160,206,83583,6,0,P|86:187|60:176,1,90,8|0,0:0|0:0,0:0:0:0:
398,336,83825,1,8,0:0:0:0:
398,336,83946,2,0,P|440:321|484:312,1,90,8|0,0:0|0:0,0:0:0:0:
264,375,84188,1,8,0:0:0:0:
297,166,84309,1,12,0:1:0:0:
260,97,84793,5,0,1:0:0:0:
260,97,84853,1,0,1:0:0:0:
260,97,84914,2,0,L|246:17,1,80.9999975280763,12|0,0:0|0:0,0:0:0:0:
167,5,85398,5,4,1:0:0:0:
167,5,85519,2,0,P|98:28|54:36,1,90,2|0,0:0|0:0,0:0:0:0:
102,107,85761,2,0,P|125:153|179:154,1,90,2|8,0:0|0:0,0:0:0:0:
312,138,86002,1,2,0:0:0:0:
250,95,86123,1,0,1:0:0:0:
241,171,86244,1,8,0:0:0:0:
394,172,86365,5,10,0:0:0:0:
394,172,86486,2,0,P|458:193|506:214,1,90,10|0,0:0|1:0,0:0:0:0:
486,41,86728,2,0,P|435:70|433:126,1,90,2|8,0:0|0:0,0:0:0:0:
248,370,86970,5,2,0:0:0:0:
287,262,87091,1,2,1:0:0:0:
241,132,87212,1,2,1:0:0:0:
259,382,87333,6,0,P|266:201|284:10,1,364.500008898926,4|0,1:0|0:0,0:0:0:0:
