osu file format v14

[General]
AudioFilename: audio.mp3
AudioLeadIn: 0
PreviewTime: 40017
Countdown: 0
SampleSet: Soft
StackLeniency: 0.3
Mode: 0
LetterboxInBreaks: 0
WidescreenStoryboard: 1

[Editor]
DistanceSpacing: 1
BeatDivisor: 4
GridSize: 8
TimelineZoom: 1.5

[Metadata]
Title:Central (TV Size)
TitleUnicode:セントラル (TV Size)
Artist:Sakaguchi Ami
ArtistUnicode:坂口有望
Creator:Smoke
Version:Normal
Source:BORUTO-ボルト- NARUTO NEXT GENERATIONS
Tags:jrock j-rock rock anime japanese jpop j-pop pop ending ed 14 boruto naruto uzumaki
BeatmapID:2693388
BeatmapSetID:1298512

[Difficulty]
HPDrainRate:4
CircleSize:3.2
OverallDifficulty:5
ApproachRate:6
SliderMultiplier:1.2
SliderTickRate:1

[Events]
//Background and Video events
0,0,"boruto wallpaper.jpg",0,0
Video,-250,"vid.mp4"
//Break Periods
//Storyboard Layer 0 (Background)
//Storyboard Layer 1 (Fail)
//Storyboard Layer 2 (Pass)
//Storyboard Layer 3 (Foreground)
//Storyboard Layer 4 (Overlay)
//Storyboard Sound Samples

[TimingPoints]
521,444.444444444444,4,2,1,55,1,0
521,-111.111111111111,4,2,1,55,0,0
3632,-100,4,2,1,60,0,0
3965,-100,4,2,1,5,0,0
4076,-100,4,2,1,70,0,0
11187,-111.111111111111,4,2,1,60,0,0
18298,-100,4,2,1,65,0,0
23632,-100,4,2,1,70,0,0
25409,-111.111111111111,4,2,1,55,0,0
32520,-111.111111111111,4,2,1,55,0,0
36076,-105.263157894737,4,2,1,60,0,0
36965,-105.263157894737,4,2,1,65,0,0
37854,-100,4,2,1,70,0,0
38743,-100,4,2,1,75,0,0
39632,-100,4,2,1,75,0,0
40076,-100,4,2,1,60,0,0
41409,-95.2380952380952,4,2,1,80,0,1
69854,-95.2380952380952,4,2,1,80,0,1
75187,-100,4,2,1,70,0,0
76076,444.444444444444,4,2,1,70,1,0
76076,-100,4,2,1,70,0,0
86742,-100,4,2,1,60,0,0
87187,-100,4,2,1,40,0,0
87409,-100,4,2,1,45,0,0
87631,-100,4,2,1,55,0,0
87853,-100,4,2,1,65,0,0
88075,-100,4,2,1,75,0,0
88298,-100,4,2,1,80,0,0
89409,-100,4,2,1,5,0,0

[Colours]
Combo1 : 193,83,30
Combo2 : 236,227,64
Combo3 : 242,123,83
Combo4 : 205,182,20

[HitObjects]
465,321,521,5,2,0:0:0:0:
371,267,965,2,0,L|275:288,2,80.9999975280762,10|2|2,0:0|0:0|0:0,0:0:0:0:
400,221,1854,2,0,P|401:198|389:165,1,53.9999983520508,10|2,0:0|0:0,0:0:0:0:
355,128,2298,1,2,0:0:0:0:
258,79,2743,2,0,L|274:-13,2,80.9999975280762,10|2|2,0:0|0:0|0:0,0:0:0:0:
205,108,3632,1,10,0:0:0:0:
102,46,4076,6,0,P|73:50|40:73,1,60,6|0,3:2|3:2,0:0:0:0:
10,112,4520,1,8,0:0:0:0:
61,185,4854,2,0,L|49:284,1,89.9999999999999,0|0,1:2|3:2,0:0:0:0:
41,333,5409,1,8,0:0:0:0:
153,291,5854,6,0,P|186:291|218:308,1,60,6|0,3:2|3:2,0:0:0:0:
263,339,6298,1,8,0:0:0:0:
263,339,6520,2,0,B|302:331|302:331|339:349|339:349|389:339,1,120,2|0,0:0|3:2,0:0:0:0:
434,323,7187,1,10,0:0:0:0:
378,216,7632,6,0,L|393:139,1,60,6|0,3:2|3:2,0:0:0:0:
401,98,8076,1,8,0:0:0:0:
320,57,8409,2,0,L|212:72,1,90,0|0,1:2|3:2,0:0:0:0:
171,77,8965,1,8,0:0:0:0:
223,184,9409,6,0,P|228:210|213:248,1,60,6|0,3:2|3:2,0:0:0:0:
189,294,9854,1,8,0:0:0:0:
112,340,10187,2,0,B|88:301|88:301|106:255,1,90,0|0,1:2|3:2,0:0:0:0:
126,203,10743,2,0,L|111:136,1,60,8|8,0:0|0:0,0:0:0:0:
101,91,11187,6,0,P|132:44|190:40,1,107.999996704102,6|0,3:2|1:2,0:0:0:0:
271,93,12076,2,0,L|391:109,1,107.999996704102,2|0,1:2|1:2,0:0:0:0:
470,51,12965,2,0,P|494:89|487:136,1,80.9999975280763,2|2,3:2|3:2,0:0:0:0:
452,194,13632,2,0,L|479:318,1,107.999996704102,2|2,0:0|0:0,0:0:0:0:
444,344,14298,1,2,1:2:0:0:
344,302,14743,5,2,3:2:0:0:
254,362,15187,1,2,1:2:0:0:
172,291,15632,1,2,1:2:0:0:
221,196,16076,1,2,1:2:0:0:
221,196,16298,1,2,0:0:0:0:
178,102,16743,1,2,0:0:0:0:
178,102,16965,2,0,L|187:38,2,53.9999983520508,2|2|2,1:2|0:0|1:2,0:0:0:0:
80,148,17854,2,0,L|71:201,1,53.9999983520508,2|2,1:2|0:0,0:0:0:0:
29,243,18298,6,0,B|40:283|40:283|25:322|25:322|36:361,1,120,6|8,3:2|0:0,0:0:0:0:
96,379,18965,1,2,0:0:0:0:
96,379,19187,2,0,P|135:348|221:359,1,120,2|8,0:0|0:0,0:0:0:0:
319,378,20076,5,2,3:2:0:0:
300,290,20409,1,2,3:2:0:0:
343,211,20743,2,0,L|328:88,1,120,2|2,0:0|3:2,0:0:0:0:
320,32,21409,2,0,P|351:18|394:28,1,60,10|2,0:0|3:2,0:0:0:0:
416,65,21854,6,0,P|447:79|490:69,1,60,2|2,3:2|0:0,0:0:0:0:
506,126,22298,1,10,0:0:0:0:
436,224,22743,2,0,L|418:319,1,90,2|2,0:0|0:0,0:0:0:0:
349,359,23409,1,2,0:0:0:0:
349,359,23632,6,0,P|321:338|281:335,1,60,6|6,3:2|3:2,0:0:0:0:
241,356,24076,1,8,0:0:0:0:
182,295,24409,1,6,3:2:0:0:
182,295,24632,2,0,L|196:224,1,60,6|0,3:2|3:2,0:0:0:0:
212,213,24965,2,0,L|198:142,1,60,14|2,0:0|1:2,0:0:0:0:
192,100,25409,6,0,P|147:65|48:116,1,161.999995056153,6|2,3:2|0:0,0:0:0:0:
33,147,26298,2,0,P|46:201|14:246,1,107.999996704102,2|8,3:2|0:0,0:0:0:0:
93,321,27187,2,0,L|188:306,1,80.9999975280763,0|0,3:2|3:2,0:0:0:0:
223,245,27854,2,0,L|328:267,1,107.999996704102,2|2,0:0|3:2,0:0:0:0:
369,302,28520,1,10,0:0:0:0:
447,227,28965,6,0,P|424:190|427:137,1,80.9999975280763,6|2,3:2|0:0,0:0:0:0:
457,80,29632,2,0,P|411:36|362:39,1,107.999996704102,2|2,0:0|3:2,0:0:0:0:
321,61,30298,1,10,0:0:0:0:
248,141,30743,2,0,L|263:222,1,80.9999975280763,0|0,3:2|3:2,0:0:0:0:
206,279,31409,2,0,L|90:253,1,107.999996704102,2|2,0:0|3:2,0:0:0:0:
48,239,32076,2,0,P|36:219|34:183,1,53.9999983520508,10|2,0:0|1:2,0:0:0:0:
61,143,32520,6,0,L|42:61,1,80.9999975280763,4|0,3:2|3:2,0:0:0:0:
107,14,33187,2,0,L|224:34,1,107.999996704102,10|2,0:0|3:2,0:0:0:0:
256,74,33854,1,10,0:0:0:0:
256,74,34076,2,0,L|375:54,1,107.999996704102,2|2,3:2|0:0,0:0:0:0:
456,2,34965,2,0,B|479:33|479:33|463:111,1,107.999996704102,10|2,0:0|3:2,0:0:0:0:
507,206,35854,1,2,1:2:0:0:
507,206,36076,6,0,L|415:221,1,85.4999977169037,6|2,3:2|3:2,0:0:0:0:
362,280,36743,1,2,3:2:0:0:
362,280,36965,2,0,L|270:265,1,85.4999977169037,2|2,0:0|0:0,0:0:0:0:
197,252,37632,1,2,3:2:0:0:
197,252,37854,1,10,0:0:0:0:
197,252,38076,2,0,L|101:264,1,90,6|6,3:2|3:2,0:0:0:0:
40,202,38743,2,0,P|87:120|3:20,1,240,6|2,3:2|3:2,0:0:0:0:
4,20,41409,6,0,L|85:32,1,62.9999980773926,6|0,3:2|3:2,0:0:0:0:
120,61,41854,1,8,0:0:0:0:
243,37,42298,2,0,P|246:68|233:101,1,62.9999980773926,2|2,0:0|3:2,0:0:0:0:
209,115,42632,2,0,P|206:146|219:179,1,62.9999980773926,2|2,0:0|0:0,0:0:0:0:
238,197,42965,2,0,P|305:201|335:268,1,125.999996154785,2|0,0:0|3:2,0:0:0:0:
312,305,43632,1,10,0:0:0:0:
386,362,43965,1,0,1:2:0:0:
466,311,44298,2,0,L|433:167,1,125.999996154785,2|2,3:2|0:0,0:0:0:0:
467,132,44965,6,0,P|481:105|479:64,1,62.9999980773926,6|2,3:2|3:2,0:0:0:0:
437,28,45409,2,0,P|406:29|372:51,1,62.9999980773926,10|2,0:0|0:0,0:0:0:0:
336,92,45854,1,6,0:0:0:0:
230,22,46298,2,0,L|158:34,1,62.9999980773926,10|2,0:0|0:0,0:0:0:0:
128,81,46743,2,0,P|118:114|127:152,1,62.9999980773926,6|2,3:2|3:2,0:0:0:0:
170,182,47187,2,0,P|180:215|171:253,1,62.9999980773926,14|2,0:0|0:0,0:0:0:0:
134,291,47632,2,0,B|88:277|88:277|33:309,1,94.499997116089,6|2,0:0|0:0,0:0:0:0:
7,221,48298,1,2,1:2:0:0:
7,221,48520,6,0,L|19:152,1,62.9999980773926,6|0,3:2|3:2,0:0:0:0:
31,97,48965,1,8,0:0:0:0:
138,31,49409,2,0,P|163:50|205:54,1,62.9999980773926,2|2,0:0|3:2,0:0:0:0:
212,80,49743,2,0,P|237:61|279:57,1,62.9999980773926,2|2,0:0|0:0,0:0:0:0:
294,39,50076,2,0,B|334:65|334:65|418:48,1,125.999996154785,2|0,0:0|3:2,0:0:0:0:
472,34,50743,1,10,0:0:0:0:
500,123,51076,1,0,1:2:0:0:
429,185,51409,2,0,L|358:176,2,62.9999980773926,2|10|2,3:2|0:0|0:0,0:0:0:0:
467,235,52076,6,0,P|468:272|445:312,1,62.9999980773926,6|2,3:2|3:2,0:0:0:0:
404,327,52520,2,0,P|374:316|343:318,1,62.9999980773926,10|2,0:0|0:0,0:0:0:0:
284,341,52965,1,6,0:0:0:0:
208,240,53409,2,0,L|223:175,1,62.9999980773926,10|2,0:0|0:0,0:0:0:0:
270,137,53854,2,0,P|271:104|255:72,1,62.9999980773926,6|2,3:2|3:2,0:0:0:0:
209,38,54298,2,0,P|176:39|144:23,1,62.9999980773926,14|2,0:0|3:2,0:0:0:0:
93,57,54743,1,14,0:0:0:0:
133,142,55076,1,10,0:0:0:0:
70,213,55409,1,2,3:2:0:0:
70,213,55632,6,0,L|79:286,1,62.9999980773926,6|0,3:2|3:2,0:0:0:0:
85,338,56076,1,8,0:0:0:0:
201,289,56520,2,0,P|232:286|265:299,1,62.9999980773926,2|2,0:0|3:2,0:0:0:0:
286,315,56854,2,0,P|315:304|346:307,1,62.9999980773926,2|2,0:0|0:0,0:0:0:0:
376,316,57187,2,0,B|414:268|414:268|397:195,1,125.999996154785,2|0,0:0|3:2,0:0:0:0:
385,143,57854,1,10,0:0:0:0:
297,178,58187,1,0,1:2:0:0:
215,130,58520,2,0,P|193:88|234:7,1,125.999996154785,2|2,3:2|0:0,0:0:0:0:
280,29,59187,6,0,L|365:44,1,62.9999980773926,6|2,3:2|3:2,0:0:0:0:
387,83,59632,2,0,L|472:68,1,62.9999980773926,10|2,0:0|0:0,0:0:0:0:
498,111,60076,1,6,0:0:0:0:
452,228,60520,2,0,L|380:240,1,62.9999980773926,10|2,0:0|0:0,0:0:0:0:
338,275,60965,2,0,P|310:254|271:249,1,62.9999980773926,6|2,3:2|3:2,0:0:0:0:
230,213,61409,2,0,P|202:233|163:238,1,62.9999980773926,14|2,0:0|0:0,0:0:0:0:
115,217,61854,2,0,B|129:171|129:171|97:116,1,94.499997116089,6|2,0:0|0:0,0:0:0:0:
26,90,62520,1,2,1:2:0:0:
26,90,62742,6,0,L|38:21,1,62.9999980773926,6|0,3:2|3:2,0:0:0:0:
94,1,63187,1,8,0:0:0:0:
195,75,63631,2,0,P|220:94|262:98,1,62.9999980773926,2|2,0:0|3:2,0:0:0:0:
272,76,63965,2,0,P|297:57|339:53,1,62.9999980773926,2|2,0:0|0:0,0:0:0:0:
354,67,64298,2,0,L|372:200,1,125.999996154785,2|0,0:0|3:2,0:0:0:0:
378,254,64965,1,10,0:0:0:0:
291,291,65298,1,0,1:2:0:0:
214,236,65631,2,0,L|143:227,2,62.9999980773926,2|10|2,3:2|0:0|0:0,0:0:0:0:
253,187,66298,6,0,P|254:150|231:110,1,62.9999980773926,6|2,3:2|3:2,0:0:0:0:
198,83,66742,2,0,P|168:93|137:91,1,62.9999980773926,10|2,0:0|0:0,0:0:0:0:
80,63,67187,1,6,0:0:0:0:
4,163,67631,2,0,L|19:228,1,62.9999980773926,10|2,0:0|0:0,0:0:0:0:
32,285,68076,2,0,L|93:299,1,62.9999980773926,6|0,3:2|3:2,0:0:0:0:
135,345,68520,2,0,L|196:330,1,62.9999980773926,12|2,0:0|1:2,0:0:0:0:
219,309,68854,2,0,L|316:323,1,94.499997116089,4|4,3:2|3:2,0:0:0:0:
441,339,69631,1,8,3:3:0:0:
441,339,69854,6,0,P|440:299|474:252,1,94.499997116089,6|2,3:2|0:0,0:0:0:0:
429,169,70520,2,0,P|446:108|405:52,1,125.999996154785,2|0,0:0|3:2,0:0:0:0:
367,15,71187,1,10,0:0:0:0:
255,73,71632,5,6,3:2:0:0:
164,47,71965,1,2,0:0:0:0:
72,22,72298,2,0,L|42:161,1,125.999996154785,2|0,0:0|3:2,0:0:0:0:
2,191,72965,1,8,0:0:0:0:
76,292,73409,6,0,L|86:364,2,62.9999980773926,6|0|8,3:2|3:2|0:0,0:0:0:0:
119,247,74076,2,0,P|152:243|186:255,1,62.9999980773926,2|2,0:0|1:2,0:0:0:0:
233,284,74520,1,6,3:2:0:0:
317,241,74854,2,0,L|420:254,1,94.499997116089,6|0,3:2|0:0,0:0:0:0:
499,29,76076,2,0,L|439:37,1,60,6|0,3:2|3:2,0:0:0:0:
380,49,76520,1,8,0:0:0:0:
295,16,76854,2,0,P|267:53|283:115,1,90,8|0,0:0|3:2,0:0:0:0:
301,145,77409,1,8,0:0:0:0:
236,246,77854,6,0,P|203:246|171:263,1,60,6|0,3:2|3:2,0:0:0:0:
141,304,78298,1,8,0:0:0:0:
141,304,78520,2,0,B|102:296|102:296|65:314|65:314|15:304,1,120,2|0,0:0|3:2,0:0:0:0:
0,257,79187,1,10,0:0:0:0:
85,172,79632,6,0,P|97:147|90:100,1,60,6|0,3:2|3:2,0:0:0:0:
74,59,80076,1,8,0:0:0:0:
149,10,80409,2,0,P|186:32|257:25,1,90,8|0,0:0|3:2,0:0:0:0:
289,14,80965,1,8,0:0:0:0:
395,68,81409,6,0,L|408:2,2,60,6|0|8,3:2|3:2|0:0,0:0:0:0:
369,124,82076,1,2,0:0:0:0:
369,124,82298,2,0,L|379:190,1,60,2|0,1:2|3:2,0:0:0:0:
417,229,82743,2,0,L|402:296,1,60,14|0,0:0|1:2,0:0:0:0:
350,314,83187,6,0,P|325:300|284:306,1,60,6|0,3:2|3:2,0:0:0:0:
236,317,83631,1,8,0:0:0:0:
180,246,83964,2,0,L|198:129,1,90,8|0,0:0|3:2,0:0:0:0:
205,98,84520,1,8,0:0:0:0:
114,20,84964,6,0,P|80:19|46:36,1,60,6|0,3:2|3:2,0:0:0:0:
6,62,85409,1,8,0:0:0:0:
62,167,85853,1,2,3:2:0:0:
62,167,86075,2,0,L|48:229,2,60,8|8|8,0:0|0:0|3:3,0:0:0:0:
108,128,86742,5,12,0:0:0:0:
198,207,87187,1,0,3:2:0:0:
305,154,87631,2,0,P|332:150|366:165,1,60,0|0,3:2|3:2,0:0:0:0:
411,194,88075,1,0,3:2:0:0:
467,172,88298,2,0,P|496:94|327:55,1,300,2|0,0:0|0:0,0:0:0:0:
