osu file format v14

[General]
AudioFilename: audio.mp3
AudioLeadIn: 0
PreviewTime: 40017
Countdown: 0
SampleSet: Soft
StackLeniency: 0.3
Mode: 0
LetterboxInBreaks: 0
WidescreenStoryboard: 1

[Editor]
DistanceSpacing: 1.3
BeatDivisor: 4
GridSize: 8
TimelineZoom: 1.5

[Metadata]
Title:Central (TV Size)
TitleUnicode:セントラル (TV Size)
Artist:Sakaguchi Ami
ArtistUnicode:坂口有望
Creator:Smoke
Version:Hard
Source:BORUTO-ボルト- NARUTO NEXT GENERATIONS
Tags:jrock j-rock rock anime japanese jpop j-pop pop ending ed 14 boruto naruto uzumaki
BeatmapID:2693386
BeatmapSetID:1298512

[Difficulty]
HPDrainRate:4.8
CircleSize:3.6
OverallDifficulty:6.5
ApproachRate:7.5
SliderMultiplier:1.5
SliderTickRate:1

[Events]
//Background and Video events
0,0,"boruto wallpaper.jpg",0,0
Video,-250,"vid.mp4"
//Break Periods
//Storyboard Layer 0 (Background)
//Storyboard Layer 1 (Fail)
//Storyboard Layer 2 (Pass)
//Storyboard Layer 3 (Foreground)
//Storyboard Layer 4 (Overlay)
//Storyboard Sound Samples

[TimingPoints]
521,444.444444444444,4,2,1,55,1,0
521,-125,4,2,1,55,0,0
3632,-125,4,2,1,60,0,0
3965,-333.333333333334,4,2,1,5,0,0
4076,-100,4,2,1,70,0,0
11187,-125,4,2,1,60,0,0
18298,-111.111111111111,4,2,1,65,0,0
23632,-99.9999999999999,4,2,1,70,0,0
25409,-125,4,2,1,55,0,0
32520,-117.647058823529,4,2,1,55,0,0
36076,-111.111111111111,4,2,1,60,0,0
36965,-100,4,2,1,65,0,0
37854,-90.9090909090909,4,2,1,70,0,0
38743,-111.111111111111,4,2,1,75,0,0
39632,-100,4,2,1,75,0,0
40076,-100,4,2,1,60,0,0
41409,-90.9090909090909,4,2,1,80,0,1
75187,-125,4,2,1,70,0,0
76076,444.444444444444,4,2,1,70,1,0
76076,-100,4,2,1,70,0,0
86742,-100,4,2,1,60,0,0
87187,-100,4,2,1,40,0,0
87409,-100,4,2,1,45,0,0
87631,-100,4,2,1,55,0,0
87853,-100,4,2,1,65,0,0
88075,-100,4,2,1,75,0,0
88298,-142.857142857143,4,2,1,80,0,0
89409,-100,4,2,1,5,0,0

[Colours]
Combo1 : 193,83,30
Combo2 : 236,227,64
Combo3 : 242,123,83
Combo4 : 205,182,20

[HitObjects]
46,340,521,6,0,L|123:323,1,60,2|2,0:0|0:0,0:0:0:0:
168,263,965,2,0,L|234:279,1,60,10|2,0:0|0:0,0:0:0:0:
256,310,1298,2,0,L|325:296,1,60,2|2,0:0|0:0,0:0:0:0:
359,288,1632,1,2,0:0:0:0:
443,319,1854,2,0,L|450:285,3,30,10|0|2|2,0:0|0:0|0:0|0:0,0:0:0:0:
477,254,2298,6,0,P|477:232|461:199,1,60,2|2,0:0|0:0,0:0:0:0:
384,150,2743,2,0,P|384:128|400:93,1,60,10|2,0:0|0:0,0:0:0:0:
431,62,3076,2,0,P|431:40|415:6,1,60,2|2,0:0|0:0,0:0:0:0:
370,0,3409,1,2,0:0:0:0:
290,42,3632,2,0,P|255:22|196:27,1,90,10|0,0:0|0:0,0:0:0:0:
161,57,4076,6,0,L|172:134,1,75,6|0,3:2|3:2,0:0:0:0:
257,203,4520,2,0,L|243:301,1,75,8|0,0:0|0:0,0:0:0:0:
200,315,4854,1,0,1:2:0:0:
200,315,4965,2,0,L|210:359,2,37.5,2|0|0,0:0|0:0|3:2,0:0:0:0:
83,345,5409,1,8,0:0:0:0:
14,259,5632,1,0,1:0:0:0:
14,259,5743,1,0,1:2:0:0:
14,259,5854,6,0,L|32:179,1,75,6|0,3:2|3:2,0:0:0:0:
49,63,6298,1,8,0:0:0:0:
146,132,6520,2,0,B|193:156|236:126|208:113|251:84|305:115,1,150,2|0,0:0|3:2,0:0:0:0:
359,12,7187,2,0,P|382:32|436:35,1,75,10|0,0:0|0:0,0:0:0:0:
487,28,7520,1,0,1:2:0:0:
487,28,7632,6,0,L|471:119,1,75,6|0,3:2|3:2,0:0:0:0:
371,167,8076,2,0,L|387:258,1,75,8|0,0:0|0:0,0:0:0:0:
365,300,8409,1,0,1:2:0:0:
365,300,8520,2,0,L|357:342,2,37.5,2|0|0,0:0|0:0|3:2,0:0:0:0:
251,259,8965,1,8,0:0:0:0:
148,314,9187,1,0,1:0:0:0:
148,314,9298,1,0,1:2:0:0:
148,314,9409,6,0,L|130:232,1,75,6|0,3:2|3:2,0:0:0:0:
104,123,9854,2,0,P|137:105|199:110,1,75,8|0,0:0|0:0,0:0:0:0:
227,139,10187,1,0,1:2:0:0:
227,139,10298,2,0,L|215:196,2,37.5,2|0|0,0:0|0:0|3:2,0:0:0:0:
329,202,10743,1,8,0:0:0:0:
446,160,10965,1,8,0:0:0:0:
446,160,11076,1,8,0:0:0:0:
446,160,11187,6,0,B|480:113|480:113|456:33,1,120,6|0,3:2|1:2,0:0:0:0:
389,20,11854,1,2,0:0:0:0:
389,20,11965,1,2,0:0:0:0:
389,20,12076,2,0,L|250:44,1,120,2|0,1:2|1:2,0:0:0:0:
190,10,12743,1,2,0:0:0:0:
190,10,12965,6,0,P|171:42|175:80,1,60,2|2,3:2|0:0,0:0:0:0:
144,100,13298,2,0,P|163:132|159:170,1,60,2|2,3:2|0:0,0:0:0:0:
196,185,13632,2,0,B|229:200|266:178|244:165|280:145|321:163,1,120,2|2,0:0|0:0,0:0:0:0:
381,207,14298,1,2,1:2:0:0:
337,288,14520,1,2,0:0:0:0:
337,288,14632,1,0,0:0:0:0:
337,288,14743,6,0,L|257:308,1,60,2|2,3:2|0:0,0:0:0:0:
201,348,15187,2,0,L|142:333,1,60,2|2,1:2|0:0,0:0:0:0:
59,368,15632,2,0,L|44:309,1,60,2|2,1:2|0:0,0:0:0:0:
23,222,16076,1,2,1:2:0:0:
98,170,16298,1,2,0:0:0:0:
98,170,16409,1,0,0:0:0:0:
98,170,16520,6,0,L|85:98,1,60,0|2,1:2|0:0,0:0:0:0:
43,32,16965,2,0,L|102:21,1,60,2|2,1:2|0:0,0:0:0:0:
179,67,17409,2,0,L|174:108,2,30,2|0|2,1:2|0:0|0:0,0:0:0:0:
250,12,17854,2,0,P|279:31|328:28,1,60,2|2,1:2|0:0,0:0:0:0:
349,22,18187,1,2,0:0:0:0:
349,22,18298,6,0,B|389:0|389:0|483:19,1,134.999995880127,6|8,3:2|0:0,0:0:0:0:
433,113,18965,1,2,0:0:0:0:
433,113,19076,1,0,1:2:0:0:
433,113,19187,2,0,L|391:124,2,33.7499989700318,2|0|0,0:0|0:0|3:2,0:0:0:0:
477,204,19632,2,0,L|398:226,1,67.4999979400635,8|2,0:0|0:0,0:0:0:0:
381,262,19965,1,0,1:2:0:0:
381,262,20076,6,0,P|350:268|306:249,1,67.4999979400635,2|2,3:2|0:0,0:0:0:0:
270,277,20409,2,0,P|249:253|243:205,1,67.4999979400635,2|2,3:2|0:0,0:0:0:0:
263,172,20743,2,0,P|275:108|217:50,1,134.999995880127,2|2,0:0|3:2,0:0:0:0:
136,29,21409,1,10,0:0:0:0:
73,110,21632,1,2,3:2:0:0:
73,110,21743,1,2,1:2:0:0:
73,110,21854,6,0,L|88:177,1,67.4999979400635,2|2,3:2|0:0,0:0:0:0:
31,260,22298,1,10,0:0:0:0:
117,331,22520,1,2,0:0:0:0:
117,331,22632,1,2,1:2:0:0:
117,331,22743,2,0,P|152:333|192:312,1,67.4999979400635,2|2,0:0|3:2,0:0:0:0:
223,291,23076,1,2,0:0:0:0:
223,291,23187,2,0,P|221:256|242:216,1,67.4999979400635,8|2,0:0|0:0,0:0:0:0:
176,129,23632,5,6,3:2:0:0:
276,78,23854,1,6,3:2:0:0:
352,160,24076,2,0,L|395:167,2,37.5,8|8|8,0:0|0:0|0:0,0:0:0:0:
321,206,24409,1,6,3:2:0:0:
428,251,24632,1,6,3:2:0:0:
487,153,24854,1,0,3:2:0:0:
487,153,24965,2,0,P|493:114|461:69,1,75,14|2,0:0|1:2,0:0:0:0:
443,45,25298,1,0,1:2:0:0:
443,45,25409,6,0,B|405:94|346:74|346:74|329:34|269:42,1,180,6|2,3:2|0:0,0:0:0:0:
218,96,26298,2,0,L|229:165,1,60,2|0,3:2|3:2,0:0:0:0:
282,226,26743,2,0,L|274:288,1,60,8|0,0:0|0:0,0:0:0:0:
241,315,27076,1,0,1:2:0:0:
241,315,27187,6,0,P|201:325|146:295,1,90,0|0,3:2|3:2,0:0:0:0:
32,360,27854,2,0,P|68:287|42:243,1,120,2|2,0:0|3:2,0:0:0:0:
10,178,28520,1,10,0:0:0:0:
67,110,28743,1,2,0:0:0:0:
67,110,28854,1,0,1:2:0:0:
67,110,28965,6,0,L|152:128,1,60,6|2,3:2|0:0,0:0:0:0:
157,153,29298,2,0,L|242:135,1,60,2|2,0:0|0:0,0:0:0:0:
245,106,29632,2,0,B|286:97|315:121|294:125|327:151|366:137,1,120,2|2,0:0|3:2,0:0:0:0:
426,85,30298,2,0,P|462:88|498:116,1,60,10|0,0:0|0:0,0:0:0:0:
502,145,30632,1,0,1:2:0:0:
502,145,30743,6,0,L|491:228,1,60,0|0,3:2|0:0,0:0:0:0:
488,249,31076,2,0,P|460:248|405:286,1,90,0|2,3:3|0:0,0:0:0:0:
386,318,31520,1,8,0:0:0:0:
265,255,31854,1,2,3:2:0:0:
186,298,32076,1,10,0:0:0:0:
114,243,32298,1,2,1:2:0:0:
114,243,32409,1,0,1:2:0:0:
114,243,32520,6,0,L|126:174,1,63.7500012159348,4|2,3:2|0:0,0:0:0:0:
202,124,32965,1,2,0:0:0:0:
154,41,33187,2,0,L|16:61,1,127.50000243187,10|2,0:0|3:2,0:0:0:0:
0,151,33854,1,10,0:0:0:0:
65,234,34076,1,2,3:2:0:0:
65,234,34187,1,0,3:2:0:0:
65,234,34298,6,0,P|37:273|46:344,1,95.6250018239022,0|0,3:2|3:2,0:0:0:0:
167,374,34965,2,0,B|208:383|237:360|216:355|249:329|295:343,1,127.50000243187,10|2,0:0|3:2,0:0:0:0:
373,376,35632,1,8,0:0:0:0:
445,313,35854,1,2,1:2:0:0:
445,313,35965,1,0,1:2:0:0:
445,313,36076,6,0,L|414:191,1,101.249996910095,6|2,3:2|3:2,0:0:0:0:
388,175,36520,2,0,L|399:95,1,67.4999979400635,4|2,0:0|3:2,0:0:0:0:
306,40,36965,2,0,L|315:-12,2,37.5,2|0|6,0:0|1:2|3:2,0:0:0:0:
269,82,37298,2,0,L|260:134,2,37.5,2|8|8,0:0|0:0|3:3,0:0:0:0:
223,48,37632,1,2,3:2:0:0:
210,53,37743,1,0,3:2:0:0:
197,58,37854,5,10,0:0:0:0:
83,4,38076,2,0,P|61:44|69:95,1,82.5000025177003,6|0,3:2|0:0,0:0:0:0:
26,130,38409,2,0,P|49:169|97:187,1,82.5000025177003,6|0,3:2|0:0,0:0:0:0:
122,231,38743,6,0,B|255:206|255:206|281:242|332:229,1,202.499993820191,6|0,3:2|3:2,0:0:0:0:
349,206,39520,1,0,3:2:0:0:
349,206,39632,2,0,B|396:216|396:216|405:208|405:208|444:227|444:227|454:219|454:219|502:229,1,150,2|0,3:2|0:0,0:0:0:0:
487,225,41409,6,0,P|485:173|450:133,1,82.5000025177003,6|0,3:2|3:2,0:0:0:0:
383,66,41854,1,8,0:0:0:0:
291,128,42076,1,2,0:0:0:0:
291,128,42187,1,2,1:2:0:0:
291,128,42298,2,0,P|256:114|198:124,1,82.5000025177003,2|2,0:0|3:2,0:0:0:0:
161,89,42632,2,0,P|131:112|111:167,1,82.5000025177003,2|2,0:0|0:0,0:0:0:0:
65,184,42965,6,0,P|108:220|89:329,1,165.000005035401,2|0,0:0|3:2,0:0:0:0:
198,377,43632,2,0,L|286:354,1,82.5000025177003,10|0,0:0|0:0,0:0:0:0:
336,340,43965,1,0,1:2:0:0:
336,340,44076,1,2,0:0:0:0:
275,241,44298,2,0,B|264:200|264:200|290:156,1,82.5000025177003,2|8,3:2|0:0,0:0:0:0:
258,62,44743,1,2,0:0:0:0:
258,62,44854,1,0,1:2:0:0:
258,62,44965,6,0,L|345:75,1,82.5000025177003,6|2,3:2|3:2,0:0:0:0:
432,6,45409,1,10,0:0:0:0:
459,127,45632,1,2,0:0:0:0:
459,127,45743,1,0,1:2:0:0:
459,127,45854,2,0,L|469:190,2,41.2500012588501,6|0|0,0:0|0:0|3:2,0:0:0:0:
363,188,46298,2,0,L|376:275,1,82.5000025177003,10|2,0:0|0:0,0:0:0:0:
346,321,46632,1,2,1:2:0:0:
346,321,46743,6,0,P|308:339|248:317,1,82.5000025177003,6|2,3:2|3:2,0:0:0:0:
181,258,47187,1,14,0:0:0:0:
84,314,47409,1,2,0:0:0:0:
84,314,47520,1,0,1:2:0:0:
84,314,47632,2,0,L|74:365,2,41.2500012588501,6|0|0,0:0|0:0|3:2,0:0:0:0:
49,267,47965,2,0,L|30:177,1,82.5000025177003,2|0,0:0|0:0,0:0:0:0:
25,138,48298,1,2,1:2:0:0:
25,138,48409,1,2,1:2:0:0:
25,138,48520,6,0,P|30:95|81:60,1,82.5000025177003,6|0,3:2|3:2,0:0:0:0:
157,11,48965,1,8,0:0:0:0:
262,79,49187,1,2,0:0:0:0:
262,79,49298,1,0,1:2:0:0:
262,79,49409,2,0,P|292:58|345:63,1,82.5000025177003,2|2,0:0|3:2,0:0:0:0:
379,19,49743,2,0,P|412:34|434:82,1,82.5000025177003,2|2,0:0|0:0,0:0:0:0:
472,115,50076,6,0,P|426:157|436:253,1,165.000005035401,2|0,0:0|3:2,0:0:0:0:
359,339,50743,2,0,L|271:316,1,82.5000025177003,10|0,0:0|0:0,0:0:0:0:
227,307,51076,1,0,1:2:0:0:
227,307,51187,1,2,0:0:0:0:
133,374,51409,1,2,3:2:0:0:
41,302,51632,1,10,0:0:0:0:
94,203,51854,1,2,0:0:0:0:
94,203,51965,1,0,1:2:0:0:
94,203,52076,6,0,P|136:192|180:206,1,82.5000025177003,6|2,3:2|3:2,0:0:0:0:
262,129,52520,1,10,0:0:0:0:
185,57,52743,1,2,0:0:0:0:
185,57,52854,1,0,1:2:0:0:
185,57,52965,2,0,L|175:-6,2,41.2500012588501,6|0|0,0:0|0:0|3:2,0:0:0:0:
262,129,53409,2,0,P|304:140|348:126,1,82.5000025177003,10|2,0:0|0:0,0:0:0:0:
392,100,53743,1,2,1:2:0:0:
392,100,53854,5,6,3:2:0:0:
478,202,54076,1,2,3:2:0:0:
478,202,54187,1,0,1:2:0:0:
478,202,54298,1,14,0:0:0:0:
397,296,54520,1,2,3:2:0:0:
397,296,54631,1,0,1:2:0:0:
397,296,54743,2,0,L|387:347,2,41.2500012588501,14|8|8,0:0|0:0|0:0,0:0:0:0:
351,252,55076,2,0,P|310:248|264:273,1,82.5000025177003,10|4,0:0|3:2,0:0:0:0:
224,297,55409,1,2,3:2:0:0:
224,297,55520,1,0,1:2:0:0:
224,297,55631,6,0,P|219:254|162:219,1,82.5000025177003,6|0,3:2|3:2,0:0:0:0:
80,280,56076,1,8,0:0:0:0:
16,186,56298,1,2,0:0:0:0:
16,186,56409,1,2,1:2:0:0:
16,186,56520,2,0,P|56:188|90:165,1,82.5000025177003,2|2,0:0|3:2,0:0:0:0:
123,112,56854,2,0,P|153:91|206:96,1,82.5000025177003,2|2,0:0|0:0,0:0:0:0:
250,124,57187,6,0,P|289:153|401:116,1,165.000005035401,2|0,0:0|3:2,0:0:0:0:
467,25,57854,2,0,L|378:2,1,82.5000025177003,10|0,0:0|0:0,0:0:0:0:
339,41,58187,1,0,1:2:0:0:
339,41,58298,1,2,0:0:0:0:
220,0,58520,2,0,B|129:17,1,82.5000025177003,2|8,3:2|0:0,0:0:0:0:
78,126,58965,1,2,0:0:0:0:
78,126,59076,1,0,1:2:0:0:
78,126,59187,6,0,L|165:139,1,82.5000025177003,6|2,3:2|3:2,0:0:0:0:
230,239,59631,1,10,0:0:0:0:
150,335,59854,1,2,0:0:0:0:
150,335,59965,1,0,1:2:0:0:
150,335,60076,2,0,L|87:345,2,41.2500012588501,6|0|0,0:0|0:0|3:2,0:0:0:0:
257,384,60520,2,0,L|344:371,1,82.5000025177003,10|2,0:0|0:0,0:0:0:0:
381,327,60854,1,2,1:2:0:0:
381,327,60965,6,0,P|363:289|385:229,1,82.5000025177003,6|2,3:2|3:2,0:0:0:0:
442,150,61409,1,14,0:0:0:0:
353,80,61631,1,2,0:0:0:0:
353,80,61742,1,0,1:2:0:0:
353,80,61854,2,0,L|343:29,2,41.2500012588501,6|0|0,0:0|0:0|3:2,0:0:0:0:
304,118,62187,2,0,P|268:97|214:99,1,82.5000025177003,2|0,0:0|0:0,0:0:0:0:
189,143,62520,1,2,1:2:0:0:
189,143,62631,1,2,1:2:0:0:
189,143,62742,6,0,L|174:229,1,82.5000025177003,6|0,3:2|3:2,0:0:0:0:
254,319,63187,1,8,0:0:0:0:
146,370,63409,1,2,0:0:0:0:
146,370,63520,1,0,1:2:0:0:
146,370,63631,2,0,P|112:360|82:321,1,82.5000025177003,2|2,0:0|3:2,0:0:0:0:
78,262,63965,2,0,P|79:216|57:185,1,82.5000025177003,2|2,0:0|0:0,0:0:0:0:
19,139,64298,6,0,P|20:61|94:34,1,165.000005035401,2|0,0:0|3:2,0:0:0:0:
190,108,64965,2,0,B|227:89|227:89|273:98,1,82.5000025177003,10|0,0:0|0:0,0:0:0:0:
331,111,65298,1,0,1:2:0:0:
331,111,65409,1,2,0:0:0:0:
449,75,65631,1,2,3:2:0:0:
482,194,65854,1,10,0:0:0:0:
370,235,66076,1,2,0:0:0:0:
370,235,66187,1,0,1:2:0:0:
370,235,66298,6,0,P|328:224|284:238,1,82.5000025177003,6|2,3:2|3:2,0:0:0:0:
183,294,66742,1,10,0:0:0:0:
97,219,66965,1,2,0:0:0:0:
97,219,67076,1,0,1:2:0:0:
97,219,67187,2,0,L|87:156,2,41.2500012588501,6|0|0,0:0|0:0|3:2,0:0:0:0:
183,294,67631,2,0,L|199:212,1,82.5000025177003,10|2,0:0|0:0,0:0:0:0:
213,155,67965,1,2,1:2:0:0:
213,155,68076,5,6,3:2:0:0:
122,71,68298,1,0,3:2:0:0:
236,23,68520,1,12,0:0:0:0:
326,115,68742,1,2,1:2:0:0:
326,115,68854,2,0,P|370:122|414:104,1,82.5000025177003,4|0,3:2|1:2,0:0:0:0:
458,78,69187,1,4,3:2:0:0:
510,190,69409,1,0,3:2:0:0:
507,206,69520,1,8,3:3:0:0:
504,222,69632,1,8,3:3:0:0:
502,238,69743,1,8,3:3:0:0:
500,254,69853,6,0,L|484:349,1,82.5000025177003,6|0,3:2|3:2,0:0:0:0:
432,367,70187,2,0,P|394:346|343:348,1,82.5000025177003,2|0,0:0|0:0,0:0:0:0:
295,360,70520,2,0,L|258:183,1,165.000005035401,2|0,0:0|3:2,0:0:0:0:
339,102,71187,1,10,0:0:0:0:
268,14,71409,1,0,0:0:0:0:
268,14,71520,1,0,1:2:0:0:
268,14,71632,6,0,P|229:-2|176:11,1,82.5000025177003,6|0,3:2|3:2,0:0:0:0:
154,53,71965,2,0,P|176:90|163:145,1,82.5000025177003,2|0,0:0|0:0,0:0:0:0:
126,168,72298,2,0,P|56:161|20:242,1,165.000005035401,2|0,0:0|3:2,0:0:0:0:
72,348,72965,1,8,0:0:0:0:
189,298,73187,1,2,0:0:0:0:
189,298,73298,1,0,1:2:0:0:
189,298,73409,6,0,L|278:311,1,82.5000025177003,6|0,3:2|3:2,0:0:0:0:
377,373,73854,2,0,P|417:377|467:349,1,82.5000025177003,8|2,0:0|0:0,0:0:0:0:
508,327,74187,1,0,1:2:0:0:
508,327,74298,1,2,1:2:0:0:
428,232,74520,2,0,L|442:148,1,82.5000025177003,6|0,3:2|0:0,0:0:0:0:
496,121,74854,2,0,L|475:-9,1,123.75000377655,6|0,3:2|0:0,0:0:0:0:
210,224,76076,6,0,P|175:203|127:207,1,75,6|0,3:2|3:2,0:0:0:0:
26,236,76520,2,0,L|41:145,1,75,8|0,0:0|0:0,0:0:0:0:
46,105,76854,1,8,0:0:0:0:
46,105,76965,2,0,L|41:67,2,37.5,2|0|0,0:0|0:0|3:2,0:0:0:0:
150,46,77409,1,8,0:0:0:0:
270,95,77632,1,0,1:0:0:0:
270,95,77743,1,0,1:2:0:0:
270,95,77854,6,0,L|288:175,1,75,6|0,3:2|3:2,0:0:0:0:
249,282,78298,1,8,0:0:0:0:
346,351,78520,2,0,P|406:361|466:286,1,150,2|0,0:0|3:2,0:0:0:0:
417,190,79187,2,0,L|433:116,1,75,10|0,0:0|0:0,0:0:0:0:
402,77,79520,1,0,1:2:0:0:
402,77,79632,6,0,L|311:93,1,75,6|0,3:2|3:2,0:0:0:0:
225,28,80076,2,0,B|193:47|193:47|147:37,1,75,8|0,0:0|0:0,0:0:0:0:
101,29,80409,1,8,0:0:0:0:
101,29,80520,2,0,L|49:40,2,37.5,2|0|0,0:0|0:0|3:2,0:0:0:0:
134,144,80965,1,8,0:0:0:0:
86,258,81187,1,2,1:2:0:0:
86,258,81298,1,0,1:2:0:0:
86,258,81409,6,0,L|168:276,1,75,6|0,3:2|3:2,0:0:0:0:
239,363,81854,2,0,P|268:339|336:332,1,75,8|2,0:0|0:0,0:0:0:0:
366,344,82187,1,0,1:2:0:0:
366,344,82298,2,0,L|422:354,2,37.5,2|0|0,1:2|1:2|3:2,0:0:0:0:
351,224,82743,1,14,0:0:0:0:
466,179,82965,1,0,1:2:0:0:
466,179,83076,1,0,1:2:0:0:
466,179,83187,6,0,P|469:133|441:91,1,75,6|0,3:2|3:2,0:0:0:0:
367,28,83631,2,0,L|273:52,1,75,8|0,0:0|0:0,0:0:0:0:
254,91,83964,1,8,0:0:0:0:
254,91,84075,2,0,L|192:77,2,37.5,2|0|0,0:0|0:0|3:2,0:0:0:0:
320,191,84520,1,8,0:0:0:0:
229,267,84742,1,0,0:0:0:0:
229,267,84853,1,0,1:2:0:0:
229,267,84964,6,0,L|148:249,1,75,6|0,3:2|3:2,0:0:0:0:
55,318,85409,2,0,L|39:241,1,75,8|0,0:0|0:0,0:0:0:0:
31,189,85742,1,0,1:2:0:0:
31,189,85853,1,2,3:2:0:0:
132,122,86075,1,8,0:0:0:0:
132,122,86187,1,8,0:0:0:0:
132,122,86298,2,0,L|186:133,2,37.5,8|8|8,0:0|3:3|3:3,0:0:0:0:
72,18,86742,6,0,P|107:4|155:8,1,75,12|0,0:0|0:0,0:0:0:0:
237,53,87187,2,0,P|272:67|320:63,1,75,0|0,3:2|3:2,0:0:0:0:
408,14,87631,1,0,3:2:0:0:
493,98,87853,1,0,3:2:0:0:
424,205,88075,1,0,3:2:0:0:
484,325,88298,2,0,B|408:308|408:308|339:343|339:343|316:324|284:333|284:333|313:320|314:293,1,262.499991989136,2|0,0:0|0:0,0:0:0:0:
