osu file format v14

[General]
AudioFilename: audio.mp3
AudioLeadIn: 0
PreviewTime: 84956
Countdown: 0
SampleSet: Soft
StackLeniency: 0.4
Mode: 0
LetterboxInBreaks: 0
WidescreenStoryboard: 0

[Editor]
Bookmarks: 4047,38956,50592,62228,73865,85501,108774,114592,126228,137865,149501,161138,184410,196047,219319,226592,238228,251319,274410,276047,300774
DistanceSpacing: 0.3
BeatDivisor: 4
GridSize: 16
TimelineZoom: 1.4

[Metadata]
Title:Remote Control
TitleUnicode:リモコン
Artist:Saiya
ArtistUnicode:祭屋
Creator:Ohwow
Version:Sit Down Please!
Source:
Tags:Jesus-P じーざすP Giga Official Rimokon Wonderful*Opportunity Kagamine Rin Len Glider
BeatmapID:1676409
BeatmapSetID:798302

[Difficulty]
HPDrainRate:5.5
CircleSize:4
OverallDifficulty:9
ApproachRate:9.2
SliderMultiplier:2
SliderTickRate:1

[Events]
//Background and Video events
0,0,"rc.jpg",0,0
//Break Periods
//Storyboard Layer 0 (Background)
//Storyboard Layer 1 (Fail)
//Storyboard Layer 2 (Pass)
//Storyboard Layer 3 (Foreground)
//Storyboard Sound Samples

[TimingPoints]
1138,363.636363636364,4,2,1,50,1,0
1138,-166.666666666667,4,2,1,50,0,0
4047,-125,4,2,1,50,0,0
15683,-111.111111111111,4,2,1,55,0,0
26228,-100,4,2,1,55,0,0
26592,-90.9090909090909,4,2,1,55,0,0
26956,-83.3333333333333,4,2,1,55,0,0
27319,-83.3333333333333,4,2,1,60,0,0
37592,-83.3333333333333,4,2,1,5,0,0
37683,-83.3333333333333,4,2,1,60,0,0
37774,-83.3333333333333,4,2,1,5,0,0
37865,-83.3333333333333,4,2,1,60,0,0
37956,-83.3333333333333,4,2,1,5,0,0
38047,-83.3333333333333,4,2,1,60,0,0
38138,-83.3333333333333,4,2,1,5,0,0
38228,-83.3333333333333,4,2,1,60,0,0
38319,-83.3333333333333,4,2,1,5,0,0
38410,-83.3333333333333,4,2,1,60,0,0
38501,-83.3333333333333,4,2,1,5,0,0
38592,-125,4,2,1,60,0,0
38865,-125,4,2,1,5,0,0
38956,-71.4285714285714,4,2,1,70,0,0
50592,-100,4,2,1,60,0,0
62228,-83.3333333333333,4,2,1,70,0,0
73865,-100,4,2,1,65,0,0
82592,-66.6666666666667,4,2,1,70,0,0
84138,-66.6666666666667,4,2,1,5,0,0
84228,-66.6666666666667,4,2,1,70,0,0
85138,-50,4,2,1,70,0,0
85410,-50,4,2,1,5,0,0
85501,-66.6666666666667,4,2,1,80,0,1
108774,-83.3333333333333,4,2,1,70,0,0
114592,-71.4285714285714,4,2,1,70,0,0
124865,-71.4285714285714,4,2,1,5,0,0
124956,-71.4285714285714,4,2,1,70,0,0
125047,-71.4285714285714,4,2,1,5,0,0
125138,-71.4285714285714,4,2,1,70,0,0
125228,-71.4285714285714,4,2,1,5,0,0
125319,-71.4285714285714,4,2,1,70,0,0
125410,-71.4285714285714,4,2,1,5,0,0
125501,-71.4285714285714,4,2,1,70,0,0
125592,-71.4285714285714,4,2,1,5,0,0
125683,-71.4285714285714,4,2,1,70,0,0
125774,-71.4285714285714,4,2,1,5,0,0
125865,-107.142857142857,4,2,1,70,0,0
126138,-107.142857142857,4,2,1,5,0,0
126228,-100,4,2,1,70,0,0
137865,-83.3333333333333,4,2,1,70,0,0
149501,-100,4,2,1,70,0,0
158228,-66.6666666666667,4,2,1,70,0,0
159774,-66.6666666666667,4,2,1,5,0,0
159865,-66.6666666666667,4,2,1,70,0,0
160774,-125,4,2,1,70,0,0
161138,-66.6666666666667,4,2,1,80,0,1
184410,-100,4,2,1,60,0,0
188774,-83.3333333333333,4,2,1,60,0,0
189501,-125,4,2,1,60,0,0
190228,-100,4,2,1,60,0,0
192774,-71.4285714285714,4,2,1,60,0,0
192865,-71.4285714285714,4,2,1,5,0,0
192956,-100,4,2,1,60,0,0
193047,-100,4,2,1,5,0,0
193138,-100,4,2,1,60,0,0
193865,-71.4285714285714,4,2,1,60,0,0
193956,-71.4285714285714,4,2,1,5,0,0
194047,-100,4,2,1,60,0,0
194138,-100,4,2,1,5,0,0
194228,-100,4,2,1,60,0,0
196047,-100,4,2,1,50,0,0
219319,-100,4,2,1,40,0,0
220683,-100,4,2,1,5,0,0
220774,-66.6666666666667,4,2,1,70,0,0
222138,-66.6666666666667,4,2,1,5,0,0
222228,-100,4,2,1,40,0,0
222865,-100,4,2,1,5,0,0
222956,-66.6666666666667,4,2,1,70,0,0
223592,-66.6666666666667,4,2,1,5,0,0
223683,-100,4,2,1,40,0,0
223956,-100,4,2,1,5,0,0
224047,-66.6666666666667,4,2,1,70,0,0
224319,-66.6666666666667,4,2,1,5,0,0
224410,-100,4,2,1,40,0,0
224501,-100,4,2,1,5,0,0
224592,-66.6666666666667,4,2,1,70,0,0
224683,-66.6666666666667,4,2,1,5,0,0
224774,-100,4,2,1,40,0,0
224865,-66.6666666666667,4,2,1,70,0,0
224956,-100,4,2,1,40,0,0
225047,-66.6666666666667,4,2,1,70,0,0
225138,-100,4,2,1,50,0,0
226138,-100,4,2,1,5,0,0
226228,-50,4,2,1,30,0,0
226501,-50,4,2,1,5,0,0
226592,-83.3333333333333,4,2,1,70,0,0
238228,-100,4,2,1,70,0,0
246956,-66.6666666666667,4,2,1,70,0,0
248501,-66.6666666666667,4,2,1,5,0,0
248592,-66.6666666666667,4,2,1,70,0,0
249683,-62.5,4,2,1,75,0,0
249956,-62.5,4,2,1,5,0,0
250047,-62.5,4,2,1,75,0,0
251319,-62.5,4,2,1,80,0,1
274410,-100,4,2,1,60,0,0
275228,-100,4,2,1,5,0,0
275319,-38.4615384615385,4,2,1,60,0,0
275592,-38.4615384615385,4,2,1,5,0,0
275683,-83.3333333333333,4,2,1,60,0,0
275956,-83.3333333333333,4,2,1,5,0,0
276047,-62.5,4,2,1,80,0,1
286228,-83.3333333333333,4,2,1,80,0,0
286319,-83.3333333333333,4,2,1,5,0,0
286410,-83.3333333333333,4,2,1,80,0,0
286501,-83.3333333333333,4,2,1,5,0,0
286592,-83.3333333333333,4,2,1,80,0,0
286683,-83.3333333333333,4,2,1,5,0,0
286774,-83.3333333333333,4,2,1,80,0,0
286865,-83.3333333333333,4,2,1,5,0,0
286956,-83.3333333333333,4,2,1,80,0,0
287047,-83.3333333333333,4,2,1,5,0,0
287138,-83.3333333333333,4,2,1,80,0,0
287228,-83.3333333333333,4,2,1,5,0,0
287319,-125,4,2,1,80,0,0
287592,-125,4,2,1,5,0,0
287683,-62.5,4,2,1,80,0,1
299319,-100,4,2,1,75,0,0
300774,-310,4,2,1,80,0,0

[Colours]
Combo1 : 53,53,53
Combo2 : 255,217,64
Combo3 : 0,128,64
Combo4 : 225,90,0
Combo5 : 9,218,255
Combo6 : 212,212,212
Combo7 : 240,0,0
SliderBorder : 255,255,255

[HitObjects]
47,41,4047,6,0,L|124:20,1,80,0|0,3:0|0:0,0:0:0:0:
234,154,4410,2,0,L|118:122,1,120,8|0,0:0|0:0,0:0:0:0:
248,158,4774,1,0,0:0:0:0:
344,184,4956,1,0,3:0:0:0:
282,84,5138,2,0,L|261:161,1,80,8|0,0:0|0:0,0:0:0:0:
422,205,5501,6,0,L|344:184,1,80,0|0,3:0|0:0,0:0:0:0:
222,290,5865,2,0,L|338:321,1,120,8|0,0:0|0:0,0:0:0:0:
207,285,6228,1,0,0:0:0:0:
111,259,6410,1,0,3:0:0:0:
212,202,6592,2,0,L|191:279,1,80,0|0,3:0|3:0,0:0:0:0:
292,67,6956,6,0,L|312:144,1,80,0|0,3:0|0:0,0:0:0:0:
480,162,7319,2,0,L|448:46,1,120,8|0,0:0|0:0,0:0:0:0:
484,177,7683,1,0,0:0:0:0:
510,273,7865,1,0,3:0:0:0:
410,212,8047,2,0,L|487:191,1,80,8|0,0:0|0:0,0:0:0:0:
332,305,8410,6,0,L|410:326,1,80,0|0,0:0|0:0,0:0:0:0:
208,203,8774,2,0,L|323:171,1,120,8|0,0:0|0:0,0:0:0:0:
192,207,9138,1,0,0:0:0:0:
339,167,9319,1,0,3:0:0:0:
176,211,9501,2,0,L|98:232,1,80,0|0,3:0|3:0,0:0:0:0:
43,25,9865,54,0,L|64:103,1,80,0|0,3:0|0:0,0:0:0:0:
99,232,10228,2,0,L|67:116,1,120,8|0,0:0|0:0,0:0:0:0:
104,247,10592,1,0,0:0:0:0:
200,221,10774,1,0,3:0:0:0:
163,90,10956,2,0,L|85:111,1,80,8|0,0:0|0:0,0:0:0:0:
215,226,11319,6,0,L|293:246,1,80,0|0,3:0|0:0,0:0:0:0:
422,281,11683,2,0,L|306:250,1,120,8|0,0:0|0:0,0:0:0:0:
437,284,12047,1,0,0:0:0:0:
463,188,12228,1,0,3:0:0:0:
331,154,12410,2,0,L|310:232,1,80,0|0,3:0|3:0,0:0:0:0:
163,90,12774,6,0,L|241:69,1,80,0|0,3:0|0:0,0:0:0:0:
371,34,13138,2,0,L|256:65,1,120,8|0,0:0|0:0,0:0:0:0:
387,31,13501,1,0,0:0:0:0:
361,129,13683,1,0,3:0:0:0:
492,165,13865,2,0,L|513:87,1,80,8|0,0:0|0:0,0:0:0:0:
267,152,14228,6,0,L|346:132,1,80,0|0,0:0|0:0,0:0:0:0:
477,160,14592,2,0,L|361:129,1,120,8|0,0:0|0:0,0:0:0:0:
492,165,14956,1,0,0:0:0:0:
466,261,15138,1,0,3:0:0:0:
322,222,15319,1,0,3:0:0:0:
296,318,15501,1,0,3:0:0:0:
65,255,15683,54,0,L|152:279,1,89.9999972534181,2|0,3:2|0:0,0:0:0:0:
237,182,15956,1,2,0:0:0:0:
220,187,16047,2,0,L|176:199,1,44.999998626709,10|0,0:0|0:0,0:0:0:0:
47,163,16228,2,0,L|90:175,1,44.999998626709,2|0,0:0|0:0,0:0:0:0:
179,27,16410,2,0,L|155:114,1,89.9999972534181,2|0,0:0|3:0,0:0:0:0:
277,263,16774,2,0,L|253:176,1,89.9999972534181,10|0,0:0|0:0,0:0:0:0:
145,365,17138,6,0,L|232:341,1,89.9999972534181,2|0,3:2|0:0,0:0:0:0:
370,368,17410,1,2,0:0:0:0:
352,373,17501,2,0,L|308:385,1,44.999998626709,10|0,0:0|0:0,0:0:0:0:
277,263,17683,2,0,L|320:251,1,44.999998626709,2|0,0:0|0:0,0:0:0:0:
456,344,17865,2,0,L|432:257,1,89.9999972534181,2|0,0:0|3:0,0:0:0:0:
291,147,18228,2,0,L|315:234,1,89.9999972534181,2|0,3:2|3:0,0:0:0:0:
457,91,18592,6,0,L|370:67,1,89.9999972534181,2|0,3:2|0:0,0:0:0:0:
199,54,18865,1,2,0:0:0:0:
217,49,18956,2,0,L|260:37,1,44.999998626709,10|0,0:0|0:0,0:0:0:0:
124,133,19138,2,0,L|167:145,1,44.999998626709,2|0,0:0|0:0,0:0:0:0:
13,22,19319,2,0,L|37:109,1,89.9999972534181,2|0,0:0|3:0,0:0:0:0:
138,249,19683,2,0,L|162:162,1,89.9999972534181,10|0,0:0|0:0,0:0:0:0:
312,250,20047,6,0,L|225:226,1,89.9999972534181,2|0,3:2|0:0,0:0:0:0:
53,352,20319,1,2,0:0:0:0:
70,347,20410,2,0,L|113:335,1,44.999998626709,10|0,0:0|0:0,0:0:0:0:
126,205,20592,2,0,L|138:249,1,44.999998626709,2|0,0:0|0:0,0:0:0:0:
288,336,20774,2,0,L|201:312,1,89.9999972534181,2|0,0:0|3:0,0:0:0:0:
397,272,21138,1,2,3:2:0:0:
373,358,21319,1,2,3:2:0:0:
420,185,21501,54,0,L|444:98,1,89.9999972534181,2|0,3:2|0:0,0:0:0:0:
272,144,21774,1,2,0:0:0:0:
289,149,21865,2,0,L|332:161,1,44.999998626709,10|0,0:0|0:0,0:0:0:0:
379,33,22047,2,0,L|335:45,1,44.999998626709,2|0,0:0|0:0,0:0:0:0:
185,120,22228,2,0,L|161:33,1,89.9999972534181,2|0,0:0|3:0,0:0:0:0:
53,221,22592,2,0,L|140:197,1,89.9999972534181,10|0,0:0|0:0,0:0:0:0:
304,265,22956,6,0,L|217:241,1,89.9999972534181,2|0,3:2|0:0,0:0:0:0:
385,139,23228,1,2,0:0:0:0:
380,156,23319,2,0,L|368:199,1,44.999998626709,10|0,0:0|0:0,0:0:0:0:
199,301,23501,2,0,L|211:257,1,44.999998626709,2|0,0:0|0:0,0:0:0:0:
214,90,23683,2,0,L|301:113,1,89.9999972534181,2|0,0:0|3:0,0:0:0:0:
407,49,24047,2,0,L|320:25,1,89.9999972534181,2|0,3:2|3:0,0:0:0:0:
368,200,24410,6,0,L|455:176,1,89.9999972534181,2|0,3:2|0:0,0:0:0:0:
417,332,24683,1,2,0:0:0:0:
400,328,24774,2,0,L|356:316,1,44.999998626709,10|0,0:0|0:0,0:0:0:0:
237,235,24956,2,0,L|280:223,1,44.999998626709,2|0,0:0|0:0,0:0:0:0:
225,351,25138,2,0,L|138:327,1,89.9999972534181,2|0,0:0|3:0,0:0:0:0:
27,216,25501,2,0,L|51:303,1,89.9999972534181,10|0,0:0|0:0,0:0:0:0:
172,122,25865,6,0,L|148:209,1,89.9999972534181,0|0,3:0|0:0,0:0:0:0:
163,115,26228,2,0,L|137:210,1,100,8|0,0:0|0:0,0:0:0:0:
154,108,26592,2,0,L|124:214,1,110.000003356934,0|0,0:0|3:0,0:0:0:0:
144,100,26956,54,0,L|128:157,1,59.9999981689454,2|0,3:2|0:0,0:0:0:0:
195,298,27138,2,0,L|210:240,1,59.9999981689454,2|0,3:2|0:0,0:0:0:0:
347,131,27319,6,0,L|230:161,1,119.999996337891,2|0,3:2|0:0,0:0:0:0:
292,340,27683,1,2,0:0:0:0:
322,333,27774,1,2,0:0:0:0:
371,277,27865,1,2,3:2:0:0:
400,269,27956,1,2,3:2:0:0:
486,292,28047,2,0,L|455:175,1,119.999996337891,10|0,0:0|3:0,0:0:0:0:
403,44,28410,1,2,0:0:0:0:
396,68,28501,1,2,0:0:0:0:
331,106,28592,1,2,3:2:0:0:
325,130,28683,1,2,0:0:0:0:
262,181,28774,6,0,L|203:166,1,59.9999981689454,2|0,3:2|0:0,0:0:0:0:
93,259,28956,2,0,L|151:244,1,59.9999981689454,10|0,0:0|0:0,0:0:0:0:
178,84,29138,2,0,L|119:69,1,59.9999981689454,2|0,0:0|0:0,0:0:0:0:
9,162,29319,2,0,L|67:147,1,59.9999981689454,2|0,3:2|0:0,0:0:0:0:
209,288,29501,2,0,L|92:258,1,119.999996337891,8|0,0:0|0:0,0:0:0:0:
79,253,29774,1,0,3:0:0:0:
67,249,29865,1,0,3:0:0:0:
0,384,30047,1,8,0:0:0:0:
46,367,30138,1,8,0:0:0:0:
92,351,30228,5,0,3:0:0:0:
38,133,30410,2,0,L|68:250,1,119.999996337891,2|0,0:0|0:0,0:0:0:0:
213,177,30774,1,2,3:2:0:0:
183,169,30865,1,2,3:2:0:0:
154,162,30956,2,0,L|212:147,1,59.9999981689454,10|0,0:0|0:0,0:0:0:0:
386,100,31138,1,2,3:2:0:0:
321,210,31319,1,2,0:0:0:0:
310,167,31410,1,2,0:0:0:0:
299,123,31501,1,2,0:0:0:0:
287,79,31592,1,2,0:0:0:0:
276,36,31683,53,2,3:2:0:0:
321,210,31865,1,2,0:0:0:0:
444,115,32047,2,0,L|386:100,1,59.9999981689454,2|0,0:0|0:0,0:0:0:0:
250,228,32228,2,0,L|308:213,1,59.9999981689454,2|0,3:2|3:0,0:0:0:0:
437,138,32410,2,0,L|422:196,1,59.9999981689454,10|0,0:0|0:0,0:0:0:0:
254,251,32592,2,0,L|269:309,1,59.9999981689454,2|0,3:2|0:0,0:0:0:0:
494,303,32774,2,0,L|378:273,1,119.999996337891,2|0,3:2|3:0,0:0:0:0:
124,115,33138,6,0,L|240:145,1,119.999996337891,2|0,3:2|0:0,0:0:0:0:
352,292,33501,1,2,3:2:0:0:
344,321,33592,1,2,0:0:0:0:
275,363,33683,1,2,0:0:0:0:
246,355,33774,1,2,0:0:0:0:
204,286,33865,2,0,L|234:170,1,119.999996337891,2|0,3:2|0:0,0:0:0:0:
27,356,34228,1,2,3:2:0:0:
33,339,34319,1,2,0:0:0:0:
105,362,34410,1,2,0:0:0:0:
111,345,34501,1,2,0:0:0:0:
183,368,34592,6,0,L|198:310,1,59.9999981689454,2|0,3:2|0:0,0:0:0:0:
382,191,34774,2,0,L|397:249,1,59.9999981689454,2|0,0:0|0:0,0:0:0:0:
312,368,34956,2,0,L|297:310,1,59.9999981689454,2|0,3:2|0:0,0:0:0:0:
511,191,35138,2,0,L|496:249,1,59.9999981689454,2|0,0:0|0:0,0:0:0:0:
291,286,35319,2,0,L|261:170,1,119.999996337891,2|0,3:2|0:0,0:0:0:0:
243,92,35592,1,2,0:0:0:0:
239,80,35683,2,0,L|297:95,1,59.9999981689454,2|0,3:2|0:0,0:0:0:0:
433,152,35865,2,0,L|375:167,1,59.9999981689454,2|0,0:0|0:0,0:0:0:0:
463,49,36047,5,2,3:2:0:0:
409,243,36228,2,0,L|379:359,1,119.999996337891,2|0,0:0|3:0,0:0:0:0:
213,240,36592,1,2,0:0:0:0:
234,218,36683,1,2,0:0:0:0:
255,197,36774,2,0,L|272:254,1,59.9999981689454,2|0,3:2|0:0,0:0:0:0:
450,94,36956,2,0,L|433:151,1,59.9999981689454,2|0,0:0|0:0,0:0:0:0:
310,114,37138,1,2,3:2:0:0:
267,102,37228,1,2,0:0:0:0:
223,91,37319,1,2,0:0:0:0:
180,79,37410,1,2,0:0:0:0:
122,10,37501,54,0,L|137:68,1,59.9999981689454,2|0,0:0|0:0,0:0:0:0:
20,186,37683,2,0,L|78:171,1,59.9999981689454,2|0,0:0|0:0,0:0:0:0:
196,288,37865,2,0,L|181:230,1,59.9999981689454,2|0,0:0|0:0,0:0:0:0:
204,296,38047,2,0,L|189:238,1,59.9999981689454,2|0,0:0|0:0,0:0:0:0:
306,120,38228,6,0,L|248:135,1,59.9999981689454,2|0,0:0|0:0,0:0:0:0:
28,194,38410,2,0,L|86:179,1,59.9999981689454,2|0,0:0|0:0,0:0:0:0:
196,377,38592,6,0,L|312:347,1,120,2|0,0:0|0:0,0:0:0:0:
390,327,38956,6,0,L|355:191,1,139.999995727539,6|0,3:2|0:0,0:0:0:0:
389,114,39228,1,2,0:0:0:0:
456,165,39319,2,0,L|491:300,1,139.999995727539,10|0,0:0|0:0,0:0:0:0:
459,378,39592,1,2,0:0:0:0:
390,327,39683,2,0,L|355:191,1,139.999995727539,2|0,3:2|0:0,0:0:0:0:
368,5,40047,1,10,0:0:0:0:
354,18,40138,1,2,0:0:0:0:
276,19,40228,1,2,0:0:0:0:
262,32,40319,1,2,0:0:0:0:
184,33,40410,54,0,L|201:100,1,69.9999978637696,2|0,3:2|0:0,0:0:0:0:
271,172,40592,2,0,L|252:239,1,69.9999978637696,2|0,0:0|0:0,0:0:0:0:
92,19,40774,2,0,L|109:86,1,69.9999978637696,10|0,0:0|0:0,0:0:0:0:
179,186,40956,2,0,L|160:253,1,69.9999978637696,2|0,0:0|0:0,0:0:0:0:
0,5,41138,2,0,L|34:140,1,139.999995727539,0|0,3:0|0:0,0:0:0:0:
0,219,41410,1,2,0:0:0:0:
41,143,41501,2,0,L|7:8,1,139.999995727539,10|0,0:0|0:0,0:0:0:0:
78,293,41865,5,2,3:2:0:0:
349,224,42047,1,2,0:0:0:0:
204,293,42228,1,10,0:0:0:0:
214,259,42319,1,2,0:0:0:0:
224,226,42410,1,2,0:0:0:0:
61,226,42592,6,0,L|78:293,1,69.9999978637696,2|0,3:2|0:0,0:0:0:0:
366,291,42774,2,0,L|349:224,1,69.9999978637696,2|0,0:0|0:0,0:0:0:0:
196,185,42956,1,10,0:0:0:0:
214,259,43047,1,2,0:0:0:0:
232,335,43138,2,0,L|299:352,1,69.9999978637696,2|2,0:0|0:0,0:0:0:0:
478,181,43319,6,0,L|411:164,1,69.9999978637696,2|0,3:2|0:0,0:0:0:0:
373,5,43501,2,0,L|356:72,1,69.9999978637696,2|0,0:0|0:0,0:0:0:0:
214,259,43683,2,0,L|197:192,1,69.9999978637696,10|0,0:0|0:0,0:0:0:0:
38,153,43865,2,0,L|105:136,1,69.9999978637696,2|0,0:0|0:0,0:0:0:0:
277,91,44047,53,2,3:2:0:0:
27,61,44228,1,2,0:0:0:0:
69,284,44410,2,0,L|103:148,1,139.999995727539,10|0,0:0|0:0,0:0:0:0:
231,350,44774,6,0,L|95:385,1,139.999995727539,2|0,3:2|0:0,0:0:0:0:
18,351,45047,1,2,0:0:0:0:
69,284,45138,2,0,L|204:249,1,139.999995727539,10|0,0:0|0:0,0:0:0:0:
282,281,45410,1,2,0:0:0:0:
231,350,45501,2,0,L|95:385,1,139.999995727539,2|0,3:2|0:0,0:0:0:0:
156,156,45865,1,10,0:0:0:0:
172,143,45956,1,2,0:0:0:0:
248,170,46047,1,2,0:0:0:0:
264,157,46138,1,2,0:0:0:0:
340,184,46228,6,0,L|357:117,1,69.9999978637696,2|0,3:2|0:0,0:0:0:0:
464,228,46410,2,0,L|447:161,1,69.9999978637696,2|0,0:0|0:0,0:0:0:0:
301,340,46592,2,0,L|318:273,1,69.9999978637696,10|0,0:0|0:0,0:0:0:0:
503,384,46774,2,0,L|486:317,1,69.9999978637696,2|0,0:0|0:0,0:0:0:0:
208,384,46956,2,0,L|242:248,1,139.999995727539,2|0,3:2|0:0,0:0:0:0:
218,167,47228,1,2,0:0:0:0:
250,246,47319,2,0,L|215:381,1,139.999995727539,10|0,0:0|0:0,0:0:0:0:
287,109,47683,5,2,3:2:0:0:
17,39,47865,1,2,0:0:0:0:
162,108,48047,1,10,0:0:0:0:
152,74,48138,1,2,0:0:0:0:
142,41,48228,1,2,0:0:0:0:
305,41,48410,54,0,L|288:108,1,69.9999978637696,2|0,3:2|0:0,0:0:0:0:
0,106,48592,2,0,L|17:39,1,69.9999978637696,2|0,0:0|0:0,0:0:0:0:
170,0,48774,1,10,0:0:0:0:
152,74,48865,1,2,0:0:0:0:
134,150,48956,2,0,L|67:167,1,69.9999978637696,2|2,0:0|0:0,0:0:0:0:
0,322,49138,6,0,L|67:339,1,69.9999978637696,2|0,3:2|0:0,0:0:0:0:
236,384,49319,2,0,L|169:367,1,69.9999978637696,2|0,0:0|0:0,0:0:0:0:
147,154,49501,2,0,L|214:171,1,69.9999978637696,10|0,0:0|0:0,0:0:0:0:
383,216,49683,2,0,L|316:199,1,69.9999978637696,2|0,0:0|0:0,0:0:0:0:
74,238,49865,5,2,3:2:0:0:
309,300,50047,1,10,0:0:0:0:
220,70,50228,1,10,0:0:0:0:
455,132,50410,1,8,0:0:0:0:
147,154,50592,6,0,L|122:57,1,100,4|0,3:2|0:0,0:0:0:0:
243,180,50956,1,8,0:0:0:0:
75,223,51138,1,0,0:0:0:0:
274,64,51319,2,0,L|249:161,1,100,0|0,3:0|0:0,0:0:0:0:
205,325,51683,1,8,0:0:0:0:
75,223,51865,1,0,0:0:0:0:
301,300,52047,54,0,L|398:275,1,100,0|0,3:0|0:0,0:0:0:0:
243,180,52410,1,8,0:0:0:0:
205,325,52592,2,0,L|399:375,1,200,0|0,0:0|0:0,0:0:0:0:
328,209,53138,1,8,0:0:0:0:
190,339,53319,1,0,0:0:0:0:
413,238,53501,6,0,L|388:141,1,100,0|0,3:0|0:0,0:0:0:0:
208,77,53865,1,8,0:0:0:0:
328,209,54047,1,0,0:0:0:0:
123,106,54228,2,0,L|148:9,1,100,0|0,3:0|0:0,0:0:0:0:
268,143,54592,1,8,0:0:0:0:
98,202,54774,1,0,0:0:0:0:
208,77,54956,5,0,3:0:0:0:
158,268,55138,2,0,L|133:365,1,100,0|8,0:0|0:0,0:0:0:0:
38,135,55501,1,0,0:0:0:0:
280,197,55683,2,0,L|183:172,1,100,0|0,3:0|0:0,0:0:0:0:
36,340,56047,2,0,L|133:365,1,100,8|0,0:0|0:0,0:0:0:0:
397,167,56410,6,0,L|300:192,1,100,0|0,3:0|0:0,0:0:0:0:
499,291,56774,1,8,0:0:0:0:
464,96,56956,1,0,0:0:0:0:
325,288,57138,2,0,L|350:385,1,100,0|0,3:0|0:0,0:0:0:0:
427,243,57501,1,8,0:0:0:0:
264,129,57683,1,0,0:0:0:0:
489,0,57865,54,0,L|464:97,1,100,0|0,3:0|0:0,0:0:0:0:
244,132,58228,1,8,0:0:0:0:
457,225,58410,2,0,L|407:31,1,200,0|0,0:0|0:0,0:0:0:0:
244,30,58956,1,8,0:0:0:0:
350,160,59138,1,0,0:0:0:0:
85,119,59319,6,0,L|182:94,1,100,0|0,3:0|0:0,0:0:0:0:
295,226,59683,1,8,0:0:0:0:
199,370,59865,1,0,0:0:0:0:
454,315,60047,2,0,L|357:290,1,100,0|0,3:0|0:0,0:0:0:0:
149,231,60410,1,8,0:0:0:0:
350,160,60592,1,0,0:0:0:0:
225,282,60774,5,0,3:0:0:0:
274,109,60956,2,0,L|299:12,1,100,0|8,0:0|0:0,0:0:0:0:
421,234,61319,1,0,0:0:0:0:
203,177,61501,1,0,3:0:0:0:
512,258,61683,1,8,0:0:0:0:
425,93,61865,1,8,0:0:0:0:
358,330,62047,1,8,0:0:0:0:
299,111,62228,6,0,L|269:-5,1,119.999996337891,2|0,3:2|0:0,0:0:0:0:
357,17,62501,1,2,0:0:0:0:
380,23,62592,1,10,0:0:0:0:
239,177,62774,1,0,0:0:0:0:
507,168,62956,2,0,L|391:138,1,119.999996337891,2|0,3:2|0:0,0:0:0:0:
407,226,63228,1,2,0:0:0:0:
411,249,63319,1,10,0:0:0:0:
490,79,63501,1,0,0:0:0:0:
316,271,63683,54,0,L|200:301,1,119.999996337891,2|0,3:2|0:0,0:0:0:0:
129,190,63956,1,2,0:0:0:0:
116,171,64047,2,0,L|232:201,1,119.999996337891,10|0,0:0|0:0,0:0:0:0:
432,301,64410,2,0,L|316:331,1,119.999996337891,2|0,3:2|0:0,0:0:0:0:
245,220,64683,1,2,0:0:0:0:
232,201,64774,2,0,L|348:231,1,119.999996337891,10|0,0:0|0:0,0:0:0:0:
150,284,65138,6,0,L|34:254,1,119.999996337891,2|0,3:2|0:0,0:0:0:0:
105,364,65410,1,2,0:0:0:0:
118,384,65501,2,0,L|234:354,1,119.999996337891,10|0,0:0|0:0,0:0:0:0:
348,231,65865,2,0,L|232:201,1,119.999996337891,2|0,3:2|0:0,0:0:0:0:
303,311,66138,1,2,0:0:0:0:
316,331,66228,1,10,0:0:0:0:
375,149,66410,1,0,0:0:0:0:
435,381,66592,5,2,3:2:0:0:
203,317,66774,1,2,0:0:0:0:
375,149,66956,2,0,L|405:265,1,119.999996337891,10|0,0:0|0:0,0:0:0:0:
173,200,67319,2,0,L|258:116,1,119.999996337891,2|0,3:2|0:0,0:0:0:0:
319,350,67683,2,0,L|203:317,1,119.999996337891,8|0,0:0|0:0,0:0:0:0:
25,49,68047,6,0,L|57:168,1,119.999996337891,2|0,3:2|0:0,0:0:0:0:
119,101,68319,1,2,0:0:0:0:
136,84,68410,1,10,0:0:0:0:
0,221,68592,1,0,0:0:0:0:
196,169,68774,2,0,L|315:137,1,119.999996337891,2|0,3:2|0:0,0:0:0:0:
248,75,69047,1,2,0:0:0:0:
231,58,69138,1,10,0:0:0:0:
368,194,69319,1,0,0:0:0:0:
472,37,69501,54,0,L|440:152,1,119.999996337891,2|0,3:2|0:0,0:0:0:0:
464,240,69774,1,2,0:0:0:0:
470,262,69865,2,0,L|354:230,1,119.999996337891,10|0,0:0|0:0,0:0:0:0:
212,145,70228,2,0,L|243:260,1,119.999996337891,2|0,3:2|0:0,0:0:0:0:
309,323,70501,1,2,0:0:0:0:
328,337,70592,2,0,L|212:368,1,119.999996337891,10|0,0:0|0:0,0:0:0:0:
24,257,70956,6,0,L|139:225,1,119.999996337891,2|0,3:2|0:0,0:0:0:0:
282,0,71319,2,0,L|251:115,1,119.999996337891,10|0,0:0|0:0,0:0:0:0:
290,266,71683,1,2,3:2:0:0:
139,224,71865,1,0,0:0:0:0:
341,144,72047,1,10,0:0:0:0:
369,152,72138,1,2,0:0:0:0:
398,160,72228,1,2,0:0:0:0:
427,168,72319,1,2,0:0:0:0:
456,176,72410,5,2,3:2:0:0:
250,115,72592,1,2,0:0:0:0:
340,348,72774,2,0,L|371:233,1,119.999996337891,10|0,0:0|0:0,0:0:0:0:
95,286,73138,1,2,3:2:0:0:
224,319,73319,1,8,0:0:0:0:
60,156,73501,1,8,0:0:0:0:
0,380,73683,1,8,0:0:0:0:
312,293,73865,6,0,L|408:266,1,100,6|0,3:2|0:0,0:0:0:0:
198,147,74228,2,0,L|224:244,1,100,10|0,0:0|0:0,0:0:0:0:
344,33,74592,2,0,L|247:59,1,100,2|0,3:2|0:0,0:0:0:0:
458,179,74956,1,10,0:2:0:0:
430,82,75138,1,2,0:2:0:0:
198,147,75319,53,2,3:2:0:0:
328,163,75501,1,2,0:2:0:0:
141,285,75683,1,10,0:2:0:0:
271,269,75865,1,2,0:2:0:0:
111,69,76047,1,2,3:2:0:0:
241,85,76228,1,2,0:2:0:0:
54,207,76410,1,10,0:2:0:0:
184,191,76592,1,2,0:2:0:0:
4,15,76774,6,0,L|30:112,1,100,2|0,3:2|0:0,0:0:0:0:
174,160,77138,2,0,L|148:63,1,100,8|2,0:0|0:0,0:0:0:0:
54,207,77501,2,0,L|80:304,1,100,0|0,3:2|0:0,0:0:0:0:
227,354,77865,2,0,L|201:257,1,100,8|0,0:0|0:0,0:0:0:0:
393,308,78228,6,0,L|321:379,1,100,0|0,3:2|0:0,0:0:0:0:
270,185,78592,2,0,L|367:210,1,100,8|0,0:0|0:0,0:0:0:0:
104,231,78956,2,0,L|175:160,1,100,0|0,3:2|0:0,0:0:0:0:
227,354,79319,2,0,L|130:329,1,100,8|0,0:0|0:0,0:0:0:0:
366,209,79683,6,0,L|391:306,1,100,0|0,3:2|0:0,0:0:0:0:
417,73,80047,2,0,L|320:98,1,100,10|0,0:0|0:0,0:0:0:0:
173,209,80410,2,0,L|270:184,1,100,2|0,3:2|0:0,0:0:0:0:
512,280,80774,1,10,0:0:0:0:
487,183,80956,1,2,0:0:0:0:
325,312,81138,53,2,3:2:0:0:
362,166,81319,1,2,0:0:0:0:
225,336,81501,1,10,0:0:0:0:
177,123,81683,1,2,0:0:0:0:
31,384,81865,2,0,L|128:359,1,100,2|0,3:2|0:0,0:0:0:0:
293,152,82228,2,0,L|196:127,1,100,10|0,0:0|0:0,0:0:0:0:
50,89,82592,5,2,3:2:0:0:
438,189,82774,1,2,3:2:0:0:
50,89,83319,5,2,3:2:0:0:
438,189,83501,1,2,3:2:0:0:
438,189,83865,6,0,L|220:247,1,225.000008583069,2|0,3:2|0:0,0:0:0:0:
112,276,84228,1,2,3:2:0:0:
271,72,84410,1,2,3:2:0:0:
512,384,84592,1,2,3:2:0:0:
422,110,85138,54,0,B|476:124|476:124|455:201|455:201|293:158,1,300,8|0,0:0|0:0,0:0:0:0:
198,53,85501,6,0,B|343:91,1,150.000005722046,6|0,3:2|0:0,0:0:0:0:
472,276,85865,1,8,0:0:0:0:
398,33,86047,1,2,0:0:0:0:
232,200,86228,1,2,3:2:0:0:
422,110,86410,1,2,0:0:0:0:
153,180,86592,2,0,B|8:142,1,150.000005722046,10|0,0:0|0:0,0:0:0:0:
260,316,86956,6,0,B|279:337|279:337|312:214,1,150.000005722046,2|0,3:2|0:0,0:0:0:0:
2,229,87319,2,0,B|-26:234|-26:234|64:325,1,150.000005722046,10|0,0:0|0:0,0:0:0:0:
206,50,87683,2,0,B|215:23|215:23|91:55,1,150.000005722046,2|0,3:2|0:0,0:0:0:0:
310,219,88047,1,10,0:0:0:0:
430,40,88228,2,0,B|284:78,1,150.000005722046,2|0,0:0|3:0,0:0:0:0:
158,337,88592,5,2,0:2:0:0:
362,295,88774,1,10,0:2:0:0:
187,226,88956,1,2,0:2:0:0:
430,40,89138,2,0,B|391:184,1,150.000005722046,2|0,3:2|0:0,0:0:0:0:
260,316,89501,1,10,0:2:0:0:
114,136,89683,1,2,0:2:0:0:
362,295,89865,53,2,3:2:0:0:
66,216,90047,1,2,0:2:0:0:
383,313,90228,1,10,0:2:0:0:
87,234,90410,1,2,0:2:0:0:
416,205,90592,5,2,3:2:0:0:
116,340,90774,1,2,0:2:0:0:
437,223,90956,1,10,0:2:0:0:
137,358,91138,1,2,0:2:0:0:
208,40,91319,6,0,B|247:184,1,150.000005722046,6|0,3:2|0:0,0:0:0:0:
374,30,91683,1,8,0:0:0:0:
117,46,91865,1,2,0:2:0:0:
271,270,92047,1,2,3:2:0:0:
312,105,92228,1,2,0:2:0:0:
43,209,92410,2,0,B|187:248,1,150.000005722046,10|0,0:2|0:0,0:0:0:0:
496,257,92774,6,0,B|524:262|524:262|438:348,1,150.000005722046,2|0,3:2|0:0,0:0:0:0:
292,78,93138,2,0,B|283:51|283:51|400:81,1,150.000005722046,10|0,0:2|0:0,0:0:0:0:
238,344,93501,2,0,B|219:365|219:365|187:247,1,150.000005722046,2|0,3:2|0:0,0:0:0:0:
484,104,93865,1,10,0:2:0:0:
425,312,94047,2,0,B|281:273,1,150.000005722046,2|0,0:2|3:0,0:0:0:0:
4,189,94410,53,2,0:2:0:0:
133,61,94592,1,10,0:2:0:0:
179,237,94774,1,2,0:2:0:0:
452,148,94956,2,0,B|308:109,1,150.000005722046,2|0,3:2|0:0,0:0:0:0:
69,125,95319,1,10,0:2:0:0:
236,296,95501,1,2,0:2:0:0:
447,49,95683,5,2,3:2:0:0:
257,314,95865,1,2,0:2:0:0:
219,88,96047,1,10,0:2:0:0:
485,277,96228,1,2,0:2:0:0:
468,67,96410,5,2,3:2:0:0:
278,332,96592,1,2,0:2:0:0:
240,106,96774,1,10,0:2:0:0:
506,295,96956,1,2,0:2:0:0:
175,348,97138,6,0,B|213:203,1,150.000005722046,6|0,3:2|0:0,0:0:0:0:
381,316,97501,1,8,0:0:0:0:
72,364,97683,1,2,0:2:0:0:
240,106,97865,1,2,3:2:0:0:
297,259,98047,1,2,0:2:0:0:
14,163,98228,2,0,B|160:123,1,150.000005722046,10|0,0:2|0:0,0:0:0:0:
469,226,98592,54,0,B|449:298|449:298|377:279,1,150.000005722046,2|0,3:2|0:0,0:0:0:0:
224,27,98956,2,0,B|296:8|296:8|316:79,1,150.000005722046,10|0,0:2|0:0,0:0:0:0:
175,339,99319,2,0,B|121:285|121:285|174:232,1,150.000005722046,2|0,3:2|0:0,0:0:0:0:
469,226,99683,1,10,0:2:0:0:
240,165,99865,2,0,B|93:125,1,150.000005722046,2|0,0:2|3:0,0:0:0:0:
216,384,100228,5,2,0:2:0:0:
320,186,100410,1,10,0:2:0:0:
82,244,100592,1,2,0:2:0:0:
308,356,100774,2,0,B|454:316,1,150.000005722046,2|0,3:2|0:0,0:0:0:0:
320,186,101138,1,10,0:2:0:0:
216,384,101319,1,2,0:2:0:0:
134,34,101501,5,2,3:2:0:0:
37,310,101683,1,2,0:2:0:0:
155,52,101865,1,10,0:2:0:0:
58,328,102047,1,2,0:2:0:0:
25,2,102228,5,2,3:2:0:0:
183,298,102410,1,2,0:2:0:0:
46,20,102592,1,10,0:2:0:0:
204,316,102774,1,2,0:2:0:0:
352,58,102956,54,0,B|205:97,1,150.000005722046,2|0,3:2|0:0,0:0:0:0:
341,300,103319,2,0,B|328:249|328:249|331:203|331:203|317:153,1,150.000005722046,10|0,0:2|0:0,0:0:0:0:
437,37,103683,1,2,3:2:0:0:
512,243,103865,1,2,0:2:0:0:
239,178,104047,2,0,B|92:217,1,150.000005722046,10|0,0:0|0:0,0:0:0:0:
312,355,104410,6,0,B|364:301|364:301|311:248,1,150.000005722046,2|0,3:2|0:0,0:0:0:0:
17,242,104774,2,0,B|36:313|36:313|108:295,1,150.000005722046,10|0,0:2|0:0,0:0:0:0:
262,43,105138,2,0,B|188:23|188:23|168:95,1,150.000005722046,2|0,3:2|0:0,0:0:0:0:
311,248,105501,1,10,0:2:0:0:
482,101,105683,2,0,B|335:62,1,150.000005722046,2|0,0:2|3:0,0:0:0:0:
210,272,106047,5,2,0:2:0:0:
417,220,106228,1,10,0:2:0:0:
242,174,106410,1,2,0:2:0:0:
412,352,106592,1,2,3:2:0:0:
227,158,106774,1,2,0:2:0:0:
179,367,106956,1,10,0:2:0:0:
417,220,107138,1,2,0:2:0:0:
108,108,107319,5,2,3:2:0:0:
381,39,107501,1,2,0:2:0:0:
201,255,107683,1,10,0:2:0:0:
61,44,107865,1,2,0:2:0:0:
396,120,108047,1,2,3:2:0:0:
132,304,108228,1,2,0:2:0:0:
193,113,108410,1,8,0:0:0:0:
258,330,108592,1,2,0:0:0:0:
6,278,108774,53,0,3:0:0:0:
222,206,109138,1,8,0:0:0:0:
3,306,109501,5,0,3:0:0:0:
122,263,109683,1,0,3:0:0:0:
241,220,109865,1,8,0:0:0:0:
97,3,110228,5,0,3:0:0:0:
25,219,110592,1,8,0:0:0:0:
125,0,110956,5,0,3:0:0:0:
82,119,111138,1,0,3:0:0:0:
39,238,111319,1,8,0:0:0:0:
506,278,111683,53,0,3:0:0:0:
290,206,112047,1,8,0:0:0:0:
509,306,112410,5,0,3:0:0:0:
390,263,112592,1,0,3:0:0:0:
271,220,112774,1,8,0:0:0:0:
415,3,113138,5,0,3:0:0:0:
487,219,113501,2,0,L|467:162,1,59.9999981689454,8|0,0:0|0:0,0:0:0:0:
415,3,113683,1,0,3:0:0:0:
494,241,114047,5,8,0:0:0:0:
317,208,114228,1,8,0:0:0:0:
376,377,114410,1,8,0:0:0:0:
81,383,114592,54,0,L|216:345,1,139.999995727539,6|0,3:2|0:0,0:0:0:0:
265,276,114865,1,2,0:0:0:0:
187,244,114956,2,0,L|52:281,1,139.999995727539,10|0,0:0|0:0,0:0:0:0:
1,348,115228,1,2,0:0:0:0:
81,383,115319,2,0,L|216:345,1,139.999995727539,2|0,3:2|0:0,0:0:0:0:
503,203,115683,1,10,0:0:0:0:
496,181,115774,1,2,0:0:0:0:
409,178,115865,1,2,0:0:0:0:
402,156,115956,1,2,0:0:0:0:
320,157,116047,6,0,L|338:89,1,69.9999978637696,2|0,3:2|0:0,0:0:0:0:
457,296,116228,2,0,L|389:277,1,69.9999978637696,2|0,0:0|0:0,0:0:0:0:
200,225,116410,2,0,L|218:157,1,69.9999978637696,10|0,0:0|0:0,0:0:0:0:
337,364,116592,2,0,L|269:345,1,69.9999978637696,2|0,0:0|0:0,0:0:0:0:
80,293,116774,2,0,L|116:157,1,139.999995727539,0|0,3:0|0:0,0:0:0:0:
138,75,117047,1,2,0:0:0:0:
123,164,117138,2,0,L|86:299,1,139.999995727539,10|0,0:0|0:0,0:0:0:0:
266,133,117501,5,2,3:2:0:0:
22,196,117683,1,2,0:0:0:0:
199,376,117865,1,10,0:0:0:0:
210,344,117956,1,2,0:0:0:0:
175,352,118047,1,2,0:0:0:0:
266,133,118228,6,0,L|198:151,1,69.9999978637696,2|0,3:2|0:0,0:0:0:0:
22,196,118410,2,0,L|71:245,1,69.9999978637696,2|0,0:0|0:0,0:0:0:0:
199,376,118592,1,10,0:0:0:0:
146,323,118683,1,2,0:0:0:0:
223,305,118774,2,0,L|291:287,1,69.9999978637696,2|2,0:0|0:0,0:0:0:0:
457,143,118956,54,0,L|439:211,1,69.9999978637696,2|0,3:2|0:0,0:0:0:0:
258,119,119138,2,0,L|276:51,1,69.9999978637696,2|0,0:0|0:0,0:0:0:0:
372,273,119319,2,0,L|354:341,1,69.9999978637696,10|0,0:0|0:0,0:0:0:0:
173,249,119501,2,0,L|191:181,1,69.9999978637696,2|0,0:0|0:0,0:0:0:0:
401,68,119683,5,2,3:2:0:0:
161,3,119865,1,2,0:0:0:0:
311,186,120047,2,0,L|275:50,1,139.999995727539,10|0,0:0|0:0,0:0:0:0:
512,172,120410,6,0,L|475:307,1,139.999995727539,2|0,3:2|0:0,0:0:0:0:
408,358,120683,1,2,0:0:0:0:
373,278,120774,2,0,L|411:143,1,139.999995727539,10|0,0:0|0:0,0:0:0:0:
480,94,121047,1,2,0:0:0:0:
512,172,121138,2,0,L|474:307,1,139.999995727539,2|0,3:2|0:0,0:0:0:0:
186,330,121501,1,10,0:0:0:0:
178,303,121592,1,2,0:0:0:0:
208,229,121683,1,2,0:0:0:0:
200,202,121774,1,2,0:0:0:0:
130,163,121865,6,0,L|62:182,1,69.9999978637696,2|0,3:2|0:0,0:0:0:0:
265,292,122047,2,0,L|197:311,1,69.9999978637696,2|0,0:0|0:0,0:0:0:0:
302,112,122228,2,0,L|234:131,1,69.9999978637696,10|0,0:0|0:0,0:0:0:0:
437,241,122410,2,0,L|369:260,1,69.9999978637696,2|0,0:0|0:0,0:0:0:0:
470,0,122592,2,0,L|335:38,1,139.999995727539,2|0,3:2|0:0,0:0:0:0:
254,10,122865,1,2,0:0:0:0:
330,46,122956,2,0,L|465:8,1,139.999995727539,10|0,0:0|0:0,0:0:0:0:
284,204,123319,53,2,3:2:0:0:
106,24,123501,1,2,0:0:0:0:
39,267,123683,1,10,0:0:0:0:
72,260,123774,1,2,0:0:0:0:
48,234,123865,1,2,0:0:0:0:
284,204,124047,6,0,L|234:154,1,69.9999978637696,2|0,3:2|0:0,0:0:0:0:
106,24,124228,2,0,L|88:90,1,69.9999978637696,2|0,0:0|0:0,0:0:0:0:
39,267,124410,1,10,0:0:0:0:
58,195,124501,1,2,0:0:0:0:
112,252,124592,2,0,L|161:301,1,69.9999978637696,2|2,0:0|0:0,0:0:0:0:
386,383,124774,6,0,L|337:334,1,69.9999978637696,2|0,3:2|0:0,0:0:0:0:
385,143,124956,2,0,L|336:192,1,69.9999978637696,2|0,0:0|0:0,0:0:0:0:
146,384,125138,2,0,L|195:335,1,69.9999978637696,2|0,0:0|0:0,0:0:0:0:
137,384,125319,2,0,L|186:335,1,69.9999978637696,2|0,0:0|0:0,0:0:0:0:
135,144,125501,6,0,L|184:193,1,69.9999978637696,2|0,0:0|0:0,0:0:0:0:
377,383,125683,2,0,L|328:334,1,69.9999978637696,2|0,0:2|0:0,0:0:0:0:
192,84,125865,54,0,L|56:119,1,139.999995727539,10|0,0:0|0:0,0:0:0:0:
97,196,126228,6,0,L|193:170,1,100,0|0,3:2|0:0,0:0:0:0:
373,176,126592,1,8,0:0:0:0:
185,1,126774,1,0,0:0:0:0:
405,60,126956,2,0,L|379:156,1,100,0|0,3:0|0:0,0:0:0:0:
193,169,127319,1,8,0:0:0:0:
328,35,127501,1,0,0:0:0:0:
469,202,127683,6,0,L|373:176,1,100,0|0,3:0|0:0,0:0:0:0:
245,68,128047,1,8,0:0:0:0:
299,262,128228,2,0,L|492:209,1,200,0|0,0:0|0:0,0:0:0:0:
272,165,128774,1,8,0:0:0:0:
255,336,128956,1,0,0:0:0:0:
372,175,129138,6,0,L|346:79,1,100,0|0,3:0|0:0,0:0:0:0:
189,135,129501,1,8,0:0:0:0:
398,271,129683,1,0,0:0:0:0:
180,316,129865,2,0,L|206:220,1,100,0|0,3:0|0:0,0:0:0:0:
345,348,130228,1,8,0:0:0:0:
112,384,130410,1,0,0:0:0:0:
302,245,130592,53,0,3:0:0:0:
109,192,130774,2,0,L|13:166,1,100,0|8,0:0|0:0,0:0:0:0:
180,316,131138,1,0,0:0:0:0:
232,122,131319,2,0,L|258:26,1,100,0|0,3:0|0:0,0:0:0:0:
390,270,131683,2,0,L|364:366,1,100,8|0,0:0|0:0,0:0:0:0:
328,95,132047,6,0,L|424:69,1,100,0|0,3:0|0:0,0:0:0:0:
294,297,132410,1,8,0:0:0:0:
232,122,132592,1,0,0:0:0:0:
390,270,132774,2,0,L|486:296,1,100,0|0,3:0|0:0,0:0:0:0:
274,375,133138,1,8,0:0:0:0:
317,202,133319,1,0,0:0:0:0:
177,348,133501,6,0,L|81:322,1,100,0|0,3:0|0:0,0:0:0:0:
0,170,133865,1,8,0:0:0:0:
28,384,134047,2,0,L|80:190,1,200,0|0,0:0|0:0,0:0:0:0:
120,45,134592,1,8,0:0:0:0:
0,170,134774,1,0,0:0:0:0:
193,117,134956,6,0,L|289:90,1,100,0|0,3:0|0:0,0:0:0:0:
294,248,135319,1,8,0:0:0:0:
174,123,135501,1,0,0:0:0:0:
367,176,135683,2,0,L|463:202,1,100,0|0,3:0|0:0,0:0:0:0:
308,85,136047,1,8,0:0:0:0:
223,304,136228,1,0,0:0:0:0:
367,176,136410,53,0,3:0:0:0:
174,123,136592,2,0,L|200:219,1,100,0|8,0:0|0:0,0:0:0:0:
319,330,136956,1,0,0:0:0:0:
127,278,137138,1,0,3:0:0:0:
399,354,137319,1,8,0:0:0:0:
152,374,137501,1,8,0:0:0:0:
273,164,137683,1,8,0:0:0:0:
406,368,137865,6,0,L|437:252,1,119.999996337891,2|0,3:2|0:0,0:0:0:0:
349,276,138138,1,2,0:0:0:0:
326,283,138228,1,10,0:0:0:0:
468,136,138410,1,0,0:0:0:0:
294,183,138592,2,0,L|178:214,1,119.999996337891,2|0,3:2|0:0,0:0:0:0:
202,126,138865,1,2,0:0:0:0:
209,103,138956,1,10,0:0:0:0:
62,245,139138,1,0,0:0:0:0:
71,47,139319,6,0,L|102:163,1,119.999996337891,2|0,3:2|0:0,0:0:0:0:
178,213,139592,1,2,0:0:0:0:
185,235,139683,2,0,L|69:266,1,119.999996337891,10|0,0:0|0:0,0:0:0:0:
264,87,140047,2,0,L|295:203,1,119.999996337891,2|0,3:2|0:0,0:0:0:0:
371,251,140319,1,2,0:0:0:0:
377,274,140410,2,0,L|261:305,1,119.999996337891,10|0,0:0|0:0,0:0:0:0:
69,266,140774,6,0,L|185:235,1,119.999996337891,2|0,3:2|0:0,0:0:0:0:
272,211,141047,1,2,0:0:0:0:
295,203,141138,2,0,L|264:87,1,119.999996337891,10|0,0:0|0:0,0:0:0:0:
262,305,141501,2,0,L|378:274,1,119.999996337891,2|0,3:2|0:0,0:0:0:0:
468,252,141774,1,2,0:0:0:0:
492,246,141865,1,10,0:0:0:0:
295,203,142047,1,0,0:0:0:0:
369,61,142228,53,2,3:2:0:0:
170,112,142410,1,2,0:0:0:0:
397,179,142592,2,0,L|513:148,1,119.999996337891,10|0,0:0|0:0,0:0:0:0:
364,291,142956,2,0,L|279:206,1,119.999996337891,2|0,3:2|0:0,0:0:0:0:
478,264,143319,2,0,L|446:379,1,119.999996337891,8|0,0:0|0:0,0:0:0:0:
145,350,143683,6,0,L|176:234,1,119.999996337891,2|0,3:2|0:0,0:0:0:0:
200,146,143956,1,2,0:0:0:0:
207,123,144047,1,10,0:0:0:0:
89,257,144228,1,0,0:0:0:0:
353,267,144410,2,0,L|321:150,1,119.999996337891,2|0,3:2|0:0,0:0:0:0:
298,62,144683,1,2,0:0:0:0:
293,39,144774,1,10,0:0:0:0:
258,214,144956,1,0,0:0:0:0:
512,117,145138,6,0,L|395:85,1,119.999996337891,2|0,3:2|0:0,0:0:0:0:
316,128,145410,1,2,0:0:0:0:
321,150,145501,2,0,L|353:267,1,119.999996337891,10|0,0:0|0:0,0:0:0:0:
160,265,145865,2,0,L|128:148,1,119.999996337891,2|0,3:2|0:0,0:0:0:0:
170,68,146138,1,2,0:0:0:0:
193,74,146228,2,0,L|309:105,1,119.999996337891,10|0,0:0|0:0,0:0:0:0:
435,353,146592,6,0,L|318:384,1,119.999996337891,2|0,3:2|0:0,0:0:0:0:
44,297,146956,2,0,L|160:265,1,119.999996337891,10|0,0:0|0:0,0:0:0:0:
309,105,147319,1,2,3:2:0:0:
129,149,147501,1,0,0:0:0:0:
339,220,147683,1,10,0:0:0:0:
368,213,147774,1,2,0:0:0:0:
396,205,147865,1,2,0:0:0:0:
425,197,147956,1,2,0:0:0:0:
454,189,148047,53,2,3:2:0:0:
307,335,148228,1,2,0:0:0:0:
252,90,148410,2,0,L|368:122,1,119.999996337891,10|0,0:0|0:0,0:0:0:0:
151,140,148774,1,2,3:2:0:0:
195,8,148956,1,8,0:0:0:0:
339,220,149138,1,8,0:0:0:0:
290,4,149319,1,8,0:0:0:0:
69,167,149501,6,0,L|95:263,1,100,6|0,3:2|0:0,0:0:0:0:
257,221,149865,1,10,0:0:0:0:
231,124,150047,1,2,0:0:0:0:
15,288,150228,2,0,L|41:384,1,100,2|0,3:2|0:0,0:0:0:0:
203,342,150592,1,10,0:2:0:0:
177,245,150774,1,2,0:2:0:0:
329,202,150956,5,2,3:2:0:0:
151,148,151138,1,2,0:2:0:0:
399,139,151319,1,10,0:2:0:0:
221,85,151501,1,2,0:2:0:0:
355,299,151683,1,2,3:2:0:0:
177,245,151865,1,2,0:2:0:0:
425,236,152047,1,10,0:2:0:0:
247,182,152228,1,2,0:2:0:0:
456,352,152410,6,0,L|430:255,1,100,2|0,3:2|0:0,0:0:0:0:
251,199,152774,2,0,L|277:296,1,100,8|2,0:0|0:0,0:0:0:0:
406,160,153138,2,0,L|380:63,1,100,0|0,3:2|0:0,0:0:0:0:
201,7,153501,2,0,L|227:104,1,100,10|0,0:0|0:0,0:0:0:0:
63,193,153865,54,0,L|89:96,1,100,2|0,3:2|0:0,0:0:0:0:
208,304,154228,2,0,L|111:278,1,100,8|2,0:0|0:0,0:0:0:0:
319,159,154592,2,0,L|293:256,1,100,0|0,3:2|0:0,0:0:0:0:
63,193,154956,2,0,L|89:96,1,100,10|0,0:0|0:0,0:0:0:0:
271,75,155319,6,0,L|174:49,1,100,2|0,3:2|0:0,0:0:0:0:
293,256,155683,2,0,L|319:159,1,100,10|0,0:0|0:0,0:0:0:0:
430,15,156047,2,0,L|404:112,1,100,2|0,3:2|0:0,0:0:0:0:
455,304,156410,1,10,0:0:0:0:
429,207,156592,1,2,0:0:0:0:
214,289,156774,5,2,3:2:0:0:
370,298,156956,1,2,0:0:0:0:
179,146,157138,1,10,0:0:0:0:
421,114,157319,1,2,0:0:0:0:
148,30,157501,2,0,L|174:127,1,100,2|0,3:2|0:0,0:0:0:0:
370,298,157865,2,0,L|396:201,1,100,10|0,0:0|0:0,0:0:0:0:
453,0,158228,5,2,3:2:0:0:
346,384,158410,1,2,3:2:0:0:
453,0,158956,53,2,3:2:0:0:
346,384,159138,1,2,3:2:0:0:
346,384,159501,6,0,L|287:166,1,225.000008583069,2|0,3:2|0:0,0:0:0:0:
258,56,159865,1,2,3:2:0:0:
485,168,160047,1,2,3:2:0:0:
111,331,160228,1,2,3:2:0:0:
198,127,160774,6,0,B|120:106,1,80,8|0,0:0|0:0,0:0:0:0:
112,17,161138,6,0,B|257:55,1,150.000005722046,6|0,3:2|0:0,0:0:0:0:
461,3,161501,1,8,0:0:0:0:
299,181,161683,1,2,0:0:0:0:
338,36,161865,1,2,3:2:0:0:
429,240,162047,1,2,0:0:0:0:
186,290,162228,2,0,B|224:146,1,150.000005722046,10|0,0:0|0:0,0:0:0:0:
494,290,162592,54,0,B|501:317|501:317|408:341|408:341|401:316,1,150.000005722046,2|0,3:2|0:0,0:0:0:0:
195,66,162956,2,0,B|201:40|201:40|294:65|294:65|287:92,1,150.000005722046,10|0,0:0|0:0,0:0:0:0:
106,310,163319,2,0,B|113:337|113:337|20:361|20:361|13:336,1,150.000005722046,2|0,3:2|0:0,0:0:0:0:
123,110,163683,1,10,0:0:0:0:
190,314,163865,2,0,B|335:276,1,150.000005722046,2|0,0:0|3:0,0:0:0:0:
287,91,164228,5,2,0:2:0:0:
158,230,164410,1,10,0:2:0:0:
413,258,164592,1,2,0:2:0:0:
220,5,164774,2,0,B|182:150,1,150.000005722046,2|0,3:2|0:0,0:0:0:0:
335,276,165138,1,10,0:2:0:0:
76,216,165319,1,2,0:2:0:0:
333,5,165501,5,2,3:2:0:0:
257,297,165683,1,2,0:2:0:0:
451,51,165865,1,10,0:2:0:0:
105,139,166047,1,2,0:2:0:0:
472,69,166228,5,2,3:2:0:0:
126,157,166410,1,2,0:2:0:0:
354,23,166592,1,10,0:2:0:0:
278,315,166774,1,2,0:2:0:0:
57,87,166956,54,0,B|202:125,1,150.000005722046,6|0,3:2|0:0,0:0:0:0:
291,342,167319,1,8,0:0:0:0:
435,143,167501,1,2,0:2:0:0:
232,198,167683,1,2,3:2:0:0:
401,50,167865,1,2,0:2:0:0:
481,265,168047,2,0,B|332:225,1,150.000005722046,10|0,0:2|0:0,0:0:0:0:
5,136,168410,6,0,B|-2:109|-2:109|91:85|91:85|98:110,1,150.000005722046,2|0,3:2|0:0,0:0:0:0:
297,360,168774,2,0,B|291:386|291:386|198:361|198:361|205:334,1,150.000005722046,10|0,0:2|0:0,0:0:0:0:
419,119,169138,2,0,B|412:92|412:92|505:68|505:68|512:93,1,150.000005722046,2|0,3:2|0:0,0:0:0:0:
383,376,169501,1,10,0:2:0:0:
326,145,169683,2,0,B|288:0,1,150.000005722046,2|0,0:2|3:0,0:0:0:0:
485,175,170047,5,2,0:2:0:0:
236,130,170228,1,10,0:2:0:0:
368,307,170410,1,2,0:2:0:0:
145,154,170592,2,0,B|0:192,1,150.000005722046,2|0,3:2|0:0,0:0:0:0:
212,39,170956,1,10,0:2:0:0:
78,269,171138,1,2,0:2:0:0:
61,12,171319,5,2,3:2:0:0:
226,294,171501,1,2,0:2:0:0:
0,192,171683,1,10,0:2:0:0:
301,115,171865,1,2,0:2:0:0:
21,210,172047,53,2,3:2:0:0:
322,133,172228,1,2,0:2:0:0:
83,31,172410,1,10,0:2:0:0:
248,313,172592,1,2,0:2:0:0:
419,74,172774,6,0,B|274:36,1,150.000005722046,6|0,3:2|0:0,0:0:0:0:
338,240,173138,1,8,0:0:0:0:
508,98,173319,1,2,0:2:0:0:
245,163,173501,1,2,3:2:0:0:
432,300,173683,1,2,0:2:0:0:
420,118,173865,2,0,B|275:156,1,150.000005722046,10|0,0:2|0:0,0:0:0:0:
98,342,174228,6,0,B|53:354|53:354|27:254,1,150.000005722046,2|0,3:2|0:0,0:0:0:0:
228,51,174592,2,0,B|272:62|272:62|245:163,1,150.000005722046,10|0,0:2|0:0,0:0:0:0:
462,366,174956,2,0,B|418:354|418:354|445:253,1,150.000005722046,2|0,3:2|0:0,0:0:0:0:
504,50,175319,1,10,0:2:0:0:
349,217,175501,2,0,L|205:256,1,150.000005722046,2|0,0:2|3:0,0:0:0:0:
430,132,175865,5,2,0:2:0:0:
340,327,176047,1,10,0:2:0:0:
250,150,176228,1,2,0:2:0:0:
146,382,176410,2,0,L|1:343,1,150.000005722046,2|0,3:2|0:0,0:0:0:0:
174,113,176774,1,10,0:2:0:0:
219,279,176956,1,2,0:2:0:0:
286,1,177138,53,2,3:2:0:0:
368,304,177319,1,2,0:2:0:0:
174,113,177501,1,10,0:2:0:0:
491,162,177683,1,2,0:2:0:0:
195,131,177865,5,2,3:2:0:0:
512,180,178047,1,2,0:2:0:0:
307,19,178228,1,10,0:2:0:0:
389,322,178410,1,2,0:2:0:0:
476,59,178592,6,0,L|331:98,1,150.000005722046,2|0,3:2|0:0,0:0:0:0:
117,175,178956,2,0,B|150:210|150:210|177:208|177:208|199:223|199:223|246:209,1,150.000005722046,10|0,0:2|0:0,0:0:0:0:
218,57,179319,1,2,3:2:0:0:
110,283,179501,1,2,0:2:0:0:
370,242,179683,2,0,L|331:97,1,150.000005722046,10|0,0:0|0:0,0:0:0:0:
20,52,180047,6,0,B|46:152|46:152|91:140,1,150.000005722046,2|0,3:2|0:0,0:0:0:0:
264,366,180410,2,0,B|291:266|291:266|246:254,1,150.000005722046,10|0,0:2|0:0,0:0:0:0:
438,40,180774,2,0,B|410:139|410:139|455:151,1,150.000005722046,2|0,3:2|0:0,0:0:0:0:
512,358,181138,1,10,0:2:0:0:
328,157,181319,2,0,B|184:196,1,150.000005722046,2|0,0:2|3:0,0:0:0:0:
40,379,181683,53,2,0:2:0:0:
0,229,181865,1,10,0:2:0:0:
176,337,182047,1,2,0:2:0:0:
188,112,182228,1,2,3:2:0:0:
102,291,182410,1,2,0:2:0:0:
342,234,182592,1,10,0:2:0:0:
168,97,182774,1,2,0:2:0:0:
250,383,182956,5,2,3:2:0:0:
28,245,183138,1,2,0:2:0:0:
313,140,183319,1,10,0:2:0:0:
176,337,183501,1,2,0:2:0:0:
140,27,183683,1,2,3:2:0:0:
342,234,183865,1,2,0:2:0:0:
161,194,184047,1,8,0:0:0:0:
392,112,184228,1,2,0:0:0:0:
420,360,184410,6,0,B|323:333,1,100,4|0,3:2|0:0,0:0:0:0:
465,268,184774,2,0,B|439:365,1,100,8|0,0:0|0:0,0:0:0:0:
373,222,185138,2,0,B|470:249,1,100,0|0,3:0|0:0,0:0:0:0:
328,313,185501,2,0,B|354:216,1,100,8|0,0:0|0:0,0:0:0:0:
92,360,185865,6,0,B|188:333,1,100,0|0,3:0|0:0,0:0:0:0:
46,268,186228,2,0,B|73:365,1,100,8|0,0:0|0:0,0:0:0:0:
138,222,186592,2,0,B|42:249,1,100,0|0,3:0|0:0,0:0:0:0:
184,313,186956,2,0,B|157:216,1,100,8|0,0:0|0:0,0:0:0:0:
147,52,187319,54,0,B|50:78,1,100,0|0,3:0|0:0,0:0:0:0:
252,95,187683,2,0,B|155:68,1,100,8|0,0:0|0:0,0:0:0:0:
357,51,188047,2,0,B|260:77,1,100,0|0,3:0|0:0,0:0:0:0:
462,94,188410,2,0,B|365:67,1,100,8|0,0:0|0:0,0:0:0:0:
310,267,188774,6,0,B|342:151,1,119.999996337891,0|0,3:0|0:0,0:0:0:0:
214,285,189138,2,0,B|246:169,1,119.999996337891,8|0,0:0|0:0,0:0:0:0:
49,366,189501,6,0,B|27:288,1,80,0|0,3:0|0:0,0:0:0:0:
145,384,189865,2,0,B|123:306,1,80,8|0,0:0|0:0,0:0:0:0:
394,288,190228,6,0,B|362:403,1,100,4|0,3:2|0:0,0:0:0:0:
300,242,190592,2,0,B|397:268,1,100,8|0,0:0|0:0,0:0:0:0:
421,170,190956,2,0,B|325:145,1,100,0|0,3:0|0:0,0:0:0:0:
453,54,191319,2,0,B|428:151,1,100,8|0,0:0|0:0,0:0:0:0:
202,215,191683,54,0,B|226:118,1,100,0|0,3:0|0:0,0:0:0:0:
99,208,192047,2,0,B|196:233,1,100,8|0,0:0|0:0,0:0:0:0:
106,105,192410,2,0,B|81:202,1,100,0|0,3:0|0:0,0:0:0:0:
76,375,192774,6,0,B|8:357,1,69.9999978637696,10|0,0:0|0:0,0:0:0:0:
201,313,192956,6,0,B|152:325,1,50,2|0,0:0|0:0,0:0:0:0:
273,384,193138,6,0,B|298:287,1,100,0|0,3:0|0:0,0:0:0:0:
418,215,193501,2,0,B|393:312,1,100,8|0,0:0|0:0,0:0:0:0:
254,208,193865,54,0,B|322:190,1,69.9999978637696,2|0,3:2|0:0,0:0:0:0:
129,146,194047,6,0,B|178:158,1,50,2|0,0:0|0:0,0:0:0:0:
57,217,194228,6,0,B|32:120,1,100,8|0,0:0|0:0,0:0:0:0:
104,43,194592,6,0,B|153:55,1,50,0|0,3:0|0:0,0:0:0:0:
254,79,194774,1,0,3:0:0:0:
278,73,194865,1,0,3:0:0:0:
302,67,194956,1,8,0:0:0:0:
326,61,195047,54,0,B|344:-8|344:-8|313:16,2,100,8|8|8,0:0|0:0|0:0,0:0:0:0:
309,156,195501,1,0,3:0:0:0:
333,162,195592,1,0,3:0:0:0:
358,169,195683,1,0,3:0:0:0:
382,175,195774,1,0,3:0:0:0:
406,181,195865,1,4,3:1:0:0:
244,239,196047,6,0,L|218:142,1,100,6|0,3:2|0:0,0:0:0:0:
193,45,196410,1,10,0:2:0:0:
193,45,196592,1,2,0:2:0:0:
314,116,196774,2,0,L|217:142,1,100,2|0,3:2|0:0,0:0:0:0:
120,167,197138,1,10,0:2:0:0:
120,167,197319,1,2,0:2:0:0:
96,19,197501,6,0,L|193:45,1,100,2|0,3:2|0:0,0:0:0:0:
0,167,197865,2,0,L|26:70,1,100,10|0,0:2|0:0,0:0:0:0:
148,263,198228,2,0,L|51:237,1,100,2|0,3:2|0:0,0:0:0:0:
244,115,198592,2,0,L|218:212,1,100,10|0,0:2|0:0,0:0:0:0:
182,348,198956,5,2,3:2:0:0:
144,171,199138,1,2,0:2:0:0:
278,322,199319,2,0,L|375:296,1,100,10|0,0:2|0:0,0:0:0:0:
252,225,199683,1,2,3:2:0:0:
386,376,199865,2,0,L|483:350,1,100,2|8,0:2|0:0,0:0:0:0:
278,322,200228,1,2,0:2:0:0:
400,199,200410,54,0,L|374:296,1,100,2|0,3:2|0:0,0:0:0:0:
277,128,200774,2,0,L|251:225,1,100,10|0,0:2|0:0,0:0:0:0:
433,83,201138,2,0,L|407:180,1,100,2|0,3:2|0:0,0:0:0:0:
310,12,201501,2,0,L|284:109,1,100,10|0,0:2|0:0,0:0:0:0:
122,190,201865,5,6,3:2:0:0:
251,224,202047,1,2,0:2:0:0:
143,93,202228,2,0,L|46:119,1,100,10|0,0:2|0:0,0:0:0:0:
277,131,202592,1,2,3:2:0:0:
169,0,202774,2,0,L|72:26,1,100,2|8,0:2|0:0,0:0:0:0:
122,190,203138,1,2,0:2:0:0:
143,93,203319,5,2,3:2:0:0:
197,241,203501,1,2,0:2:0:0:
46,197,203683,1,10,0:2:0:0:
96,349,203865,1,2,0:2:0:0:
313,273,204047,2,0,L|216:247,1,100,2|0,3:2|0:0,0:0:0:0:
0,324,204410,2,0,L|97:350,1,100,10|0,0:2|0:0,0:0:0:0:
332,278,204774,5,2,3:2:0:0:
184,370,204956,1,2,0:2:0:0:
92,222,205138,2,0,L|118:125,1,100,10|0,0:2|0:0,0:0:0:0:
96,349,205501,1,2,3:2:0:0:
4,201,205683,2,0,L|30:104,1,100,2|8,0:2|0:0,0:0:0:0:
96,349,206047,1,2,0:2:0:0:
201,146,206228,53,2,3:2:0:0:
242,300,206410,1,2,0:2:0:0:
323,160,206592,1,10,0:2:0:0:
364,314,206774,1,2,0:2:0:0:
355,82,206956,2,0,L|329:179,1,100,2|0,3:2|0:0,0:0:0:0:
469,337,207319,2,0,L|443:240,1,100,10|0,0:2|0:0,0:0:0:0:
95,224,207683,5,6,3:2:0:0:
263,268,207865,1,2,0:2:0:0:
157,163,208047,1,10,0:2:0:0:
118,308,208228,1,2,0:2:0:0:
240,184,208410,1,2,3:2:0:0:
202,330,208592,1,2,0:2:0:0:
218,101,208774,1,10,0:2:0:0:
324,206,208956,1,2,0:2:0:0:
73,141,209138,5,2,3:2:0:0:
240,184,209319,1,2,0:2:0:0:
51,58,209501,1,10,0:2:0:0:
96,225,209683,1,2,0:2:0:0:
195,17,209865,1,2,3:2:0:0:
73,141,210047,1,2,0:2:0:0:
218,101,210228,2,0,L|315:75,1,100,10|0,0:2|0:0,0:0:0:0:
507,202,210592,5,2,3:2:0:0:
337,158,210774,1,2,0:2:0:0:
424,0,210956,2,0,L|398:97,1,100,10|0,0:2|0:0,0:0:0:0:
276,220,211319,1,2,3:2:0:0:
314,75,211501,1,2,0:2:0:0:
361,242,211683,1,10,0:2:0:0:
191,198,211865,1,2,0:2:0:0:
422,180,212047,53,2,3:2:0:0:
215,282,212228,1,2,0:2:0:0:
337,158,212410,1,10,0:2:0:0:
238,365,212592,1,2,0:2:0:0:
252,136,212774,1,2,3:2:0:0:
299,303,212956,1,2,0:2:0:0:
131,261,213138,2,0,L|34:235,1,100,10|0,0:2|0:0,0:0:0:0:
70,89,213501,6,0,L|167:114,1,100,6|0,3:2|0:0,0:0:0:0:
216,286,213865,1,10,0:2:0:0:
105,177,214047,1,2,0:2:0:0:
251,134,214228,1,2,3:2:0:0:
131,261,214410,1,2,0:2:0:0:
225,50,214592,1,10,0:2:0:0:
336,154,214774,1,2,0:2:0:0:
166,114,214956,5,2,3:2:0:0:
396,91,215138,1,2,0:2:0:0:
277,218,215319,1,10,0:2:0:0:
225,50,215501,1,2,0:2:0:0:
218,282,215683,1,2,3:2:0:0:
336,154,215865,1,2,0:2:0:0:
193,199,216047,2,0,L|96:225,1,100,10|0,0:2|0:0,0:0:0:0:
146,389,216410,6,0,L|243:363,1,100,2|0,3:2|0:0,0:0:0:0:
277,218,216774,1,10,0:2:0:0:
121,307,216956,1,2,0:2:0:0:
303,302,217138,1,2,3:2:0:0:
251,134,217319,1,2,0:2:0:0:
218,282,217501,1,10,0:2:0:0:
336,154,217683,1,2,0:2:0:0:
329,386,217865,53,2,3:2:0:0:
277,218,218047,1,2,0:2:0:0:
447,258,218228,1,10,0:2:0:0:
192,198,218410,1,2,0:2:0:0:
407,56,218592,2,0,L|381:153,1,100,2|0,3:2|0:0,0:0:0:0:
82,275,218956,2,0,L|108:178,1,100,10|0,0:2|0:0,0:0:0:0:
377,249,219319,54,0,B|192:199|192:199|234:45|234:45|311:65|311:65|290:143|290:143|59:81,1,750,6|0,3:1|0:0,0:0:0:0:
59,81,220774,38,0,B|290:143|290:143|311:65|311:65|234:45|234:45|192:199|192:199|69:166|69:166|48:243|48:243|403:339,1,1125.00004291535,6|0,3:1|0:0,0:0:0:0:
394,337,222228,54,0,B|146:270|146:270|117:378,1,350,6|0,3:1|0:0,0:0:0:0:
122,360,222956,38,0,B|184:128|184:128|477:206,1,525.000020027161,6|0,3:1|0:0,0:0:0:0:
459,201,223683,54,0,B|496:55,1,150,6|0,3:1|0:0,0:0:0:0:
496,56,224047,38,0,B|441:275,1,225.000008583069,6|0,3:1|0:0,0:0:0:0:
441,274,224410,54,0,B|393:262,1,50,6|0,3:1|0:0,0:0:0:0:
249,208,224592,38,0,B|321:189,1,75.0000028610231,6|0,3:1|0:0,0:0:0:0:
297,312,224774,54,0,B|249:300,1,50,6|0,3:1|0:0,0:0:0:0:
106,180,224956,1,6,3:1:0:0:
178,162,225047,1,2,0:0:0:0:
158,234,225138,37,2,0:0:0:0:
158,234,225865,54,0,B|303:195,1,150,0|0,0:0|0:0,0:0:0:0:
391,173,226228,6,0,B|437:185|437:185|456:174|456:174|473:112|473:112|462:92|462:92|400:76|400:76|380:87|380:87|364:149|364:149|375:168,1,300,0|0,0:0|0:0,0:0:0:0:
334,311,226592,22,0,B|302:195,1,119.999996337891,6|0,3:2|0:0,0:0:0:0:
149,129,226865,1,2,0:2:0:0:
154,145,226956,2,0,B|212:129,1,59.9999981689454,10|0,0:2|0:0,0:0:0:0:
185,38,227138,2,0,B|126:53,1,59.9999981689454,2|0,0:0|0:0,0:0:0:0:
85,201,227319,2,0,B|128:243|128:243|189:226,1,119.999996337891,2|0,3:2|0:0,0:0:0:0:
402,222,227683,2,0,B|358:179|358:179|297:196,1,119.999996337891,8|0,0:0|0:0,0:0:0:0:
118,334,228047,6,0,B|233:302,1,119.999996337891,0|0,3:0|0:0,0:0:0:0:
368,88,228410,2,0,B|253:120,1,119.999996337891,8|0,0:0|0:0,0:0:0:0:
108,180,228774,2,0,B|93:121,1,59.9999981689454,2|0,3:2|0:0,0:0:0:0:
139,303,228956,2,0,B|154:362,1,59.9999981689454,2|0,0:0|0:0,0:0:0:0:
3,272,229138,2,0,B|62:257,1,59.9999981689454,10|0,0:0|0:0,0:0:0:0:
244,211,229319,2,0,B|185:226,1,59.9999981689454,2|0,0:2|0:0,0:0:0:0:
17,60,229501,6,0,B|135:30,1,119.999996337891,2|0,3:2|0:0,0:0:0:0:
254,96,229774,1,2,0:0:0:0:
277,102,229865,2,0,B|292:42|292:42|250:2,1,119.999996337891,10|0,0:0|0:0,0:0:0:0:
201,169,230228,2,0,B|319:199,1,119.999996337891,0|0,3:0|0:0,0:0:0:0:
438,133,230501,1,2,0:0:0:0:
461,127,230592,2,0,B|476:186|476:186|434:227,1,119.999996337891,10|0,0:0|0:0,0:0:0:0:
396,56,230956,5,2,3:2:0:0:
426,49,231047,1,2,0:0:0:0:
455,42,231138,1,2,0:0:0:0:
317,198,231319,2,0,B|199:168,1,119.999996337891,10|0,0:0|0:0,0:0:0:0:
139,343,231683,2,0,B|223:255,1,119.999996337891,0|0,3:0|0:0,0:0:0:0:
102,116,232047,2,0,B|135:233,1,119.999996337891,8|0,0:0|0:0,0:0:0:0:
317,198,232410,53,2,3:2:0:0:
272,23,232592,2,0,B|213:38,1,59.9999981689454,2|2,0:0|0:0,0:0:0:0:
334,99,232774,1,10,0:0:0:0:
363,91,232865,1,2,0:0:0:0:
392,84,232956,1,2,0:0:0:0:
421,76,233047,1,2,0:0:0:0:
509,57,233138,1,2,3:2:0:0:
499,91,233229,1,2,0:0:0:0:
491,126,233320,1,2,0:0:0:0:
481,161,233411,1,2,0:0:0:0:
423,221,233501,1,10,0:0:0:0:
427,238,233592,1,2,0:0:0:0:
432,255,233683,1,2,0:0:0:0:
436,273,233774,1,2,0:0:0:0:
481,344,233865,6,0,B|366:311,1,119.999996337891,2|0,3:2|0:0,0:0:0:0:
230,269,234228,1,10,0:0:0:0:
254,262,234319,1,2,0:0:0:0:
261,287,234410,1,2,0:0:0:0:
236,293,234501,1,2,0:0:0:0:
195,200,234592,2,0,B|258:184,1,59.9999981689454,2|0,3:2|0:0,0:0:0:0:
295,355,234774,2,0,B|231:370,1,59.9999981689454,2|0,0:0|0:0,0:0:0:0:
335,195,234956,2,2,B|365:310,1,119.999996337891,10|0,3:2|0:0,0:1:0:0:
1,167,235319,6,0,B|22:147|22:147|110:171,1,119.999996337891,2|0,3:2|0:0,0:0:0:0:
104,304,235592,1,2,0:0:0:0:
37,344,235683,2,0,B|17:323|17:323|41:235,1,119.999996337891,10|0,0:0|0:0,0:0:0:0:
173,240,235956,1,2,0:0:0:0:
213,307,236047,2,0,B|192:327|192:327|104:303,1,119.999996337891,2|0,3:2|0:0,0:0:0:0:
110,171,236319,1,2,0:0:0:0:
177,131,236410,2,0,B|197:152|197:152|173:240,1,119.999996337891,10|0,0:0|0:0,0:0:0:0:
118,48,236774,6,0,B|175:31,1,59.9999981689454,2|0,3:2|0:0,0:0:0:0:
257,80,236956,2,0,B|314:96,1,59.9999981689454,2|0,0:0|0:0,0:0:0:0:
467,16,237138,1,10,0:0:0:0:
458,44,237228,1,2,0:0:0:0:
449,72,237319,1,2,0:0:0:0:
440,100,237410,1,2,0:0:0:0:
431,128,237501,1,2,3:2:0:0:
272,0,237683,1,8,0:0:0:0:
241,202,237865,1,8,0:0:0:0:
272,0,238047,1,8,0:0:0:0:
446,221,238228,54,0,B|350:195,1,100,4|0,3:2|0:0,0:0:0:0:
217,80,238592,2,0,B|314:107,1,100,10|0,0:0|0:0,0:0:0:0:
233,279,238956,2,0,B|260:183,1,100,2|0,3:2|0:0,0:0:0:0:
436,3,239319,1,10,0:0:0:0:
404,118,239501,1,2,0:0:0:0:
204,80,239683,5,2,3:2:0:0:
350,195,239865,1,2,0:0:0:0:
174,190,240047,1,10,0:0:0:0:
319,304,240228,1,2,0:0:0:0:
277,137,240410,1,2,3:2:0:0:
422,252,240592,1,2,0:0:0:0:
246,247,240774,1,10,0:0:0:0:
392,362,240956,1,2,0:0:0:0:
118,384,241138,6,0,B|144:287,1,100,2|0,3:2|0:0,0:0:0:0:
26,173,241501,2,0,B|0:269,1,100,8|2,0:0|0:0,0:0:0:0:
151,268,241865,2,0,B|177:171,1,100,0|0,3:0|0:0,0:0:0:0:
59,57,242228,2,0,B|32:153,1,100,10|0,0:0|0:0,0:0:0:0:
225,102,242592,6,0,B|154:30,1,100,2|0,3:2|0:0,0:0:0:0:
103,223,242956,2,0,B|199:197,1,100,8|2,0:0|0:0,0:0:0:0:
392,146,243319,2,0,B|295:171,1,100,0|0,3:0|0:0,0:0:0:0:
435,312,243683,2,0,B|461:215,1,100,10|0,0:0|0:0,0:0:0:0:
361,29,244047,54,0,B|387:126,1,100,2|0,3:2|0:0,0:0:0:0:
193,125,244410,2,0,B|290:99,1,100,10|0,0:0|0:0,0:0:0:0:
289,293,244774,2,0,B|263:196,1,100,2|0,3:2|0:0,0:0:0:0:
218,27,245138,1,10,0:0:0:0:
193,125,245319,1,2,0:0:0:0:
357,6,245501,5,2,3:2:0:0:
391,143,245683,1,2,0:0:0:0:
189,145,245865,1,10,0:0:0:0:
148,310,246047,1,2,0:0:0:0:
396,162,246228,2,0,B|422:259,1,100,2|0,3:2|0:0,0:0:0:0:
142,329,246592,2,0,B|168:232,1,100,10|0,0:2|0:0,0:0:0:0:
387,329,246956,5,2,3:2:0:0:
0,225,247138,1,2,3:2:0:0:
387,329,247683,5,2,3:2:0:0:
0,225,247865,1,2,3:2:0:0:
0,225,248228,54,0,L|218:166,1,225.000008583069,2|0,3:2|0:0,0:0:0:0:
328,137,248592,1,2,3:2:0:0:
197,368,248774,1,2,3:2:0:0:
15,20,248956,1,2,3:2:0:0:
512,225,249683,6,0,L|281:162,1,240,2|0,3:2|0:0,0:0:0:0:
139,124,250047,1,2,3:2:0:0:
302,384,250228,1,2,3:2:0:0:
512,0,250410,1,2,3:2:0:0:
285,54,251138,5,2,0:0:0:0:
328,209,251319,6,0,B|482:167,1,160,6|0,3:2|0:0,0:0:0:0:
249,148,251683,1,8,0:0:0:0:
414,276,251865,1,2,0:0:0:0:
194,275,252047,1,2,3:2:0:0:
285,54,252228,1,2,0:0:0:0:
283,284,252410,2,0,B|129:326,1,160,10|0,0:0|0:0,0:0:0:0:
30,38,252774,54,0,B|62:19|62:19|146:42|146:42|164:73,1,160,2|0,3:2|0:0,0:0:0:0:
485,160,253138,2,0,B|453:141|453:141|369:164|369:164|351:195,1,160,10|0,0:0|0:0,0:0:0:0:
31,281,253501,2,0,B|62:262|62:262|146:285|146:285|164:316,1,160,2|0,3:2|0:0,0:0:0:0:
406,381,253865,1,10,0:0:0:0:
209,203,254047,2,0,B|55:161,1,160,2|0,0:0|3:0,0:0:0:0:
251,287,254410,5,2,0:2:0:0:
391,76,254592,1,10,0:2:0:0:
440,237,254774,1,2,0:2:0:0:
246,65,254956,2,0,B|400:107,1,160,2|0,3:2|0:0,0:0:0:0:
251,287,255319,1,10,0:2:0:0:
162,43,255501,1,2,0:2:0:0:
127,317,255683,5,2,3:2:0:0:
454,227,255865,1,2,0:2:0:0:
141,186,256047,1,10,0:2:0:0:
437,356,256228,1,2,0:2:0:0:
110,321,256410,5,2,3:2:0:0:
470,222,256592,1,2,0:2:0:0:
126,177,256774,1,10,0:2:0:0:
451,364,256956,1,2,0:2:0:0:
369,106,257138,54,0,B|215:148,1,160,6|0,3:2|0:0,0:0:0:0:
486,217,257501,1,8,0:0:0:0:
396,11,257683,1,2,0:2:0:0:
326,268,257865,1,2,3:2:0:0:
472,78,258047,1,2,0:2:0:0:
402,335,258228,2,0,B|248:293,1,160,10|0,0:2|0:0,0:0:0:0:
30,346,258592,6,0,B|62:365|62:365|146:342|146:342|164:311,1,160,2|0,3:2|0:0,0:0:0:0:
485,224,258956,2,0,B|453:243|453:243|369:220|369:220|351:189,1,160,10|0,0:2|0:0,0:0:0:0:
31,103,259319,2,0,B|62:122|62:122|146:99|146:99|164:68,1,160,2|0,3:2|0:0,0:0:0:0:
406,3,259683,1,10,0:2:0:0:
283,260,259865,2,0,B|240:105,1,160,2|0,0:2|3:0,0:0:0:0:
246,337,260228,5,2,0:2:0:0:
372,132,260410,1,10,0:2:0:0:
140,195,260592,1,2,0:2:0:0:
358,300,260774,2,0,B|512:257,1,160,2|0,3:2|0:0,0:0:0:0:
375,100,261138,1,10,0:2:0:0:
354,331,261319,1,2,0:2:0:0:
165,36,261501,5,2,3:2:0:0:
224,344,261683,1,2,0:2:0:0:
58,127,261865,1,10,0:2:0:0:
330,252,262047,1,2,0:2:0:0:
186,54,262228,53,2,3:2:0:0:
245,362,262410,1,2,0:2:0:0:
79,145,262592,1,10,0:2:0:0:
351,270,262774,1,2,0:2:0:0:
86,364,262956,6,0,B|129:210,1,160,6|0,3:2|0:0,0:0:0:0:
78,35,263319,1,8,0:0:0:0:
271,167,263501,1,2,0:2:0:0:
28,240,263683,1,2,3:2:0:0:
146,80,263865,1,2,0:2:0:0:
269,306,264047,2,0,B|115:263,1,160,10|0,0:2|0:0,0:0:0:0:
367,207,264410,6,0,B|386:278|386:278|379:288|379:288|398:359,1,160,2|0,3:2|0:0,0:0:0:0:
129,105,264774,2,0,B|110:176|110:176|117:186|117:186|98:258,1,160,10|0,0:2|0:0,0:0:0:0:
406,1,265138,2,0,B|425:72|425:72|418:82|418:82|437:153,1,160,2|0,3:2|0:0,0:0:0:0:
146,22,265501,1,10,0:2:0:0:
114,253,265683,2,0,B|268:210,1,160,2|0,0:2|3:0,0:0:0:0:
330,9,266047,5,2,0:2:0:0:
461,235,266228,1,10,0:2:0:0:
509,32,266410,1,2,0:2:0:0:
443,316,266592,2,0,B|289:359,1,160,2|0,3:2|0:0,0:0:0:0:
165,181,266956,1,10,0:2:0:0:
213,384,267138,1,2,0:2:0:0:
372,90,267319,53,2,3:2:0:0:
86,219,267501,1,2,0:2:0:0:
401,195,267683,1,10,0:2:0:0:
115,324,267865,1,2,0:2:0:0:
385,78,268047,5,2,3:2:0:0:
70,220,268228,1,2,0:2:0:0:
416,193,268410,1,10,0:2:0:0:
102,335,268592,1,2,0:2:0:0:
26,61,268774,6,0,B|180:104,1,160,2|0,3:2|0:0,0:0:0:0:
237,314,269138,2,0,B|213:320|213:320|184:303|184:303|155:195,1,160,10|0,0:2|0:0,0:0:0:0:
200,12,269501,1,2,3:2:0:0:
306,199,269683,1,2,0:2:0:0:
441,6,269865,2,0,B|287:49,1,160,10|0,0:0|0:0,0:0:0:0:
75,153,270228,6,0,B|94:82|94:82|87:72|87:72|106:1,1,160,2|0,3:2|0:0,0:0:0:0:
414,258,270592,2,0,B|395:186|395:186|402:176|402:176|383:105,1,160,10|0,0:2|0:0,0:0:0:0:
114,359,270956,2,0,B|133:288|133:288|126:278|126:278|145:207,1,160,2|0,3:2|0:0,0:0:0:0:
362,25,271319,1,10,0:2:0:0:
419,272,271501,2,0,B|265:229,1,160,2|0,0:2|3:0,0:0:0:0:
18,46,271865,53,2,0:2:0:0:
54,228,272047,1,10,0:2:0:0:
246,137,272228,1,2,0:2:0:0:
36,137,272410,1,2,3:2:0:0:
264,228,272592,1,2,0:2:0:0:
121,171,272774,1,10,0:2:0:0:
356,109,272956,1,2,0:2:0:0:
171,380,273138,5,2,3:2:0:0:
246,137,273319,1,2,0:2:0:0:
427,352,273501,1,10,0:2:0:0:
264,228,273683,1,2,0:2:0:0:
512,150,273865,1,2,3:2:0:0:
293,383,274047,5,10,0:2:0:0:
232,62,274228,1,8,0:0:0:0:
0,348,274410,1,10,0:0:0:0:
0,348,274956,22,0,B|12:302|12:302|0:257|0:257|13:203,1,150,2|0,0:0|0:0,0:0:0:0:
13,202,275319,6,0,B|34:239|34:239|71:261|71:261|115:261|115:261|152:239|152:239|174:202|174:202|174:159|174:159|152:122|152:122|114:99|114:99|71:100,1,389.999982147218
93,181,275683,6,0,B|113:178|113:178|132:184|132:184|153:182|153:182|172:187|172:187|192:185|192:185|212:191|212:191|232:189|232:189|256:195|256:195|280:193,1,179.999994506836,0|0,0:2|0:0,0:0:0:0:
270,194,276047,6,0,B|229:348,1,160,6|0,3:2|0:0,0:0:0:0:
471,154,276410,2,0,B|512:0,1,160,10|0,0:0|0:0,0:0:0:0:
241,69,276774,1,2,3:2:0:0:
449,241,276956,1,2,0:0:0:0:
368,10,277138,2,0,B|214:51,1,160,10|0,0:0|0:0,0:0:0:0:
269,324,277501,6,0,B|288:345|288:345|322:219,1,160,2|0,3:2|0:0,0:0:0:0:
5,234,277865,2,0,B|-23:239|-23:239|68:332,1,160,10|0,0:0|0:0,0:0:0:0:
213,51,278228,2,0,B|222:23|222:23|95:56,1,160,2|0,3:2|0:0,0:0:0:0:
323,219,278592,5,10,0:0:0:0:
361,229,278683,1,2,0:0:0:0:
400,239,278774,1,2,0:0:0:0:
438,249,278865,1,2,0:0:0:0:
477,260,278956,2,0,B|436:106,1,160,2|0,3:2|0:0,0:0:0:0:
168,34,279319,5,10,0:0:0:0:
158,72,279410,1,2,0:0:0:0:
148,111,279501,1,2,0:0:0:0:
138,149,279592,1,2,0:0:0:0:
127,188,279683,2,0,B|281:147,1,160,2|0,3:2|0:0,0:0:0:0:
495,41,280047,53,10,0:0:0:0:
457,31,280138,1,2,0:0:0:0:
418,21,280228,1,2,0:0:0:0:
380,11,280319,1,2,0:0:0:0:
341,0,280410,5,2,3:2:0:0:
435,105,280592,2,0,B|415:182,1,80,2|0,0:0|0:0,0:0:0:0:
338,254,280774,2,0,B|358:331,2,80,10|2|2,0:0|0:0|0:0,0:0:0:0:
333,104,281138,5,2,3:2:0:0:
228,198,281319,2,0,B|151:178,1,80,2|0,0:0|0:0,0:0:0:0:
79,101,281501,2,0,B|2:121,2,80,10|2|2,0:0|0:0|0:0,0:0:0:0:
276,21,281865,6,0,B|235:175,1,160,2|0,3:2|0:0,0:0:0:0:
17,353,282228,2,0,B|58:199,1,160,10|0,0:0|0:0,0:0:0:0:
263,276,282592,1,2,3:2:0:0:
108,335,282774,1,2,0:0:0:0:
311,200,282956,2,0,B|465:241,1,160,10|0,0:0|0:0,0:0:0:0:
479,95,283319,54,0,B|486:66|486:66|387:40|387:40|380:67,1,160,2|0,3:2|0:0,0:0:0:0:
193,329,283683,2,0,B|199:356|199:356|298:330|298:330|290:301,1,160,10|0,0:0|0:0,0:0:0:0:
99,81,284047,2,0,B|106:52|106:52|7:26|7:26|0:53,1,160,2|0,3:2|0:0,0:0:0:0:
86,204,284410,6,0,B|163:183,1,80,10|2,0:0|0:0,0:0:0:0:
222,77,284592,2,0,B|201:0,1,80,2|2,0:0|0:0,0:0:0:0:
69,294,284774,2,0,B|223:252,1,160,2|0,3:2|0:0,0:0:0:0:
431,116,285138,6,0,B|353:95,1,80,10|2,0:0|0:0,0:0:0:0:
249,157,285319,2,0,B|228:234,1,80,2|2,0:0|0:0,0:0:0:0:
490,46,285501,2,0,B|335:4,1,160,2|0,3:2|0:0,0:0:0:0:
332,328,285865,6,0,B|410:307,1,80,10|2,0:0|0:0,0:0:0:0:
469,201,286047,2,0,B|448:124,1,80,2|2,0:0|0:0,0:0:0:0:
208,309,286228,54,0,L|223:251,1,59.9999981689454,2|0,3:2|0:0,0:0:0:0:
106,133,286410,2,0,L|164:148,1,59.9999981689454,2|0,0:0|0:0,0:0:0:0:
282,31,286592,2,0,L|267:89,1,59.9999981689454,10|0,0:0|0:0,0:0:0:0:
291,26,286774,2,0,L|276:84,1,59.9999981689454,2|0,0:0|0:0,0:0:0:0:
392,201,286956,6,0,L|334:186,1,59.9999981689454,2|0,3:2|0:0,0:0:0:0:
115,128,287138,2,0,L|173:143,1,59.9999981689454,2|0,0:0|0:0,0:0:0:0:
205,325,287319,6,0,L|321:295,1,120,10|0,0:0|0:0,0:0:0:0:
239,214,287683,6,0,L|84:254,1,160,6|0,3:2|0:0,0:0:0:0:
358,384,288047,2,0,L|512:343,1,160,10|0,0:0|0:0,0:0:0:0:
270,110,288410,1,2,3:2:0:0:
205,325,288592,1,2,0:0:0:0:
405,276,288774,2,0,L|364:121,1,160,10|0,0:0|0:0,0:0:0:0:
48,130,289138,54,0,B|69:52|69:52|146:73,1,160,2|0,3:2|0:0,0:0:0:0:
311,343,289501,2,0,B|233:363|233:363|212:287,1,160,10|0,0:0|0:0,0:0:0:0:
363,8,289865,2,0,B|420:65|420:65|364:122,1,160,2|0,3:2|0:0,0:0:0:0:
148,338,290228,5,10,0:0:0:0:
120,310,290319,1,2,0:0:0:0:
92,281,290410,1,2,0:0:0:0:
64,253,290501,1,2,0:0:0:0:
35,225,290592,2,0,B|188:183,1,160,2|0,3:2|0:0,0:0:0:0:
465,129,290956,5,10,0:0:0:0:
475,167,291047,1,2,0:0:0:0:
484,206,291138,1,2,0:0:0:0:
495,244,291228,1,2,0:0:0:0:
506,283,291319,2,0,B|352:241,1,160,2|0,3:2|0:0,0:0:0:0:
166,35,291683,5,10,0:0:0:0:
204,45,291774,1,2,0:0:0:0:
243,54,291865,1,2,0:0:0:0:
281,65,291956,1,2,0:0:0:0:
320,76,292047,53,2,3:2:0:0:
261,261,292228,2,0,B|240:184,1,80,2|0,0:0|0:0,0:0:0:0:
122,189,292410,2,0,B|143:112,2,80,10|2|2,0:0|0:0|0:0,0:0:0:0:
271,348,292774,5,2,3:2:0:0:
330,163,292956,2,0,B|351:240,1,80,2|0,0:0|0:0,0:0:0:0:
469,235,293138,2,0,B|448:312,2,80,10|2|2,0:0|0:0|0:0,0:0:0:0:
511,27,293501,6,0,L|356:67,1,160,2|0,3:2|0:0,0:0:0:0:
196,280,293865,2,0,L|351:240,1,160,10|0,0:0|0:0,0:0:0:0:
188,113,294228,1,2,3:2:0:0:
141,355,294410,1,2,0:0:0:0:
289,158,294592,2,0,L|249:3,1,160,10|0,0:0|0:0,0:0:0:0:
29,36,294956,6,0,B|56:142|56:142|104:129,1,160,2|0,3:2|0:0,0:0:0:0:
252,362,295319,2,0,B|280:255|280:255|232:242,1,160,10|0,0:0|0:0,0:0:0:0:
468,20,295683,2,0,B|438:125|438:125|486:138,1,160,2|0,3:2|0:0,0:0:0:0:
512,345,296047,53,10,0:0:0:0:
474,335,296138,1,2,0:0:0:0:
435,326,296228,1,2,0:0:0:0:
397,315,296319,1,2,0:0:0:0:
358,304,296410,1,2,3:2:0:0:
229,114,296592,5,2,0:0:0:0:
210,339,296774,1,10,0:0:0:0:
318,139,296956,1,2,0:0:0:0:
92,81,297138,1,2,3:2:0:0:
263,238,297319,2,0,L|418:198,1,160,2|8,0:0|0:0,0:0:0:0:
294,57,297683,1,2,0:0:0:0:
176,259,297865,5,2,3:2:0:0:
56,6,298047,1,2,0:0:0:0:
11,255,298228,1,10,0:0:0:0:
221,10,298410,1,2,0:0:0:0:
391,302,298592,5,2,3:2:0:0:
112,170,298774,1,2,0:0:0:0:
386,120,298956,1,0,3:2:0:0:
117,351,299138,1,2,0:0:0:0:
318,177,299319,53,2,3:2:0:0:
184,293,299501,1,2,0:0:0:0:
321,269,299683,1,10,0:0:0:0:
181,203,299865,1,2,0:0:0:0:
357,362,300047,2,0,L|260:337,1,100,2|0,3:2|0:0,0:0:0:0:
84,227,300410,2,0,L|180:202,1,100,10|0,0:2|0:0,0:0:0:0:
287,63,300774,86,0,B|239:50|239:50|235:32|235:32|204:11|166:14|166:14|154:27|154:27|131:21|94:68|103:95|103:95|66:188|66:188|46:232|105:272|138:228|138:228|178:169|178:169|197:174|226:157|228:149|228:149|366:186|366:186|364:194|381:223|400:228|400:228|406:299|406:299|411:354|483:349|487:301|487:301|501:202|501:202|523:183|514:123|491:117|491:117|488:100|488:100|456:79|419:81|419:81|407:95|407:95|359:82,1,1354.83870967742,6|0,3:2|0:0,0:0:0:0:
