osu file format v14

[General]
AudioFilename: audio.mp3
AudioLeadIn: 0
PreviewTime: 84950
Countdown: 0
SampleSet: Soft
StackLeniency: 0.7
Mode: 0
LetterboxInBreaks: 0
WidescreenStoryboard: 0

[Editor]
Bookmarks: 15677,114580,196041,226586,251313,276041,302216
DistanceSpacing: 0.9
BeatDivisor: 4
GridSize: 4
TimelineZoom: 2.1

[Metadata]
Title:Remote Control
TitleUnicode:リモコン
Artist:Saiya
ArtistUnicode:祭屋
Creator:Linada
Version:Kalitarks' Insane
Source:
Tags:Arrival Sotarks Kalibe Jesus-P じーざすP Giga Official Rimokon Wonderful*Opportunity Kagamine Rin Len Glider
BeatmapID:1153255
BeatmapSetID:530445

[Difficulty]
HPDrainRate:6
CircleSize:4
OverallDifficulty:8
ApproachRate:9
SliderMultiplier:1.7
SliderTickRate:1

[Events]
//Background and Video events
0,0,"remotec.jpg",0,0
//Break Periods
//Storyboard Layer 0 (Background)
//Storyboard Layer 1 (Fail)
//Storyboard Layer 2 (Pass)
//Storyboard Layer 3 (Foreground)
//Storyboard Sound Samples

[TimingPoints]
1138,363.636363636364,4,2,1,70,1,0
4047,-133.333333333333,4,2,1,70,0,0
15683,-117.647058823529,4,2,1,70,0,0
27319,-100,4,2,1,70,0,0
33138,-90.9090909090909,4,2,1,70,0,0
38592,-200,4,2,1,70,0,0
38956,-90.9090909090909,4,2,1,70,0,0
50592,-100,4,2,1,70,0,0
62228,-90.9090909090909,4,2,1,70,0,0
73865,-100,4,2,1,70,0,0
81865,-90.9090909090909,4,2,1,70,0,0
83865,-100,4,2,1,70,0,0
85047,-100,4,2,1,5,0,0
85138,-66.6666666666667,4,2,1,70,0,0
85410,-66.6666666666667,4,2,1,70,0,0
85501,-83.3333333333333,4,2,1,70,0,1
88592,-83.3333333333333,4,2,1,70,0,1
103683,-83.3333333333333,4,2,1,70,0,1
108774,-83.3333333333333,4,2,1,70,0,0
114592,-90.9090909090909,4,2,1,70,0,0
126228,-100,4,2,1,70,0,0
137865,-90.9090909090909,4,2,1,70,0,0
148047,-100,4,2,1,70,0,0
149501,-100,4,2,1,70,0,0
160774,-66.6666666666667,4,2,1,70,0,0
161138,-83.3333333333333,4,2,1,70,0,1
184410,-133.333333333333,4,2,1,70,0,0
190228,-133.333333333333,4,2,1,70,0,0
194592,-100,4,2,1,70,0,0
196047,-105.263157894737,4,2,1,70,0,0
218865,-105.263157894737,4,2,1,5,0,0
218956,-86.9565217391306,4,2,1,70,0,0
219228,-86.9565217391306,4,2,1,5,0,0
219319,-200,4,2,1,70,0,0
220683,-200,4,2,1,30,0,0
220774,-166.666666666667,4,2,1,70,0,0
222138,-166.666666666667,4,2,1,30,0,0
222228,-142.857142857143,4,2,1,70,0,0
222865,-142.857142857143,4,2,1,30,0,0
222956,-125,4,2,1,70,0,0
223592,-125,4,2,1,30,0,0
223683,-111.111111111111,4,2,1,50,0,0
224047,-100,4,2,1,50,0,0
224410,-90.9090909090909,4,2,1,50,0,0
226138,-68.9655172413793,4,2,1,5,0,0
226228,-58.8235294117647,4,2,1,60,0,0
226501,-58.8235294117647,4,2,1,5,0,0
226592,-83.3333333333333,4,2,1,70,0,0
229501,-83.3333333333333,4,2,1,70,0,0
238228,-90.9090909090909,4,2,1,70,0,0
248501,-90.9090909090909,4,2,1,70,0,0
248592,-90.9090909090909,4,2,1,70,0,0
249956,-90.9090909090909,4,2,1,70,0,0
250047,-90.9090909090909,4,2,1,70,0,0
251319,-83.3333333333333,4,2,1,70,0,1
269138,-66.6666666666667,4,2,1,70,0,1
269501,-83.3333333333333,4,2,1,70,0,1
274410,-111.111111111111,4,2,1,70,0,0
274956,-83.3333333333333,4,2,1,70,0,0
275683,-66.6666666666667,4,2,1,70,0,0
276047,-83.3333333333333,4,2,1,80,0,1
300047,-100,4,2,1,80,0,1
300774,-83.3333333333333,4,2,1,80,0,0
300865,-83.3333333333333,4,2,1,70,0,0
302228,-83.3333333333333,4,2,1,60,0,0
303683,-83.3333333333333,4,2,1,50,0,0
305138,-83.3333333333333,4,2,1,40,0,0
306592,-83.3333333333333,4,2,1,30,0,0
308047,-83.3333333333333,4,2,1,20,0,0
308410,-83.3333333333333,4,2,1,10,0,0

[Colours]
Combo1 : 255,170,130
Combo2 : 255,255,0
Combo3 : 192,192,192
Combo4 : 125,190,255

[HitObjects]
136,60,4047,6,0,L|156:197,1,127.500004863739,0|8,0:1|0:0,0:0:0:0:
232,116,4592,1,0,0:0:0:0:
84,216,4774,2,0,P|146:229|224:252,1,127.500004863739,0|8,0:1|0:0,0:0:0:0:
132,320,5319,1,0,0:0:0:0:
232,176,5501,6,0,P|248:236|264:308,1,127.500004863739,0|8,0:0|0:0,0:0:0:0:
340,216,6047,1,0,0:0:0:0:
312,360,6228,2,0,P|248:336|176:316,1,127.500004863739,0|8,0:0|0:1,0:0:0:0:
160,228,6774,1,8,0:1:0:0:
371,210,6956,6,0,P|391:286|379:346,1,127.500004863739,0|8,0:0|0:0,0:0:0:0:
272,384,7501,1,0,0:0:0:0:
176,284,7683,2,0,L|312:272,1,127.500004863739,0|8,0:0|0:0,0:0:0:0:
383,333,8228,1,0,0:0:0:0:
245,139,8410,6,0,P|237:168|220:222,1,63.7500024318696,0|0,0:0|0:0,0:0:0:0:
309,293,8774,2,0,P|302:260|295:221,1,63.7500024318696,8|0,0:0|0:0,0:0:0:0:
201,75,9138,6,0,P|185:102|158:150,1,63.7500024318696,0|0,0:0|0:0,0:0:0:0:
375,237,9501,2,0,P|366:204|352:166,1,63.7500024318696,8|8,0:1|0:1,0:0:0:0:
186,275,9865,6,0,B|254:300|254:300|319:291,1,127.500004863739,0|8,0:0|0:0,0:0:0:0:
403,234,10410,1,0,0:0:0:0:
289,97,10592,2,0,P|274:162|259:237,1,127.500004863739,0|8,0:0|0:0,0:0:0:0:
319,324,11138,1,0,0:0:0:0:
186,275,11319,6,0,P|106:280|61:311,1,127.500004863739,0|8,0:0|0:0,0:0:0:0:
145,353,11865,1,0,0:0:0:0:
261,221,12047,2,0,L|334:207,1,63.7500024318696,0|0,0:0|0:0,0:0:0:0:
380,338,12410,2,0,L|305:320,1,63.7500024318696,8|8,0:1|0:1,0:0:0:0:
198,233,12774,6,0,L|338:206,1,127.500004863739,0|8,0:0|0:0,0:0:0:0:
240,131,13319,1,0,0:0:0:0:
256,306,13501,2,0,L|393:341,1,127.500004863739,0|8,0:0|0:0,0:0:0:0:
326,236,14047,1,0,0:0:0:0:
184,253,14228,6,0,P|173:283|165:326,1,63.7500024318696,0|0,0:0|0:0,0:0:0:0:
348,212,14592,2,0,P|342:182|320:140,1,63.7500024318696,8|0,0:0|0:0,0:0:0:0:
244,28,14956,1,0,0:0:0:0:
195,151,15138,1,0,0:0:0:0:
308,116,15319,1,8,0:1:0:0:
172,48,15501,1,8,0:1:0:0:
52,170,15683,6,0,P|107:163|199:151,1,144.500002756119,10|10,0:1|0:0,0:0:0:0:
348,212,16228,1,2,0:0:0:0:
348,212,16319,1,2,0:0:0:0:
348,212,16410,2,0,P|313:198|272:196,1,72.2500013780594,2|8,0:0|0:1,0:0:0:0:
152,267,16774,2,0,P|117:278|68:275,1,72.2500013780594,8|2,0:0|0:0,0:0:0:0:
81,277,17047,1,2,0:0:0:0:
81,277,17138,6,0,P|161:291|223:322,1,144.500002756119,10|2,0:1|0:0,0:0:0:0:
349,377,17683,1,2,0:0:0:0:
349,377,17774,1,2,0:0:0:0:
349,377,17865,2,0,L|368:302,1,72.2500013780594,2|0,0:0|0:0,0:0:0:0:
440,208,18228,1,8,0:1:0:0:
440,208,18410,1,8,0:1:0:0:
440,208,18592,6,0,B|392:194|392:194|342:204|342:204|291:189,1,144.500002756119,10|8,0:1|0:0,0:0:0:0:
336,50,19138,1,2,0:0:0:0:
336,50,19228,1,2,0:0:0:0:
336,50,19319,2,0,B|350:82|350:82|344:123,1,72.2500013780594,2|8,0:0|0:1,0:0:0:0:
212,212,19683,2,0,B|175:217|175:217|143:203,1,72.2500013780594,0|0,0:0|0:0,0:0:0:0:
244,92,20047,5,10,0:1:0:0:
244,92,20228,1,0,0:0:0:0:
300,191,20410,2,0,L|284:275,1,72.2500013780594,0|2,0:0|0:0,0:0:0:0:
300,284,20683,1,2,0:0:0:0:
300,284,20774,1,2,0:0:0:0:
208,184,20956,1,0,0:0:0:0:
73,237,21138,2,0,P|64:272|65:313,1,72.2500013780594,8|8,0:1|0:1,0:0:0:0:
182,370,21501,6,0,L|204:212,1,144.500002756119,10|10,0:1|0:0,0:0:0:0:
249,131,22047,1,2,0:0:0:0:
249,131,22138,1,2,0:0:0:0:
249,131,22228,1,2,0:0:0:0:
306,252,22410,1,8,0:1:0:0:
447,215,22592,2,0,L|499:227,2,36.1250006890297,8|0|0,0:0|0:0|0:0,0:0:0:0:
375,88,22956,6,0,P|363:120|355:180,1,72.2500013780594,10|0,0:1|0:0,0:0:0:0:
329,321,23319,2,0,P|320:285|302:244,1,72.2500013780594,0|2,0:0|0:0,0:0:0:0:
306,252,23592,1,2,0:0:0:0:
306,252,23683,2,0,B|249:245|249:245|214:259|214:259|159:253,1,144.500002756119,2|8,0:0|0:1,0:0:0:0:
199,175,24228,1,8,0:1:0:0:
89,320,24410,6,0,L|233:340,1,144.500002756119,2|10,0:0|0:0,0:0:0:0:
375,310,24956,1,0,0:0:0:0:
375,310,25047,1,0,0:0:0:0:
375,310,25138,2,0,L|452:328,1,72.2500013780594,2|8,0:0|0:1,0:0:0:0:
270,164,25501,2,0,L|188:172,1,72.2500013780594,10|0,0:0|0:0,0:0:0:0:
372,224,25865,6,0,P|392:136|380:68,1,144.500002756119,0|0,0:0|0:0,0:0:0:0:
292,20,26410,1,0,0:0:0:0:
195,100,26592,2,0,B|188:137|188:137|203:188,1,72.2500013780594,0|0,0:0|0:0,0:0:0:0:
296,136,26956,1,8,0:1:0:0:
252,0,27138,1,8,0:1:0:0:
114,151,27319,6,0,L|218:175,1,85,10|0,0:1|0:0,0:0:0:0:
216,192,27592,1,0,0:0:0:0:
216,192,27683,2,0,L|220:240,2,42.5,2|0|8,0:0|0:0|0:1,0:0:0:0:
52,84,28047,2,0,P|36:124|28:176,1,85,10|8,0:0|0:1,0:0:0:0:
84,348,28410,2,0,L|100:260,1,85,2|2,0:0|0:0,0:0:0:0:
99,264,28683,1,2,0:0:0:0:
99,264,28774,5,10,0:1:0:0:
264,352,28956,2,0,P|223:341|176:328,1,85,10|2,0:1|0:0,0:0:0:0:
42,355,29319,6,0,L|92:346,1,42.5,10|0,0:1|0:0,0:0:0:0:
188,296,29501,2,0,P|191:212|156:165,2,127.5,10|8|8,0:0|0:1|0:0,0:0:0:0:
48,200,30228,6,0,P|48:156|60:108,1,85,10|2,0:1|0:0,0:0:0:0:
288,224,30592,2,0,P|288:268|276:316,1,85,2|10,0:0|0:1,0:0:0:0:
278,307,30865,1,10,0:1:0:0:
278,307,30956,2,0,L|390:295,1,85,10|10,0:0|0:1,0:0:0:0:
200,244,31319,1,2,0:0:0:0:
168,231,31410,1,2,0:0:0:0:
134,232,31501,1,2,0:0:0:0:
101,220,31592,1,2,0:0:0:0:
69,207,31683,6,0,P|74:248|82:298,1,85,10|2,0:1|0:0,0:0:0:0:
281,216,32047,2,0,P|287:173|296:118,1,85,2|10,0:0|0:1,0:0:0:0:
316,104,32319,1,0,0:0:0:0:
316,104,32410,2,0,P|310:62|296:8,1,85,10|10,0:0|0:1,0:0:0:0:
83,123,32774,2,0,P|74:164|67:219,1,85,2|0,0:0|0:0,0:0:0:0:
188,368,33138,6,0,L|204:260,1,93.5000028533936,2|2,0:0|0:0,0:0:0:0:
232,252,33410,1,2,0:0:0:0:
232,252,33501,2,0,L|212:196,1,46.7500014266968,10|0,0:1|0:0,0:0:0:0:
156,136,33683,2,0,L|172:84,1,46.7500014266968,2|2,0:0|0:0,0:0:0:0:
244,32,33865,2,0,P|252:78|260:128,1,93.5000028533936,10|0,0:1|0:0,0:0:0:0:
80,303,34228,1,10,0:1:0:0:
80,303,34319,1,2,0:0:0:0:
80,303,34410,1,2,0:0:0:0:
80,303,34501,1,2,0:0:0:0:
80,303,34592,6,0,P|71:258|62:208,1,93.5000028533936,10|2,0:1|0:0,0:0:0:0:
140,72,34956,1,10,0:1:0:0:
268,160,35138,1,2,0:0:0:0:
268,160,35228,1,0,0:0:0:0:
268,160,35319,2,0,P|312:152|376:140,1,93.5000028533936,10|0,0:1|0:0,0:0:0:0:
444,124,35592,1,0,0:0:0:0:
444,124,35683,2,0,P|431:166|416:220,1,93.5000028533936,10|0,0:1|0:0,0:0:0:0:
320,364,36047,6,0,P|312:316|300:252,1,93.5000028533936,10|2,0:1|0:0,0:0:0:0:
141,147,36410,1,10,0:1:0:0:
141,184,36501,1,2,0:0:0:0:
122,219,36592,1,2,0:0:0:0:
113,255,36683,1,2,0:0:0:0:
125,290,36774,2,0,P|169:283|233:274,1,93.5000028533936,10|2,0:1|0:0,0:0:0:0:
403,241,37138,1,10,0:1:0:0:
369,226,37228,1,2,0:0:0:0:
331,223,37319,1,2,0:0:0:0:
295,212,37410,1,2,0:0:0:0:
263,192,37501,5,10,0:1:0:0:
204,76,37683,1,10,0:1:0:0:
218,274,37865,5,10,0:1:0:0:
244,148,38047,1,10,0:1:0:0:
240,376,38228,5,10,0:1:0:0:
196,232,38410,1,10,0:1:0:0:
32,288,38592,6,0,L|104:304,1,63.75,8|0,0:1|0:0,0:0:0:0:
120,328,38956,6,0,L|96:176,1,140.25000428009,14|0,0:1|0:0,0:0:0:0:
72,156,39319,1,8,0:0:0:0:
218,274,39501,1,0,0:0:0:0:
218,274,39592,1,0,0:0:0:0:
218,274,39683,2,0,P|265:263|324:252,1,93.5000028533936,10|0,0:1|0:0,0:0:0:0:
444,368,40047,2,0,L|416:308,1,46.7500014266968,8|0,0:0|0:0,0:0:0:0:
355,265,40228,2,0,L|303:253,1,46.7500014266968,0|0,0:0|0:0,0:0:0:0:
272,360,40410,6,0,L|388:388,1,93.5000028533936,10|0,0:1|0:0,0:0:0:0:
251,186,40774,2,0,L|210:293,1,93.5000028533936,8|0,0:0|0:0,0:0:0:0:
472,256,41138,2,0,L|332:228,1,140.25000428009,10|0,0:1|0:0,0:0:0:0:
309,254,41501,1,8,0:0:0:0:
412,148,41683,1,0,0:0:0:0:
488,328,41865,1,10,0:1:0:0:
488,328,41956,1,0,0:0:0:0:
488,328,42047,6,0,L|476:280,1,46.7500014266968,0|0,0:0|0:0,0:0:0:0:
389,240,42228,2,0,L|375:300,1,46.7500014266968,8|0,0:0|0:0,0:0:0:0:
289,336,42410,2,0,L|276:268,1,46.7500014266968
188,220,42592,2,0,L|164:316,1,93.5000028533936,10|0,0:1|0:0,0:0:0:0:
72,156,42956,1,8,0:0:0:0:
72,156,43047,1,0,0:0:0:0:
72,156,43138,1,0,0:0:0:0:
72,156,43228,1,0,0:0:0:0:
72,156,43319,6,0,P|81:201|92:252,1,93.5000028533936,10|0,0:1|0:0,0:0:0:0:
292,104,43683,2,0,P|282:151|268:210,1,93.5000028533936,8|0,0:0|0:0,0:0:0:0:
164,340,44047,1,10,0:1:0:0:
180,180,44228,1,0,0:0:0:0:
332,260,44410,2,0,P|285:268|233:276,1,93.5000028533936,8|0,0:0|0:0,0:0:0:0:
71,324,44774,6,0,P|116:331|173:341,1,93.5000028533936,14|0,0:1|0:0,0:0:0:0:
308,384,45138,2,0,P|315:337|323:291,1,93.5000028533936,10|0,0:0|0:0,0:0:0:0:
180,180,45501,2,0,P|188:224|204:300,1,93.5000028533936,10|0,0:1|0:0,0:0:0:0:
336,180,45865,1,10,0:0:0:0:
331,142,45956,1,0,0:0:0:0:
325,104,46047,1,0,0:0:0:0:
318,67,46138,1,0,0:0:0:0:
296,40,46228,6,0,P|248:28|198:25,1,93.5000028533936,10|0,0:1|0:0,0:0:0:0:
336,180,46592,2,0,P|384:192|434:195,1,93.5000028533936,10|0,0:0|0:0,0:0:0:0:
234,113,46956,2,0,L|201:276,1,140.25000428009,10|0,0:1|0:0,0:0:0:0:
216,288,47319,1,8,0:0:0:0:
131,175,47501,1,0,0:0:0:0:
24,268,47683,5,10,0:1:0:0:
24,268,47774,1,0,0:0:0:0:
24,268,47865,2,0,L|92:256,1,46.7500014266968,0|0,0:0|0:0,0:0:0:0:
124,348,48047,2,0,L|64:332,1,46.7500014266968,8|0,0:0|0:0,0:0:0:0:
85,184,48228,2,0,L|153:172,1,46.7500014266968
248,292,48410,2,0,L|152:264,1,93.5000028533936,10|0,0:1|0:0,0:0:0:0:
204,84,48774,1,8,0:0:0:0:
204,84,48865,1,0,0:0:0:0:
204,84,48956,1,0,0:0:0:0:
204,84,49047,1,0,0:0:0:0:
204,84,49138,6,0,P|219:129|228:184,1,93.5000028533936,10|10,0:1|0:1,0:0:0:0:
139,357,49501,2,0,P|146:310|163:249,1,93.5000028533936,10|10,0:1|0:1,0:0:0:0:
304,136,49865,1,10,0:1:0:0:
85,184,50047,5,8,0:0:0:0:
256,328,50228,1,8,0:0:0:0:
227,174,50410,1,8,0:0:0:0:
139,357,50592,5,12,0:1:0:0:
168,232,50774,1,0,0:0:0:0:
272,308,50956,2,0,P|313:318|376:332,1,85,8|0,0:0|0:0,0:0:0:0:
392,152,51319,2,0,P|360:184|328:224,1,85,8|0,0:1|0:0,0:0:0:0:
472,332,51683,2,0,P|454:289|436:252,1,85,8|0,0:0|0:0,0:0:0:0:
304,112,52047,5,8,0:1:0:0:
252,194,52228,2,0,L|348:218,1,85,0|8,0:0|0:0,0:0:0:0:
472,332,52592,2,0,B|412:316|412:316|364:328|364:328|305:313,1,170,0|0,0:0|0:0,0:0:0:0:
136,260,53138,1,8,0:0:0:0:
224,156,53319,1,0,0:0:0:0:
220,348,53501,6,0,P|136:316|60:288,1,170,8|8,0:1|0:0,0:0:0:0:
158,191,54047,1,0,0:0:0:0:
158,191,54138,1,0,0:0:0:0:
158,191,54228,1,8,0:1:0:0:
221,262,54410,1,0,0:0:0:0:
89,113,54592,2,0,P|70:150|56:196,1,85,8|0,0:0|0:0,0:0:0:0:
121,359,54956,5,8,0:1:0:0:
220,261,55138,2,0,P|215:216|197:167,1,85,0|8,0:0|0:0,0:0:0:0:
89,113,55501,2,0,P|188:137|253:99,1,170,0|0,0:0|0:0,0:0:0:0:
356,48,56047,2,0,L|336:148,1,85,8|0,0:0|0:0,0:0:0:0:
292,304,56410,5,8,0:1:0:0:
384,216,56592,1,0,0:0:0:0:
489,287,56774,2,0,L|447:294|393:303,1,85,8|0,0:0|0:0,0:0:0:0:
374,325,57047,1,0,0:0:0:0:
374,325,57138,2,0,P|331:314|286:302,1,85,8|0,0:1|0:0,0:0:0:0:
132,232,57501,1,8,0:0:0:0:
232,152,57683,1,0,0:0:0:0:
212,356,57865,5,8,0:1:0:0:
112,264,58047,2,0,P|67:271|20:280,1,85,0|8,0:0|0:0,0:0:0:0:
224,188,58410,2,0,B|316:171|293:226|393:207,1,170,0|0,0:0|0:0,0:0:0:0:
259,265,58956,1,8,0:0:0:0:
349,131,59138,1,0,0:0:0:0:
414,324,59319,6,0,B|355:302|355:302|303:310|303:310|242:290,1,170,8|8,0:1|0:0,0:0:0:0:
188,191,59865,1,0,0:0:0:0:
188,191,59956,1,0,0:0:0:0:
188,191,60047,1,8,0:1:0:0:
96,272,60228,1,0,0:0:0:0:
228,374,60410,2,0,L|257:271,1,85,8|0,0:0|0:0,0:0:0:0:
188,112,60774,5,8,0:1:0:0:
83,187,60956,2,0,P|89:231|99:291,1,85,0|8,0:0|0:0,0:0:0:0:
248,203,61319,2,0,P|167:182|78:155,1,170,0|8,0:0|0:0,0:0:0:0:
95,271,61865,1,8,0:0:0:0:
188,112,62047,1,8,0:0:0:0:
288,220,62228,6,0,P|294:264|278:317,1,93.5000028533936,12|0,0:1|0:0,0:0:0:0:
77,247,62592,2,0,P|71:203|87:150,1,93.5000028533936,10|0,0:0|0:0,0:0:0:0:
181,18,62956,2,0,L|189:130,1,93.5000028533936,10|0,0:1|0:0,0:0:0:0:
152,276,63319,1,10,0:0:0:0:
183,255,63410,1,2,0:0:0:0:
219,246,63501,1,2,0:0:0:0:
255,252,63592,1,2,0:0:0:0:
287,270,63683,6,0,P|308:312|317:371,1,93.5000028533936,10|0,0:1|0:0,0:0:0:0:
260,148,64047,2,0,P|268:102|289:60,1,93.5000028533936,10|0,0:0|0:0,0:0:0:0:
162,235,64410,2,0,P|115:232|71:217,1,93.5000028533936,10|0,0:1|0:0,0:0:0:0:
44,188,64683,1,2,0:0:0:0:
44,188,64774,2,0,P|46:141|61:97,1,93.5000028533936,10|0,0:0|0:0,0:0:0:0:
176,16,65138,5,10,0:1:0:0:
176,16,65228,1,0,0:0:0:0:
176,16,65319,2,0,L|194:76,1,46.7500014266968,2|2,0:0|0:0,0:0:0:0:
220,156,65501,2,0,L|116:136,1,93.5000028533936,10|0,0:0|0:0,0:0:0:0:
128,138,65774,1,2,0:0:0:0:
128,138,65865,1,8,0:1:0:0:
230,68,66047,1,2,0:0:0:0:
255,233,66228,2,0,L|247:293,2,46.7500014266968,8|2|2,0:0|0:0|0:0,0:0:0:0:
423,252,66592,6,0,P|376:261|328:270,1,93.5000028533936,10|10,0:1|0:1,0:0:0:0:
230,68,66956,2,0,P|239:115|248:163,1,93.5000028533936,10|2,0:0|0:0,0:0:0:0:
313,361,67319,2,0,P|321:315|330:269,1,93.5000028533936,10|0,0:1|0:0,0:0:0:0:
360,102,67683,1,10,0:0:0:0:
467,207,67865,1,2,0:0:0:0:
467,207,67956,1,2,0:0:0:0:
467,207,68047,6,0,L|366:186,1,93.5000028533936,12|0,0:1|0:0,0:0:0:0:
238,278,68410,2,0,L|338:268,1,93.5000028533936,10|0,0:0|0:0,0:0:0:0:
360,102,68774,2,0,L|268:80,1,93.5000028533936,10|0,0:1|0:0,0:0:0:0:
102,111,69138,1,10,0:0:0:0:
81,141,69228,1,2,0:0:0:0:
75,178,69319,1,2,0:0:0:0:
81,214,69410,1,2,0:0:0:0:
96,248,69501,6,0,P|96:301|75:345,1,93.5000028533936,10|0,0:1|0:0,0:0:0:0:
164,180,69865,2,0,L|276:172,1,93.5000028533936,10|0,0:0|0:0,0:0:0:0:
384,284,70228,2,0,L|272:272,1,93.5000028533936,10|0,0:1|0:0,0:0:0:0:
268,288,70501,1,2,0:0:0:0:
268,288,70592,1,10,0:0:0:0:
348,192,70774,1,0,0:0:0:0:
404,360,70956,5,10,0:1:0:0:
404,360,71047,1,2,0:0:0:0:
404,360,71138,2,0,L|384:292,1,46.7500014266968,2|0,0:0|0:0,0:0:0:0:
291,274,71319,2,0,P|276:316|260:368,1,93.5000028533936,10|0,0:0|0:0,0:0:0:0:
348,192,71683,2,0,P|336:148|308:88,1,93.5000028533936,10|0,0:1|0:0,0:0:0:0:
180,4,72047,1,10,0:0:0:0:
172,40,72138,1,2,0:0:0:0:
164,76,72228,1,2,0:0:0:0:
156,112,72319,1,2,0:0:0:0:
148,148,72410,6,0,P|190:137|252:128,1,93.5000028533936,10|0,0:1|0:0,0:0:0:0:
440,207,72774,2,0,P|394:197|340:191,1,93.5000028533936,10|2,0:0|0:0,0:0:0:0:
216,328,73138,2,0,P|228:284|245:239,1,93.5000028533936,10|8,0:1|0:0,0:0:0:0:
344,108,73501,1,8,0:0:0:0:
372,292,73683,1,8,0:0:0:0:
275,167,73865,5,12,0:1:0:0:
275,167,74228,2,0,P|235:151|187:139,1,85,10|0,0:0|0:0,0:0:0:0:
43,220,74592,2,0,B|130:193|108:260|209:235,1,170,10|10,0:1|0:0,0:0:0:0:
294,158,75138,1,2,0:0:0:0:
372,284,75319,6,0,L|281:300,1,85,10|0,0:1|0:0,0:0:0:0:
448,220,75683,2,0,L|480:308,1,85,10|2,0:0|0:0,0:0:0:0:
316,208,76047,2,0,L|334:102,1,85,10|0,0:1|0:0,0:0:0:0:
384,16,76410,1,10,0:0:0:0:
384,16,76592,1,0,0:0:0:0:
500,108,76774,6,0,B|432:128|432:128|332:104,1,170,10|8,0:1|0:0,0:0:0:0:
204,28,77319,2,0,P|260:116|228:172,1,170
173,110,77865,1,10,0:0:0:0:
340,68,78047,1,0,0:0:0:0:
399,208,78228,6,0,L|227:164,1,170,10|10,0:1|0:0,0:0:0:0:
84,132,78774,1,2,0:0:0:0:
84,132,78865,1,0,0:0:0:0:
84,132,78956,2,0,L|112:228,1,85,10|0,0:1|0:0,0:0:0:0:
164,356,79319,2,0,L|208:260,1,85,10|0,0:0|0:0,0:0:0:0:
256,172,79683,5,10,0:1:0:0:
256,172,80047,2,0,P|246:128|228:64,1,85,10|0,0:0|0:0,0:0:0:0:
199,278,80410,2,0,P|277:311|376:352,1,170,10|10,0:1|0:0,0:0:0:0:
312,240,80956,1,2,0:0:0:0:
188,356,81138,6,0,P|145:359|100:364,1,85,10|2,0:1|0:0,0:0:0:0:
312,240,81501,2,0,P|354:236|400:232,1,85,10|2,0:0|0:0,0:0:0:0:
396,232,81774,1,0,0:0:0:0:
396,232,81865,1,10,0:1:0:0:
308,140,82047,1,0,0:0:0:0:
204,264,82228,2,0,P|192:309|187:361,1,93.5000028533936,10|0,0:0|0:0,0:0:0:0:
304,268,82592,5,10,0:1:0:0:
108,220,82774,1,10,0:1:0:0:
104,252,83319,5,10,0:1:0:0:
305,227,83501,1,10,0:1:0:0:
183,166,83865,6,0,P|212:227|311:221,1,170,12|2,0:1|0:0,0:0:0:0:
376,144,84410,1,10,0:1:0:0:
508,280,84592,2,0,B|411:233|392:316|300:256,1,212.5,10|0,0:1|0:0,0:0:0:0:
183,166,85138,6,0,B|172:228|172:228|196:292|196:292|180:352,1,191.250007295609,8|0,0:1|0:0,0:0:0:0:
168,384,85501,5,14,0:1:0:0:
303,258,85683,2,0,P|296:208|280:155,1,101.999996887207,0|8,0:0|0:0,0:0:0:0:
268,352,86047,5,2,0:0:0:0:
378,189,86228,2,0,P|331:170|277:157,1,101.999996887207,10|0,0:1|0:0,0:0:0:0:
104,280,86592,2,0,L|276:264,1,152.999995330811,10|0,0:0|0:0,0:0:0:0:
303,258,86956,5,10,0:1:0:0:
143,153,87138,1,0,0:0:0:0:
143,153,87228,1,0,0:0:0:0:
143,153,87319,2,0,P|130:198|107:273,1,101.999996887207,10|0,0:0|0:0,0:0:0:0:
378,189,87683,2,0,P|368:143|347:73,1,101.999996887207,10|0,0:1|0:0,0:0:0:0:
210,230,88047,1,10,0:0:0:0:
288,316,88228,2,0,P|337:338|397:335,1,101.999996887207,2|8,0:0|0:1,0:0:0:0:
288,160,88592,5,2,0:0:0:0:
172,252,88774,2,0,P|156:296|144:352,1,101.999996887207,10|0,0:0|0:0,0:0:0:0:
288,316,89138,2,0,L|260:100,1,203.999993774414,10|10,0:1|0:0,0:0:0:0:
172,44,89683,1,2,0:0:0:0:
124,221,89865,5,10,0:1:0:0:
148,132,90047,1,2,0:0:0:0:
172,44,90228,2,0,L|64:24,1,101.999996887207,10|2,0:0|0:1,0:0:0:0:
124,221,90592,5,10,0:1:0:0:
214,204,90774,1,10,0:1:0:0:
304,185,90956,2,0,L|309:73,1,101.999996887207,10|2,0:0|0:0,0:0:0:0:
400,164,91319,5,14,0:1:0:0:
214,204,91501,2,0,P|199:257|195:311,1,101.999996887207,0|8,0:0|0:0,0:0:0:0:
304,185,91865,1,2,0:0:0:0:
271,369,92047,2,0,P|229:339|194:302,1,101.999996887207,10|0,0:1|0:0,0:0:0:0:
396,154,92410,2,0,L|376:313,1,152.999995330811,10|0,0:0|0:0,0:0:0:0:
373,337,92774,5,10,0:1:0:0:
493,198,92956,1,0,0:0:0:0:
493,198,93047,1,0,0:0:0:0:
493,198,93138,2,0,B|501:250|501:250|481:298,1,101.999996887207,10|0,0:0|0:0,0:0:0:0:
271,369,93501,2,0,B|252:323|252:323|260:271,1,101.999996887207,10|0,0:1|0:0,0:0:0:0:
320,96,93865,1,10,0:0:0:0:
416,176,94047,2,0,L|312:196,1,101.999996887207,2|8,0:0|0:1,0:0:0:0:
140,116,94410,5,2,0:0:0:0:
269,9,94592,2,0,P|301:49|321:101,1,101.999996887207,10|2,0:0|0:1,0:0:0:0:
232,284,94956,2,0,B|244:220|244:220|220:156|220:156|236:76,1,203.999993774414,10|10,0:1|0:0,0:0:0:0:
312,144,95501,1,2,0:0:0:0:
150,232,95683,6,0,P|49:227|14:172,1,152.999995330811,10|0,0:1|0:0,0:0:0:0:
20,191,96047,2,0,L|-2:310,1,101.999996887207,10|2,0:0|0:0,0:0:0:0:
129,156,96410,2,0,L|167:316,1,152.999995330811,10|0,0:1|0:0,0:0:0:0:
164,304,96774,1,10,0:0:0:0:
296,191,96956,1,2,2:0:0:0:
432,364,97138,5,14,0:1:0:0:
365,273,97319,2,0,L|252:286,1,101.999996887207,2|8,0:0|0:0,0:0:0:0:
104,192,97683,1,2,0:0:0:0:
260,96,97865,2,0,P|280:144|300:204,1,101.999996887207,8|2,0:1|0:0,0:0:0:0:
180,348,98228,2,0,L|196:192,1,152.999995330811,10|0,0:0|0:0,0:0:0:0:
204,160,98592,5,10,0:1:0:0:
368,260,98774,1,0,0:0:0:0:
368,260,98865,1,0,0:0:0:0:
368,260,98956,2,0,L|258:286,1,101.999996887207,10|0,0:0|0:0,0:0:0:0:
82,319,99319,2,0,L|190:351,1,101.999996887207,10|0,0:1|0:0,0:0:0:0:
296,191,99683,1,10,0:0:0:0:
168,249,99865,2,0,P|165:305|188:361,1,101.999996887207,2|8,0:0|0:1,0:0:0:0:
356,358,100228,5,2,0:0:0:0:
356,358,100410,2,0,P|371:309|367:259,1,101.999996887207,10|2,0:0|0:0,0:0:0:0:
264,96,100774,2,0,B|247:147|265:189|265:189|285:242|266:300,1,203.999993774414,8|10,0:1|0:0,0:0:0:0:
168,252,101319,1,2,0:0:0:0:
344,144,101501,5,10,0:1:0:0:
364,240,101683,1,10,0:1:0:0:
264,96,101865,1,10,0:0:0:0:
368,160,102047,1,2,0:0:0:0:
168,252,102228,5,10,0:1:0:0:
260,128,102410,1,10,0:1:0:0:
276,300,102592,1,10,0:0:0:0:
156,160,102774,1,2,0:0:0:0:
70,282,102956,6,0,P|116:265|186:248,1,101.999996887207,12|0,0:1|0:0,0:0:0:0:
373,330,103319,2,0,P|323:317|275:299,1,101.999996887207,10|0,0:0|0:0,0:0:0:0:
124,172,103683,1,10,0:1:0:0:
164,287,103865,1,2,0:0:0:0:
328,188,104047,2,0,L|448:172,1,101.999996887207,8|0,0:0|0:0,0:0:0:0:
184,96,104410,6,0,B|155:160|155:160|175:228|175:228|155:292,1,203.999993774414,10|10,0:1|0:0,0:0:0:0:
64,224,104956,1,0,0:0:0:0:
256,176,105138,2,0,B|272:226|272:226|255:284,1,101.999996887207,10|0,0:1|0:0,0:0:0:0:
184,96,105501,1,10,0:0:0:0:
157,288,105683,2,0,L|273:272,1,101.999996887207,2|8,0:0|0:1,0:0:0:0:
448,244,106047,5,2,0:0:0:0:
344,172,106228,1,8,0:0:0:0:
344,172,106410,1,2,0:0:0:0:
328,356,106592,2,0,P|343:308|360:256,1,101.999996887207,10|0,0:1|0:0,0:0:0:0:
317,73,106956,2,0,P|331:124|345:177,1,101.999996887207,10|2,0:0|0:0,0:0:0:0:
416,344,107319,5,12,0:1:0:0:
266,274,107501,1,2,0:0:0:0:
432,208,107683,1,10,0:0:0:0:
328,356,107865,1,2,0:0:0:0:
248,232,108047,1,10,0:0:0:0:
108,328,108228,2,0,B|204:300|204:384|316:336,1,203.999993774414,2|0,0:0|0:0,0:0:0:0:
428,244,108774,5,12,0:1:0:0:
67,174,109138,1,8,0:0:0:0:
67,174,109228,2,0,P|117:165|180:150,1,101.999996887207,0|0,0:0|0:0,0:0:0:0:
244,101,109501,2,0,P|252:152|264:204,1,101.999996887207,8|8,0:1|0:1,0:0:0:0:
156,352,109865,2,0,P|169:306|189:231,1,101.999996887207,8|0,0:0|0:0,0:0:0:0:
225,70,110228,5,0,0:0:0:0:
439,368,110592,1,8,0:0:0:0:
439,368,110683,2,0,L|333:343,1,101.999996887207,0|0,0:0|0:0,0:0:0:0:
274,278,110956,2,0,L|383:268,1,101.999996887207,8|8,0:1|0:1,0:0:0:0:
231,382,111319,2,0,L|121:364,1,101.999996887207,8|0,0:0|0:0,0:0:0:0:
0,276,111683,5,0,0:0:0:0:
304,69,112047,1,8,0:0:0:0:
304,69,112138,2,0,B|308:120|308:120|284:184,1,101.999996887207,0|0,0:0|0:0,0:0:0:0:
214,219,112410,2,0,B|161:226|161:226|114:214,1,101.999996887207,8|8,0:1|0:1,0:0:0:0:
295,255,112774,2,0,B|319:299|319:299|322:353,1,101.999996887207,8|0,0:0|0:0,0:0:0:0:
92,332,113138,6,0,L|268:314,1,152.999995330811,8|0,0:1|0:0,0:0:0:0:
295,255,113501,2,0,L|359:267,1,50.9999984436036,8|0,0:0|0:0,0:0:0:0:
428,340,113683,1,0,0:0:0:0:
469,245,114047,5,8,0:0:0:0:
321,350,114228,1,8,0:0:0:0:
236,192,114410,1,8,0:0:0:0:
352,268,114592,6,0,B|272:248|304:292|196:272,1,140.25000428009,14|0,0:1|0:0,0:0:0:0:
176,264,114956,1,8,0:0:0:0:
320,165,115138,1,0,0:0:0:0:
320,165,115228,1,0,0:0:0:0:
320,165,115319,2,0,P|263:156|216:162,1,93.5000028533936,10|0,0:1|0:0,0:0:0:0:
352,268,115683,2,0,P|406:259|420:254,1,46.7500014266968,8|0,0:0|0:0,0:0:0:0:
471,187,115865,2,0,P|447:185|424:180,1,46.7500014266968,0|0,0:0|0:0,0:0:0:0:
371,87,116047,5,10,0:1:0:0:
352,268,116228,1,0,0:0:0:0:
287,55,116410,2,0,P|298:123|315:167,1,93.5000028533936,8|0,0:0|0:0,0:0:0:0:
199,209,116683,1,0,0:0:0:0:
199,209,116774,2,0,P|212:164|217:117,1,93.5000028533936,10|0,0:1|0:0,0:0:0:0:
131,146,117047,1,0,0:0:0:0:
131,146,117138,2,0,L|77:141,1,46.7500014266968,8|0,0:0|0:0,0:0:0:0:
31,227,117319,2,0,L|85:222,1,46.7500014266968,0|0,0:0|0:0,0:0:0:0:
165,293,117501,6,0,B|249:314|222:267|320:288,1,140.25000428009,10|0,0:1|0:0,0:0:0:0:
344,301,117865,1,8,0:0:0:0:
297,169,118047,1,0,0:0:0:0:
297,169,118138,1,0,0:0:0:0:
297,169,118228,2,0,L|313:64,1,93.5000028533936,10|0,0:1|0:0,0:0:0:0:
430,25,118592,1,10,0:0:0:0:
448,57,118682,1,0,0:0:0:0:
458,93,118773,1,0,0:0:0:0:
460,130,118864,1,0,0:0:0:0:
453,167,118956,5,10,0:1:0:0:
311,76,119138,1,0,0:0:0:0:
374,271,119319,1,8,0:0:0:0:
245,132,119501,1,0,0:0:0:0:
151,273,119683,2,0,P|210:263|264:251,1,93.5000028533936,10|0,0:1|0:0,0:0:0:0:
428,196,120047,2,0,P|369:186|315:174,1,93.5000028533936,8|0,0:0|0:0,0:0:0:0:
119,159,120410,6,0,P|188:169|261:95,1,140.25000428009,14|0,0:1|0:0,0:0:0:0:
263,98,120774,1,10,0:0:0:0:
169,28,120956,2,0,P|164:77|165:87,1,46.7500014266968,0|0,0:0|0:0,0:0:0:0:
119,159,121138,2,0,L|136:265,1,93.5000028533936,10|0,0:1|0:0,0:0:0:0:
38,346,121501,1,10,0:0:0:0:
75,341,121591,1,2,0:0:0:0:
112,337,121682,1,2,0:0:0:0:
149,333,121773,1,2,0:0:0:0:
186,329,121865,6,0,P|280:334|296:337,1,93.5000028533936,10|0,0:1|0:0,0:0:0:0:
435,290,122228,1,10,0:0:0:0:
233,249,122410,1,0,0:0:0:0:
357,358,122592,2,0,P|354:300|345:250,1,93.5000028533936,10|0,0:1|0:0,0:0:0:0:
338,232,122865,1,0,0:0:0:0:
338,232,122956,1,8,0:0:0:0:
246,78,123138,2,0,P|235:126|235:131,1,46.7500014266968,0|0,0:0|0:0,0:0:0:0:
150,170,123319,6,0,P|214:165|254:234,1,140.25000428009,10|0,0:1|0:0,0:0:0:0:
252,264,123683,1,8,0:0:0:0:
316,116,123865,1,0,0:0:0:0:
319,313,124047,2,0,P|267:346|221:339,1,93.5000028533936,10|0,0:1|0:0,0:0:0:0:
112,236,124410,1,8,0:0:0:0:
148,228,124500,1,0,0:0:0:0:
185,231,124591,1,0,0:0:0:0:
221,243,124682,1,0,0:0:0:0:
252,264,124773,5,10,0:1:0:0:
88,248,124956,1,10,0:1:0:0:
268,288,125138,5,10,0:1:0:0:
62,272,125319,1,10,0:1:0:0:
281,317,125501,5,10,0:1:0:0:
51,297,125683,1,10,0:1:0:0:
182,141,125865,1,10,0:0:0:0:
182,141,126228,6,0,P|122:137|81:126,1,85,12|0,0:1|0:0,0:0:0:0:
259,105,126592,1,8,0:0:0:0:
152,60,126774,1,0,0:0:0:0:
169,224,126956,2,0,P|177:161|186:123,1,85,8|0,0:1|0:0,0:0:0:0:
236,290,127319,1,8,0:0:0:0:
249,192,127501,1,0,0:0:0:0:
164,346,127683,5,8,0:1:0:0:
319,307,127865,2,0,L|232:289,1,85,0|8,0:0|0:0,0:0:0:0:
80,312,128228,1,0,0:0:0:0:
77,285,128319,1,0,0:0:0:0:
74,255,128410,2,0,L|82:161,1,85,8|0,0:1|0:0,0:0:0:0:
154,37,128774,1,8,0:0:0:0:
161,198,128956,1,0,0:0:0:0:
35,135,129138,6,0,B|146:120|87:160|207:138,1,170,8|8,0:1|0:0,0:0:0:0:
354,88,129683,1,0,0:0:0:0:
165,64,129865,2,0,P|222:67|263:83,1,85,8|0,0:1|0:0,0:0:0:0:
290,240,130228,1,8,0:0:0:0:
201,147,130410,1,0,0:0:0:0:
377,220,130592,5,8,0:1:0:0:
193,235,130774,2,0,L|93:207,1,85,0|8,0:0|0:0,0:0:0:0:
30,123,131138,1,0,0:0:0:0:
18,153,131228,1,0,0:0:0:0:
13,185,131319,2,0,P|8:235|27:291,1,85,8|0,0:1|0:0,0:0:0:0:
190,318,131683,2,0,P|198:276|192:234,1,85,8|0,0:0|0:0,0:0:0:0:
136,101,132047,5,8,0:1:0:0:
113,266,132228,1,0,0:0:0:0:
209,147,132410,1,8,0:0:0:0:
268,296,132592,1,0,0:0:0:0:
277,93,132774,2,0,P|290:151|283:195,1,85,8|0,0:1|0:0,0:0:0:0:
252,324,133138,1,8,0:0:0:0:
209,147,133319,1,0,0:0:0:0:
339,258,133501,5,8,0:1:0:0:
152,257,133683,2,0,L|252:244,1,85,0|8,0:0|0:0,0:0:0:0:
336,345,134047,2,0,P|380:336|386:333,1,42.5,0|0,0:0|0:0,0:0:0:0:
429,258,134228,2,0,P|425:207|433:148,1,85,8|0,0:1|0:0,0:0:0:0:
493,58,134592,1,8,0:0:0:0:
505,211,134774,1,0,0:0:0:0:
360,128,134956,6,0,B|298:117|298:117|254:133|254:133|180:120,1,170,8|8,0:1|0:0,0:0:0:0:
252,44,135501,1,0,0:0:0:0:
307,203,135683,2,0,P|303:258|196:309,1,170,8|8,0:1|0:0,0:0:0:0:
222,220,136228,1,0,0:0:0:0:
357,322,136410,5,8,0:1:0:0:
211,312,136592,2,0,P|155:316|150:317,1,42.5,0|0,0:0|0:0,0:0:0:0:
87,337,136774,1,8,0:0:0:0:
222,220,136956,2,0,P|278:224|283:225,1,42.5,8|8,0:1|0:1,0:0:0:0:
346,245,137138,1,8,0:1:0:0:
143,239,137319,5,8,0:0:0:0:
357,326,137501,1,8,0:0:0:0:
87,337,137683,1,8,0:0:0:0:
256,137,137865,6,0,P|264:223|262:266,1,93.5000028533936,12|0,0:1|0:0,0:0:0:0:
55,253,138228,2,0,P|57:210|62:159,1,93.5000028533936,10|0,0:0|0:0,0:0:0:0:
163,37,138592,2,0,P|168:79|171:135,1,93.5000028533936,10|0,0:1|0:0,0:0:0:0:
147,284,138956,1,10,0:0:0:0:
161,248,139046,1,0,0:0:0:0:
189,223,139137,1,0,0:0:0:0:
226,213,139228,1,0,0:0:0:0:
263,221,139319,6,0,P|317:235|374:226,1,93.5000028533936,10|0,0:1|0:0,0:0:0:0:
460,115,139683,2,0,P|418:115|369:134,1,93.5000028533936,10|0,0:0|0:0,0:0:0:0:
413,311,140047,2,0,P|436:258|436:212,1,93.5000028533936,10|0,0:1|0:0,0:0:0:0:
431,194,140319,1,0,0:0:0:0:
431,194,140410,1,10,0:0:0:0:
292,137,140592,1,0,0:0:0:0:
316,284,140774,5,10,0:1:0:0:
316,284,140865,1,2,0:0:0:0:
316,284,140956,2,0,L|302:221,1,46.7500014266968,2|2,0:0|0:0,0:0:0:0:
292,137,141138,2,0,P|244:148|180:164,1,93.5000028533936,8|0,0:0|0:0,0:0:0:0:
168,172,141410,1,2,0:0:0:0:
168,172,141501,1,2,0:0:0:0:
305,238,141683,1,2,0:0:0:0:
142,324,141865,1,10,0:0:0:0:
174,334,141955,1,2,0:0:0:0:
207,332,142046,1,2,0:0:0:0:
238,318,142137,1,2,0:0:0:0:
261,293,142228,5,10,0:1:0:0:
184,237,142410,1,10,0:1:0:0:
331,340,142592,2,0,L|426:311,1,93.5000028533936,10|2,0:0|0:0,0:0:0:0:
339,152,142956,2,0,P|334:218|334:263,1,93.5000028533936,10|0,0:1|0:0,0:0:0:0:
424,76,143319,2,0,P|428:118|429:172,1,93.5000028533936,10|2,0:0|0:0,0:0:0:0:
339,65,143683,6,0,B|253:57|294:91|200:78,1,140.25000428009,12|0,0:1|0:0,0:0:0:0:
170,69,144047,1,10,0:0:0:0:
40,163,144228,1,0,0:0:0:0:
68,156,144319,1,0,0:0:0:0:
98,151,144410,2,0,L|192:156,1,93.5000028533936,10|0,0:1|0:0,0:0:0:0:
297,231,144774,2,0,P|251:227|232:227,1,46.7500014266968,10|0,0:0|0:0,0:0:0:0:
126,273,144956,2,0,P|172:269|191:269,1,46.7500014266968,0|0,0:0|0:0,0:0:0:0:
278,322,145138,6,0,P|327:323|370:289,1,93.5000028533936,10|0,0:1|0:0,0:0:0:0:
308,138,145501,2,0,L|294:254,1,93.5000028533936,10|0,0:0|0:0,0:0:0:0:
424,101,145865,2,0,P|363:69|328:58,1,93.5000028533936,10|0,0:1|0:0,0:0:0:0:
225,174,146228,2,0,P|169:199|123:211,1,93.5000028533936,10|0,0:0|0:0,0:0:0:0:
36,125,146592,5,10,0:1:0:0:
49,153,146683,1,0,0:0:0:0:
56,184,146774,2,0,L|45:251,1,46.7500014266968,0|2,0:0|0:0,0:0:0:0:
8,328,146956,2,0,P|58:315|120:318,1,93.5000028533936,8|10,0:0|0:1,0:0:0:0:
136,324,147228,1,2,0:0:0:0:
136,324,147319,1,2,0:0:0:0:
248,376,147501,1,0,0:0:0:0:
133,241,147683,1,10,0:0:0:0:
165,251,147773,1,2,0:0:0:0:
199,251,147864,1,2,0:0:0:0:
231,242,147955,1,2,0:0:0:0:
260,223,148047,6,0,P|312:200|360:197,1,85,10|8,0:1|0:1,0:0:0:0:
424,332,148410,2,0,P|382:324|344:305,1,85,10|2,0:0|0:0,0:0:0:0:
184,172,148774,1,10,0:1:0:0:
411,245,148956,5,8,0:0:0:0:
220,332,149138,1,8,0:0:0:0:
411,245,149319,1,8,0:0:0:0:
292,168,149501,6,0,P|228:160|140:160,1,127.5,12|0,0:1|0:0,0:0:0:0:
127,169,149865,1,10,0:0:0:0:
230,74,150047,1,0,0:0:0:0:
233,235,150228,2,0,L|252:329,1,85,10|0,0:1|0:0,0:0:0:0:
301,162,150592,1,10,0:0:0:0:
252,336,150774,1,2,0:0:0:0:
167,153,150956,5,10,0:1:0:0:
237,252,151138,1,0,0:0:0:0:
272,73,151319,1,10,0:0:0:0:
319,286,151501,1,0,0:0:0:0:
258,157,151683,2,0,L|355:147,1,85,10|2,0:1|0:0,0:0:0:0:
149,228,152047,2,0,L|52:218,1,85,10|0,0:0|0:0,0:0:0:0:
203,101,152410,6,0,P|227:167|231:236,1,127.5,10|0,0:1|0:0,0:0:0:0:
225,258,152774,1,8,0:0:0:0:
306,146,152956,2,0,P|354:140|364:141,1,42.5,0|0,0:0|0:0,0:0:0:0:
434,201,153138,2,0,P|379:207|347:220,1,85,10|0,0:1|0:0,0:0:0:0:
319,303,153410,1,0,0:0:0:0:
319,303,153501,2,0,P|264:297|232:284,1,85,10|0,0:0|0:0,0:0:0:0:
147,162,153865,6,0,B|180:244|108:244|157:345,1,170,8|8,0:1|0:0,0:0:0:0:
53,121,154410,2,0,P|62:170|82:215,1,85,0|10,0:0|0:1,0:0:0:0:
144,126,154774,1,0,0:0:0:0:
236,286,154956,2,0,P|251:246|258:204,1,85,10|0,0:0|0:0,0:0:0:0:
425,121,155319,6,0,P|375:122|289:74,1,127.5,10|0,0:1|0:0,0:0:0:0:
276,64,155683,1,10,0:0:0:0:
383,39,155865,1,0,0:0:0:0:
335,194,156047,2,0,L|344:288,1,85,10|0,0:1|0:0,0:0:0:0:
211,125,156410,2,0,L|202:209,1,85,10|2,0:0|0:0,0:0:0:0:
97,44,156774,5,10,0:1:0:0:
62,166,156956,1,2,0:0:0:0:
209,95,157138,1,10,0:0:0:0:
202,227,157319,1,2,0:0:0:0:
202,227,157410,1,0,0:0:0:0:
202,227,157501,2,0,L|216:329,1,85,10|0,0:1|0:0,0:0:0:0:
296,66,157865,2,0,L|282:168,1,85,10|0,0:0|0:0,0:0:0:0:
294,265,158228,5,10,0:1:0:0:
209,95,158410,1,10,0:1:0:0:
201,319,158956,5,10,0:1:0:0:
284,150,159138,1,10,0:1:0:0:
334,238,159501,6,0,B|246:275|245:203|150:243,1,170,6|2,0:0|0:1,0:0:0:0:
286,163,160047,1,10,0:1:0:0:
182,139,160228,2,0,P|250:151|350:51,1,212.5,10|0,0:1|0:0,0:0:0:0:
247,62,160774,6,0,B|179:54|179:54|120:76|120:76|37:68,1,191.250007295609,8|0,0:0|0:0,0:0:0:0:
22,64,161138,5,14,0:1:0:0:
126,187,161319,2,0,L|104:311,1,101.999996887207,0|8,0:0|0:0,0:0:0:0:
34,214,161683,1,2,0:0:0:0:
210,250,161865,2,0,P|263:239|304:203,1,101.999996887207,10|0,0:1|0:0,0:0:0:0:
384,63,162228,2,0,P|371:132|409:236,1,152.999995330811,10|0,0:0|0:0,0:0:0:0:
409,247,162592,5,10,0:1:0:0:
293,128,162774,1,0,0:0:0:0:
293,128,162865,1,0,0:0:0:0:
293,128,162956,2,0,P|214:123|182:123,1,101.999996887207,10|0,0:0|0:0,0:0:0:0:
60,211,163319,2,0,P|139:206|171:206,1,101.999996887207,10|0,0:1|0:0,0:0:0:0:
306,263,163683,1,10,0:0:0:0:
387,86,163865,6,0,P|373:156|373:209,1,101.999996887207,2|8,0:0|0:1,0:0:0:0:
433,357,164228,2,0,L|322:347,1,101.999996887207,2|10,0:0|0:0,0:0:0:0:
227,367,164592,1,0,0:0:0:0:
88,298,164774,2,0,P|180:332|258:262,1,203.999993774414,10|10,0:1|0:0,0:0:0:0:
163,240,165319,1,2,0:0:0:0:
191,70,165501,5,10,0:1:0:0:
177,152,165683,1,2,0:0:0:0:
163,240,165865,2,0,P|109:233|58:215,1,101.999996887207,10|2,0:0|0:1,0:0:0:0:
191,70,166228,5,10,0:1:0:0:
280,63,166410,1,10,0:1:0:0:
366,58,166592,2,0,P|373:113|393:161,1,101.999996887207,10|2,0:0|0:0,0:0:0:0:
463,81,166956,5,14,0:1:0:0:
296,142,167138,2,0,L|291:247,1,101.999996887207,0|8,0:0|0:0,0:0:0:0:
386,235,167501,1,2,0:0:0:0:
206,211,167683,2,0,P|209:279|237:326,1,101.999996887207,10|0,0:1|0:0,0:0:0:0:
296,142,168047,2,0,P|220:126|111:133,1,152.999995330811,10|0,0:0|0:0,0:0:0:0:
105,142,168410,5,10,0:1:0:0:
258,50,168592,1,0,0:0:0:0:
258,50,168683,1,0,0:0:0:0:
258,50,168774,2,0,P|331:60|374:74,1,101.999996887207,10|0,0:0|0:0,0:0:0:0:
481,127,169138,2,0,P|408:137|365:151,1,101.999996887207,10|0,0:1|0:0,0:0:0:0:
323,327,169501,1,10,0:0:0:0:
296,142,169683,6,0,P|290:202|292:255,1,101.999996887207,2|8,0:0|0:1,0:0:0:0:
204,359,170047,2,0,P|204:308|198:257,1,101.999996887207,2|10,0:0|0:0,0:0:0:0:
144,146,170410,1,2,0:1:0:0:
30,194,170592,6,0,B|95:173|180:211|180:211|202:267,1,203.999993774414,10|10,0:1|0:0,0:0:0:0:
107,272,171138,1,2,0:0:0:0:
229,144,171319,6,0,L|406:136,1,152.999995330811,10|0,0:1|0:0,0:0:0:0:
424,112,171683,2,0,L|312:102,1,101.999996887207,10|2,0:0|0:0,0:0:0:0:
129,107,172047,2,0,P|199:109|271:46,1,152.999995330811,10|0,0:1|0:0,0:0:0:0:
281,26,172410,1,10,0:0:0:0:
247,200,172592,1,2,2:0:0:0:
178,28,172774,5,14,0:1:0:0:
166,248,172956,1,2,0:0:0:0:
166,248,173047,1,0,0:0:0:0:
166,248,173138,2,0,P|213:286|257:290,1,101.999996887207,8|2,0:0|0:0,0:0:0:0:
422,187,173501,1,8,0:1:0:0:
247,200,173683,1,2,0:0:0:0:
395,274,173865,2,0,P|391:198|373:92,1,152.999995330811,10|0,0:0|0:0,0:0:0:0:
368,85,174228,5,10,0:1:0:0:
162,73,174410,1,0,0:0:0:0:
162,73,174501,1,0,0:0:0:0:
162,73,174592,2,0,L|267:59,1,101.999996887207,10|0,0:0|0:0,0:0:0:0:
135,167,174956,2,0,L|30:153,1,101.999996887207,10|0,0:1|0:0,0:0:0:0:
233,141,175319,1,10,0:0:0:0:
74,239,175501,6,0,L|94:346,1,101.999996887207,2|8,0:0|0:1,0:0:0:0:
273,251,175865,2,0,P|204:250|155:258,1,101.999996887207,2|10,0:0|0:0,0:0:0:0:
223,335,176228,1,0,0:0:0:0:
233,168,176410,2,0,P|302:167|351:175,1,101.999996887207,10|0,0:1|0:0,0:0:0:0:
402,276,176774,5,10,0:0:0:0:
392,101,176956,1,2,0:0:0:0:
290,242,177138,5,10,0:1:0:0:
315,74,177319,1,10,0:1:0:0:
437,188,177501,1,10,0:0:0:0:
237,176,177683,1,2,0:0:0:0:
400,91,177865,5,10,0:1:0:0:
419,316,178047,1,10,0:1:0:0:
336,165,178228,1,10,0:0:0:0:
239,300,178410,1,2,0:0:0:0:
216,91,178592,6,0,P|249:166|260:210,1,101.999996887207,12|0,0:1|0:0,0:0:0:0:
140,313,178956,2,0,P|156:264|178:218,1,101.999996887207,10|0,0:0|0:0,0:0:0:0:
312,98,179319,1,10,0:1:0:0:
237,287,179501,1,2,0:0:0:0:
115,190,179683,2,0,P|180:204|267:193,1,152.999995330811,8|0,0:0|0:0,0:0:0:0:
301,178,180047,5,10,0:1:0:0:
99,103,180228,1,0,0:0:0:0:
99,103,180319,1,0,0:0:0:0:
99,103,180410,2,0,P|47:136|24:176,1,101.999996887207,10|0,0:0|0:0,0:0:0:0:
115,291,180774,2,0,L|114:171,1,101.999996887207,10|0,0:1|0:0,0:0:0:0:
28,315,181138,1,10,0:0:0:0:
191,228,181319,6,0,P|259:220|310:220,1,101.999996887207,2|8,0:0|0:1,0:0:0:0:
416,320,181683,2,0,P|409:240|420:188,1,101.999996887207,2|8,0:0|0:0,0:0:0:0:
475,123,182047,1,2,0:0:0:0:
311,137,182228,2,0,L|192:108,1,101.999996887207,10|0,0:1|0:0,0:0:0:0:
64,220,182592,2,0,P|145:207|185:209,1,101.999996887207,10|2,0:0|0:0,0:0:0:0:
280,241,182956,5,12,0:1:0:0:
114,289,183138,1,2,0:0:0:0:
357,295,183319,5,10,0:0:0:0:
171,212,183501,1,2,0:0:0:0:
282,337,183683,5,10,0:0:0:0:
222,140,183865,1,2,0:0:0:0:
202,301,184047,5,10,0:1:0:0:
270,216,184228,1,0,0:0:0:0:
372,328,184410,6,0,P|406:322|440:316,1,63.7500024318696,4|4,0:0|0:3,0:0:0:0:
333,206,184774,2,0,P|301:211|270:217,1,63.7500024318696,8|4,0:0|0:3,0:0:0:0:
246,224,185047,1,2,0:0:0:0:
246,224,185138,2,0,P|251:189|258:156,1,63.7500024318696,2|4,0:0|0:3,0:0:0:0:
282,15,185502,2,0,P|276:46|270:77,1,63.7500024318696,8|4,0:0|0:3,0:0:0:0:
395,217,185865,6,0,P|360:211|327:205,1,63.7500024318696,2|4,0:0|0:3,0:0:0:0:
96,275,186229,2,0,P|127:269|158:263,1,63.7500024318696,8|4,0:0|0:3,0:0:0:0:
179,261,186501,1,2,0:0:0:0:
179,261,186592,2,0,L|252:249,1,63.7500024318696,2|4,0:0|0:3,0:0:0:0:
111,181,186956,2,0,L|38:193,1,63.7500024318696,8|4,0:0|0:3,0:0:0:0:
152,348,187319,6,0,P|185:352|241:359,1,63.7500024318696,2|4,0:0|0:3,0:0:0:0:
338,274,187683,2,0,P|369:270|401:266,1,63.7500024318696,8|4,0:0|0:3,0:0:0:0:
423,263,187956,1,2,0:0:0:0:
423,263,188047,2,0,P|435:233|431:195,1,63.7500024318696,2|4,0:0|0:3,0:0:0:0:
375,67,188410,2,0,P|373:98|385:127,1,63.7500024318696,8|4,0:0|0:3,0:0:0:0:
512,276,188774,5,2,0:0:0:0:
433,202,188956,1,4,0:3:0:0:
376,352,189138,5,8,0:0:0:0:
299,275,189319,1,4,0:3:0:0:
299,275,189410,1,2,0:0:0:0:
299,275,189501,1,2,0:0:0:0:
204,328,189683,1,4,0:3:0:0:
297,195,189865,5,8,0:0:0:0:
201,246,190047,1,4,0:3:0:0:
124,129,190228,6,0,P|174:125|202:127,1,63.7500024318696,12|4,0:1|0:3,0:0:0:0:
297,195,190592,2,0,P|328:195|360:191,1,63.7500024318696,10|4,0:1|0:3,0:0:0:0:
423,120,190865,1,0,0:0:0:0:
423,120,190956,2,0,P|448:160|452:193,1,63.7500024318696,8|4,0:1|0:3,0:0:0:0:
390,277,191319,2,0,L|385:354,1,63.7500024318696,10|4,0:1|0:3,0:0:0:0:
261,305,191683,6,0,L|171:295,1,63.7500024318696,8|4,0:1|0:3,0:0:0:0:
110,334,192047,2,0,L|46:341,1,63.7500024318696,10|4,0:1|0:3,0:0:0:0:
71,256,192319,1,0,0:0:0:0:
71,256,192410,2,0,P|76:204|70:178,1,63.7500024318696,8|4,0:1|0:3,0:0:0:0:
29,80,192774,1,10,0:1:0:0:
88,11,192956,1,4,0:3:0:0:
157,113,193138,6,0,L|232:103,1,63.7500024318696,8|4,0:1|0:3,0:0:0:0:
321,29,193501,2,0,L|384:37,1,63.7500024318696,10|4,0:1|0:3,0:0:0:0:
433,113,193774,1,0,0:0:0:0:
433,113,193865,2,2,P|427:160|432:198,1,63.7500024318696,10|4,0:1|0:3,0:0:0:0:
488,282,194228,2,0,P|493:313|492:345,1,63.7500024318696,10|4,0:1|0:3,0:0:0:0:
353,299,194592,5,8,0:1:0:0:
317,295,194683,1,8,0:1:0:0:
284,292,194774,2,0,L|227:287,1,42.5,2|0,0:1|0:0,0:0:0:0:
120,192,194955,5,8,0:0:0:0:
152,204,195047,2,0,L|216:224,1,42.5,8|0,0:0|0:0,0:0:0:0:
164,324,195228,2,0,L|116:308,1,42.5,8|0,0:0|0:0,0:0:0:0:
32,260,195410,5,8,0:0:0:0:
12,232,195501,1,8,0:0:0:0:
3,199,195591,1,8,0:1:0:0:
0,166,195682,1,8,0:1:0:0:
4,132,195773,1,8,0:1:0:0:
19,96,195864,1,12,0:0:0:0:
240,184,196047,6,0,P|198:191|149:203,1,80.7499978437424,12|0,0:1|0:0,0:0:0:0:
19,96,196410,2,0,P|56:102|103:111,1,80.7499978437424,10|0,0:0|0:0,0:0:0:0:
211,289,196774,2,0,P|172:298|121:306,1,80.7499978437424,8|0,0:1|0:0,0:0:0:0:
72,197,197138,2,0,P|111:205|167:221,1,80.7499978437424,10|0,0:0|0:0,0:0:0:0:
328,280,197501,5,8,0:1:0:0:
328,280,197683,1,0,0:0:0:0:
232,366,197865,2,0,L|203:263,1,80.7499978437424,10|0,0:0|0:0,0:0:0:0:
440,242,198228,2,0,L|419:340,1,80.7499978437424,8|0,0:1|0:0,0:0:0:0:
324,260,198592,2,0,B|308:135|308:135|276:175,1,161.499995687485,10|8,0:0|0:1,0:0:0:0:
230,239,199138,5,0,0:0:0:0:
344,338,199319,2,0,P|386:328|437:317,1,80.7499978437424,10|0,0:0|0:0,0:0:0:0:
230,239,199683,2,0,P|219:281|210:322,1,80.7499978437424,8|0,0:1|0:0,0:0:0:0:
324,260,200047,1,10,0:0:0:0:
285,162,200228,1,0,0:0:0:0:
130,328,200410,6,0,L|224:315,1,80.7499978437424,8|0,0:1|0:0,0:0:0:0:
398,278,200774,2,0,L|297:256,1,80.7499978437424,10|0,0:0|0:0,0:0:0:0:
132,165,201138,2,0,B|229:183|229:183|303:159,1,161.499995687485,8|10,0:1|0:0,0:0:0:0:
384,104,201683,1,0,0:0:0:0:
244,28,201865,6,0,P|231:63|221:113,1,80.7499978437424,12|0,0:1|0:0,0:0:0:0:
404,182,202228,2,0,P|395:141|380:94,1,80.7499978437424,10|0,0:0|0:0,0:0:0:0:
288,163,202592,1,8,0:1:0:0:
398,278,202774,1,0,0:0:0:0:
296,338,202956,2,0,L|320:254,1,80.7499978437424,10|0,0:0|0:0,0:0:0:0:
488,232,203319,6,0,L|508:324,1,80.7499978437424,8|0,0:1|0:0,0:0:0:0:
412,357,203683,2,0,L|396:269,1,80.7499978437424,10|0,0:0|0:0,0:0:0:0:
288,120,204047,2,0,B|320:232|320:232|356:192,1,161.499995687485,8|10,0:1|0:0,0:0:0:0:
408,128,204592,1,0,0:0:0:0:
216,208,204774,6,0,P|173:199|120:188,1,80.7499978437424,8|0,0:1|0:0,0:0:0:0:
4,284,205138,2,0,B|68:256|80:324|168:280,1,161.499995687485,10|8,0:0|0:1,0:0:0:0:
155,113,205683,2,0,L|135:196,1,80.7499978437424,0|10,0:0|0:0,0:0:0:0:
176,368,206047,1,0,0:0:0:0:
292,336,206228,6,0,P|332:344|388:364,1,80.7499978437424,10|0,0:1|0:0,0:0:0:0:
312,248,206592,2,0,P|270:251|220:268,1,80.7499978437424,10|0,0:0|0:0,0:0:0:0:
300,160,206956,2,0,P|340:168|380:184,1,80.7499978437424,10|0,0:1|0:0,0:0:0:0:
480,260,207319,1,10,0:0:0:0:
312,72,207683,6,0,P|270:76|216:88,1,80.7499978437424,12|0,0:1|0:0,0:0:0:0:
119,36,208047,1,10,0:0:0:0:
25,127,208228,1,0,0:0:0:0:
25,127,208319,1,0,0:0:0:0:
25,127,208410,2,0,P|64:129|101:148,1,80.7499978437424,8|0,0:1|0:0,0:0:0:0:
208,204,208774,2,0,P|168:206|123:234,1,80.7499978437424,8|0,0:0|0:0,0:0:0:0:
34,297,209138,5,8,0:1:0:0:
100,147,209319,1,0,0:0:0:0:
192,280,209501,1,10,0:0:0:0:
48,200,209683,1,0,0:0:0:0:
188,92,209865,2,0,L|208:196,1,80.7499978437424,8|0,0:1|0:0,0:0:0:0:
124,324,210228,2,0,B|168:312|204:316|208:356|280:340,1,161.499995687485,10|8,0:0|0:1,0:0:0:0:
408,272,210774,5,0,0:0:0:0:
256,240,210956,2,0,B|328:276|328:276|404:244,1,161.499995687485,10|8,0:0|0:1,0:0:0:0:
332,172,211501,1,0,0:0:0:0:
280,339,211683,2,0,L|260:251,1,80.7499978437424,10|0,0:0|0:0,0:0:0:0:
355,94,212047,6,0,P|342:132|331:174,1,80.7499978437424,8|0,0:1|0:0,0:0:0:0:
470,288,212410,2,0,P|435:265|402:244,1,80.7499978437424,10|0,0:0|0:0,0:0:0:0:
272,368,212774,2,0,P|294:333|316:300,1,80.7499978437424,8|0,0:1|0:0,0:0:0:0:
196,184,213138,2,0,L|230:206|264:228,1,80.7499978437424,10|0,0:0|0:0,0:0:0:0:
424,152,213501,5,12,0:1:0:0:
424,152,213683,1,0,0:0:0:0:
481,231,213865,2,0,L|387:246,1,80.7499978437424,10|0,0:0|0:0,0:0:0:0:
220,296,214228,5,8,0:1:0:0:
220,296,214410,1,0,0:0:0:0:
241,150,214592,2,0,L|265:234,1,80.7499978437424,10|0,0:0|0:0,0:0:0:0:
203,374,214956,6,0,P|211:334|223:278,1,80.7499978437424,8|0,0:1|0:0,0:0:0:0:
376,336,215319,2,0,P|337:345|288:356,1,80.7499978437424,10|0,0:0|0:0,0:0:0:0:
141,276,215683,2,0,P|180:284|219:294,1,80.7499978437424,8|0,0:1|0:0,0:0:0:0:
341,209,216047,2,0,P|301:218|262:227,1,80.7499978437424,10|0,0:0|0:0,0:0:0:0:
56,276,216410,5,8,0:1:0:0:
56,276,216592,1,0,0:0:0:0:
164,128,216774,2,0,L|192:228,1,80.7499978437424,10|0,0:0|0:0,0:0:0:0:
203,374,217138,1,8,0:1:0:0:
141,276,217319,1,0,0:0:0:0:
264,184,217501,2,0,P|304:192|352:216,1,80.7499978437424,10|0,0:0|0:0,0:0:0:0:
156,104,217865,5,8,0:1:0:0:
219,294,218047,1,0,0:0:0:0:
264,184,218228,5,10,0:0:0:0:
188,368,218410,1,0,0:0:0:0:
188,368,218501,1,0,0:0:0:0:
188,368,218592,2,0,L|344:352,1,121.124996765614,10|0,0:1|0:0,0:0:0:0:
448,328,218956,6,0,P|380:360|316:316,1,146.62500279665,10|0,0:0|0:0,0:0:0:0:
304,304,219319,6,0,B|292:252|292:252|324:196|324:196|300:148|300:148|320:104|320:104|296:56|296:56|308:0,1,318.75,4|0,0:0|0:0,0:0:0:0:
305,11,220774,6,0,B|232:96|120:32|120:32|160:80|172:128|144:168|96:184,1,382.499988327027,4|0,0:0|0:0,0:0:0:0:
28,204,222228,6,0,B|138:189|102:277|226:257,1,208.249993644715,4|0,0:0|0:0,0:0:0:0:
308,220,222956,6,0,P|244:228|300:356,1,238,4|0,0:0|0:0,0:0:0:0:
292,376,223683,6,0,P|331:370|376:352,1,76.4999976654053,4|0,0:0|0:0,0:0:0:0:
443,255,224047,6,0,P|437:216|415:167,1,85,8|0,0:0|0:0,0:0:0:0:
296,106,224410,6,0,P|257:111|206:137,1,93.5000028533936,8|8,0:1|0:1,0:0:0:0:
120,245,224774,5,8,0:1:0:0:
110,208,224865,1,8,0:1:0:0:
100,171,224956,1,8,0:1:0:0:
90,134,225047,1,0,0:0:0:0:
80,97,225138,1,4,0:0:0:0:
80,97,225865,6,0,L|231:115,1,140.25000428009,2|0,0:0|0:0,0:0:0:0:
284,56,226228,6,0,B|338:163|250:163|294:270,1,216.750004134178,10|0,0:1|0:0,0:0:0:0:
369,302,226592,6,0,P|308:289|225:339,1,152.999995330811,14|0,0:1|0:0,0:0:0:0:
214,361,226956,1,10,0:0:0:0:
50,309,227138,2,0,P|103:293|114:291,1,50.9999984436036,0|0,0:0|0:0,0:0:0:0:
198,246,227319,2,0,P|97:239|25:222,1,152.999995330811,10|0,0:1|0:0,0:0:0:0:
14,217,227683,1,10,0:0:0:0:
133,152,227865,1,2,0:0:0:0:
39,75,228047,6,0,P|105:58|168:50,1,101.999996887207,10|0,0:1|0:0,0:0:0:0:
235,105,228319,1,0,0:0:0:0:
235,105,228410,2,0,P|285:96|334:82,1,101.999996887207,10|0,0:0|0:0,0:0:0:0:
454,21,228774,2,0,P|466:77|468:91,1,50.9999984436036,10|2,0:1|0:0,0:0:0:0:
455,160,228956,1,2,0:0:0:0:
320,241,229138,1,10,0:0:0:0:
353,229,229228,1,2,0:0:0:0:
389,227,229319,1,2,0:0:0:0:
422,238,229410,1,2,0:0:0:0:
449,261,229501,6,0,B|479:294|479:294|359:312,1,152.999995330811,10|0,0:1|0:0,0:0:0:0:
335,315,229865,1,10,0:0:0:0:
136,280,230047,1,0,0:0:0:0:
136,280,230138,1,0,0:0:0:0:
136,280,230228,2,0,P|200:268|252:246,1,101.999996887207,10|0,0:1|0:0,0:0:0:0:
70,212,230592,2,0,P|51:278|48:328,1,101.999996887207,10|0,0:0|0:0,0:0:0:0:
166,192,230956,6,0,P|161:137|159:125,1,50.9999984436036,10|2,0:1|0:0,0:0:0:0:
121,66,231138,1,2,0:0:0:0:
246,153,231319,1,10,0:0:0:0:
273,148,231410,1,0,0:0:0:0:
305,143,231501,1,0,0:0:0:0:
450,67,231683,2,0,P|379:60|323:58,1,101.999996887207,10|0,0:1|0:0,0:0:0:0:
246,153,232047,2,0,P|296:155|347:161,1,101.999996887207,10|2,0:0|0:0,0:0:0:0:
472,239,232410,5,10,0:1:0:0:
292,237,232592,1,2,0:0:0:0:
292,237,232683,1,2,0:0:0:0:
292,237,232774,2,0,L|223:242,1,50.9999984436036,10|2,0:0|0:0,0:0:0:0:
178,306,232956,2,0,L|127:302,1,50.9999984436036,2|2,0:0|0:0,0:0:0:0:
76,215,233138,2,0,P|64:158|61:147,2,50.9999984436036,10|2|2,0:1|0:0|0:0,0:0:0:0:
263,155,233501,2,0,P|275:98|278:87,2,50.9999984436036,10|2|2,0:0|0:0|0:0,0:0:0:0:
0,101,233865,6,0,P|75:87|159:100,1,152.999995330811,10|0,0:1|0:0,0:0:0:0:
186,108,234228,1,10,0:0:0:0:
304,236,234410,1,2,0:0:0:0:
340,236,234501,1,2,0:0:0:0:
372,226,234592,2,0,P|418:203|441:152,1,101.999996887207,10|0,0:1|0:0,0:0:0:0:
276,50,234956,2,0,L|269:115,1,50.9999984436036,10|2,0:0|0:0,0:0:0:0:
351,94,235138,2,0,L|358:159,1,50.9999984436036,2|2,0:0|0:0,0:0:0:0:
440,159,235319,5,8,0:1:0:0:
377,312,235501,2,0,L|266:291,1,101.999996887207,2|10,0:0|0:0,0:0:0:0:
234,308,235774,1,0,0:0:0:0:
199,300,235865,1,2,0:0:0:0:
166,293,235956,1,2,0:0:0:0:
136,285,236047,2,0,P|127:222|123:211,2,50.9999984436036,10|0|2,0:1|0:0|0:0,0:0:0:0:
254,199,236410,2,0,P|263:136|267:125,2,50.9999984436036,10|0|2,0:0|0:0|0:0,0:0:0:0:
70,171,236774,6,0,P|128:155|175:159,1,101.999996887207,10|10,0:1|0:1,0:0:0:0:
323,86,237138,2,0,P|265:70|218:74,1,101.999996887207,10|10,0:1|0:1,0:0:0:0:
136,75,237501,1,10,0:1:0:0:
351,103,237683,5,8,0:0:0:0:
108,90,237865,1,8,0:0:0:0:
368,124,238047,1,8,0:0:0:0:
133,176,238228,6,0,L|140:287,1,93.5000028533936,12|0,0:1|0:0,0:0:0:0:
336,320,238592,2,0,L|341:226,1,93.5000028533936,10|0,0:0|0:0,0:0:0:0:
209,119,238956,2,0,P|221:194|237:237,1,93.5000028533936,10|0,0:1|0:0,0:0:0:0:
422,259,239319,2,0,P|410:184|394:141,1,93.5000028533936,10|2,0:0|0:0,0:0:0:0:
207,97,239683,5,10,0:1:0:0:
328,228,239865,1,0,0:0:0:0:
285,62,240047,1,10,0:0:0:0:
213,226,240228,1,2,0:0:0:0:
238,57,240410,1,10,0:1:0:0:
270,227,240592,1,0,0:0:0:0:
392,168,240774,2,0,L|290:155,1,93.5000028533936,10|0,0:0|0:0,0:0:0:0:
89,244,241138,6,0,B|178:205|178:291|286:229,1,187.000005706787,10|8,0:1|0:0,0:0:0:0:
207,40,241683,2,0,P|163:79|234:171,1,187.000005706787,0|0,0:0|0:0,0:0:0:0:
375,82,242228,2,0,P|311:62|252:79,1,93.5000028533936,10|0,0:0|0:0,0:0:0:0:
143,208,242592,6,0,P|223:205|323:134,1,187.000005706787,10|10,0:1|0:0,0:0:0:0:
64,154,243138,2,0,B|49:200|49:200|65:245|65:245|46:297|72:359,1,187.000005706787,2|0,0:0|0:0,0:0:0:0:
228,303,243683,2,0,B|170:287|170:287|119:301,1,93.5000028533936,10|0,0:0|0:0,0:0:0:0:
340,233,244047,6,0,B|283:238|283:238|139:195,2,187.000005706787,10|10|10,0:1|0:0|0:1,0:0:0:0:
340,233,245138,1,10,0:0:0:0:
313,147,245319,1,2,0:0:0:0:
329,271,245501,5,10,0:1:0:0:
395,150,245683,1,2,0:0:0:0:
412,313,245865,1,10,0:0:0:0:
303,128,246047,1,2,0:0:0:0:
252,320,246228,2,0,L|145:300,1,93.5000028533936,10|0,0:1|0:0,0:0:0:0:
404,232,246592,2,0,L|511:212,1,93.5000028533936,10|0,0:0|0:0,0:0:0:0:
230,190,246956,5,10,0:1:0:0:
423,144,247137,1,10,0:1:0:0:
156,134,247683,5,10,0:1:0:0:
349,180,247864,1,10,0:1:0:0:
93,204,248228,6,0,P|147:227|249:169,1,140.25000428009,12|0,0:1|0:0,0:0:0:0:
248,176,248592,1,0,0:0:0:0:
179,338,248774,1,10,0:1:0:0:
156,134,248956,1,10,0:1:0:0:
467,204,249683,6,0,B|419:191|419:191|313:224,1,140.25000428009,4|0,0:1|0:0,0:0:0:0:
292,235,250047,1,10,0:1:0:0:
385,56,250228,1,10,0:1:0:0:
411,275,250410,1,10,0:1:0:0:
265,188,251319,5,14,0:1:0:0:
344,332,251501,2,0,P|359:282|376:224,1,101.999996887207,0|8,0:0|0:0,0:0:0:0:
308,83,251865,1,2,0:0:0:0:
163,200,252047,2,0,P|217:193|282:185,1,101.999996887207,10|0,0:1|0:0,0:0:0:0:
512,301,252410,2,0,P|443:244|382:263,1,152.999995330811,10|0,0:0|0:0,0:0:0:0:
344,332,252774,5,10,0:1:0:0:
205,245,252956,1,0,0:0:0:0:
205,245,253047,1,0,0:0:0:0:
205,245,253138,2,0,P|186:295|178:350,1,101.999996887207,10|0,0:0|0:0,0:0:0:0:
387,258,253501,2,0,P|376:208|349:152,1,101.999996887207,10|0,0:1|0:0,0:0:0:0:
178,342,253865,2,0,P|230:362|282:370,1,101.999996887207,10|2,0:0|0:0,0:0:0:0:
436,316,254228,5,8,0:1:0:0:
355,161,254410,1,2,0:0:0:0:
205,245,254592,2,0,L|314:229,1,101.999996887207,10|0,0:0|0:0,0:0:0:0:
491,190,254956,2,0,P|402:197|350:153,1,152.999995330811,10|0,0:1|0:0,0:0:0:0:
332,128,255319,1,10,0:0:0:0:
296,264,255501,1,2,0:0:0:0:
344,52,255683,5,10,0:1:0:0:
220,216,255865,1,10,0:1:0:0:
384,148,256047,1,10,0:0:0:0:
216,72,256228,1,2,0:1:0:0:
200,292,256410,5,10,0:1:0:0:
312,148,256592,1,10,0:1:0:0:
136,236,256774,1,10,0:0:0:0:
320,312,256956,1,2,0:0:0:0:
192,144,257138,5,14,0:1:0:0:
32,232,257319,2,0,L|148:260,1,101.999996887207,0|8,0:0|0:0,0:0:0:0:
292,125,257683,1,2,0:0:0:0:
292,125,257865,2,0,L|183:145,1,101.999996887207,10|0,0:1|0:0,0:0:0:0:
204,380,258228,2,0,L|248:224,1,152.999995330811,10|0,0:0|0:0,0:0:0:0:
256,204,258592,5,10,0:1:0:0:
384,304,258774,1,0,0:0:0:0:
384,304,258865,1,0,0:0:0:0:
384,304,258956,2,0,P|440:320|496:308,1,101.999996887207,10|0,0:0|0:0,0:0:0:0:
432,136,259319,2,0,P|376:120|320:132,1,101.999996887207,10|0,0:1|0:0,0:0:0:0:
166,183,259683,2,0,L|186:295,1,101.999996887207,10|2,0:0|0:0,0:0:0:0:
296,212,260047,5,8,0:1:0:0:
160,156,260228,1,2,0:0:0:0:
86,307,260410,2,0,P|137:291|190:283,1,101.999996887207,10|2,0:0|0:1,0:0:0:0:
395,235,260774,2,0,P|344:226|295:211,1,101.999996887207,10|0,0:1|0:1,0:0:0:0:
156,40,261138,2,0,P|170:88|179:139,1,101.999996887207,10|2,0:0|0:0,0:0:0:0:
160,320,261501,5,10,0:1:0:0:
272,200,261683,1,2,0:0:0:0:
84,104,261865,2,0,L|64:224,1,101.999996887207,10|2,0:0|0:0,0:0:0:0:
296,216,262228,5,10,0:1:0:0:
179,139,262410,1,2,0:0:0:0:
100,340,262592,1,10,0:0:0:0:
200,240,262774,1,2,2:0:0:0:
395,235,262956,5,14,0:1:0:0:
272,200,263138,2,0,P|220:208|168:228,1,101.999996887207,2|8,0:0|0:0,0:0:0:0:
296,332,263501,1,2,0:0:0:0:
408,200,263683,2,0,P|400:148|380:96,1,101.999996887207,8|2,0:1|0:0,0:0:0:0:
272,200,264047,2,0,L|243:363,1,152.999995330811,10|0,0:0|0:0,0:0:0:0:
236,384,264410,5,10,0:1:0:0:
160,280,264592,1,0,0:0:0:0:
160,280,264683,1,0,0:0:0:0:
160,280,264774,1,10,0:0:0:0:
344,248,264956,1,0,0:0:0:0:
216,96,265138,2,0,P|231:147|248:204,1,101.999996887207,10|0,0:1|0:0,0:0:0:0:
130,377,265501,2,0,P|144:328|159:279,1,101.999996887207,10|2,0:0|0:0,0:0:0:0:
312,120,265865,5,8,0:1:0:0:
368,292,266047,1,2,0:0:0:0:
232,200,266228,1,10,0:0:0:0:
416,116,266410,1,0,0:0:0:0:
416,116,266501,1,0,0:0:0:0:
416,116,266592,2,0,P|400:188|380:272,1,152.999995330811,10|0,0:1|0:0,0:0:0:0:
368,292,266956,2,0,P|420:278|484:264,1,101.999996887207,10|2,0:0|0:0,0:0:0:0:
208,180,267319,5,10,0:1:0:0:
248,328,267501,1,10,0:1:0:0:
216,96,267683,1,10,0:0:0:0:
160,280,267865,1,2,0:0:0:0:
288,144,268047,5,10,0:1:0:0:
88,312,268228,1,10,0:1:0:0:
120,128,268410,1,10,0:0:0:0:
256,356,268592,1,2,0:0:0:0:
280,232,268774,2,0,P|229:237|168:252,1,101.999996887207,12|0,0:1|0:0,0:0:0:0:
0,352,269138,6,0,B|104:332|72:396|184:372,1,191.250007295609,10|0,0:0|0:0,0:0:0:0:
256,348,269501,1,10,0:1:0:0:
160,256,269683,1,2,0:0:0:0:
305,133,269865,2,0,P|292:184|277:241,1,101.999996887207,8|0,0:0|0:0,0:0:0:0:
68,344,270228,6,0,P|48:256|32:176,1,152.999995330811,10|0,0:1|0:0,0:0:0:0:
24,160,270592,1,10,0:0:0:0:
133,281,270774,1,0,0:0:0:0:
205,152,270956,2,0,P|267:137|323:132,1,101.999996887207,10|0,0:1|0:0,0:0:0:0:
464,240,271319,2,0,P|413:233|364:220,1,101.999996887207,10|2,0:0|0:0,0:0:0:0:
132,120,271683,5,8,0:1:0:0:
296,176,271865,1,2,0:0:0:0:
188,328,272047,2,0,L|220:220,1,101.999996887207,8|2,0:0|0:0,0:0:0:0:
216,230,272319,1,0,0:0:0:0:
216,230,272410,1,10,0:1:0:0:
304,316,272592,1,0,0:0:0:0:
88,384,272774,2,0,P|76:328|64:276,1,101.999996887207,10|2,0:0|0:0,0:0:0:0:
144,84,273138,5,12,0:1:0:0:
188,328,273319,1,2,0:0:0:0:
272,144,273501,1,10,0:0:0:0:
60,192,273683,1,2,0:0:0:0:
304,316,273865,1,10,0:1:0:0:
184,160,274047,1,10,0:1:0:0:
88,384,274228,1,10,0:1:0:0:
212,320,274410,6,0,B|308:300|280:368|396:344,1,191.249994163513,10|0,0:1|0:0,0:0:0:0:
480,296,274956,6,0,P|388:308|340:268,1,152.999995330811,10|0,0:1|0:0,0:0:0:0:
320,240,275319,6,0,L|336:172,1,50.9999984436036,10|0,0:1|0:0,0:0:0:0:
496,216,275501,2,0,L|500:280,1,50.9999984436036,0|0,0:0|0:0,0:0:0:0:
395,344,275683,6,0,B|399:292|399:292|415:244|415:244|411:204|411:204|420:152,1,191.250007295609,6|0,0:3|0:0,0:0:0:0:
424,116,276047,5,14,0:1:0:0:
305,266,276228,2,0,B|322:205|322:205|314:166,1,101.999996887207,2|8,0:0|0:0,0:0:0:0:
187,68,276592,1,2,0:0:0:0:
142,224,276774,2,0,L|251:206,1,101.999996887207,10|2,0:1|0:0,0:0:0:0:
63,146,277138,2,0,P|44:208|74:303,1,152.999995330811,10|0,0:0|0:0,0:0:0:0:
129,348,277501,6,0,L|235:329,1,101.999996887207,10|0,0:1|0:0,0:0:0:0:
370,222,277865,2,0,L|264:203,1,101.999996887207,10|0,0:0|0:0,0:0:0:0:
243,197,278138,1,0,0:0:0:0:
217,191,278228,1,10,0:1:0:0:
322,125,278410,1,0,0:0:0:0:
433,280,278592,2,0,P|451:230|435:167,1,101.999996887207,10|2,0:0|0:0,0:0:0:0:
276,27,278956,6,0,B|240:67|240:67|242:118,1,101.999996887207,14|0,0:1|0:0,0:0:0:0:
370,222,279319,1,10,0:0:0:0:
359,49,279501,1,0,0:0:0:0:
359,49,279592,1,0,0:0:0:0:
359,49,279683,1,10,0:1:0:0:
292,208,279865,1,0,0:0:0:0:
422,139,280047,2,0,L|305:124,1,101.999996887207,10|0,0:0|0:0,0:0:0:0:
71,211,280410,6,0,P|148:214|207:154,1,152.999995330811,10|0,0:1|0:0,0:0:0:0:
158,94,280774,2,0,P|149:40|149:32,1,50.9999984436036,10|0,0:0|0:0,0:0:0:0:
253,45,280956,2,0,P|250:70|244:95,1,50.9999984436036,0|0,0:0|0:0,0:0:0:0:
201,165,281138,2,0,L|210:272,1,101.999996887207,10|0,0:1|0:0,0:0:0:0:
415,316,281501,1,10,0:0:0:0:
433,274,281591,1,0,0:0:0:0:
431,228,281682,1,2,0:0:0:0:
409,188,281773,1,0,0:0:0:0:
372,162,281865,5,14,0:1:0:0:
247,342,282047,2,0,P|182:347|142:304,1,101.999996887207,2|8,0:0|0:0,0:0:0:0:
202,144,282410,1,2,0:0:0:0:
340,289,282592,2,0,P|405:294|445:251,1,101.999996887207,10|2,0:1|0:0,0:0:0:0:
305,95,282956,2,0,P|279:157|276:264,1,152.999995330811,10|0,0:0|0:0,0:0:0:0:
194,268,283319,6,0,L|77:235,1,101.999996887207,14|0,0:1|0:0,0:0:0:0:
14,139,283683,2,0,P|68:129|83:131,1,50.9999984436036,10|0,0:0|0:0,0:0:0:0:
152,154,283865,2,0,P|177:151|201:143,1,50.9999984436036,0|0,0:0|0:0,0:0:0:0:
246,63,284047,2,0,P|289:110|295:153,1,101.999996887207,10|0,0:1|0:0,0:0:0:0:
295,296,284410,1,10,0:0:0:0:
334,306,284500,1,0,0:0:0:0:
374,299,284591,1,2,0:0:0:0:
407,276,284682,1,0,0:0:0:0:
429,242,284774,6,0,P|430:183|415:132,1,101.999996887207,14|0,0:1|0:0,0:0:0:0:
246,63,285138,2,0,P|245:127|251:143,1,50.9999984436036,10|0,0:0|0:0,0:0:0:0:
278,198,285319,1,0,0:0:0:0:
163,72,285501,2,0,P|90:72|57:90,1,101.999996887207,10|0,0:1|0:0,0:0:0:0:
111,252,285865,2,0,L|126:137,1,101.999996887207,10|0,0:0|0:0,0:0:0:0:
24,290,286228,5,10,0:1:0:0:
57,103,286410,1,2,0:0:0:0:
120,271,286592,1,10,0:0:0:0:
173,76,286774,1,2,0:0:0:0:
43,194,286956,1,10,0:1:0:0:
102,35,287138,1,2,0:0:0:0:
145,159,287319,2,0,P|198:160|248:131,1,101.999996887207,10|0,0:0|0:0,0:0:0:0:
360,21,287683,5,14,0:1:0:0:
315,218,287865,2,0,L|339:336,1,101.999996887207,2|8,0:0|0:0,0:0:0:0:
303,85,288228,1,2,0:0:0:0:
408,244,288410,2,0,L|432:362,1,101.999996887207,10|2,0:1|0:0,0:0:0:0:
389,145,288774,2,0,P|331:181|217:147,1,152.999995330811,10|0,0:0|0:0,0:0:0:0:
182,124,289138,6,0,L|69:123,1,101.999996887207,10|0,0:1|0:0,0:0:0:0:
0,256,289501,1,10,0:0:0:0:
29,227,289591,1,0,0:0:0:0:
65,209,289682,1,0,0:0:0:0:
105,204,289773,1,0,0:0:0:0:
145,212,289865,2,0,P|207:214|255:187,1,101.999996887207,10|0,0:1|0:0,0:0:0:0:
214,325,290228,1,10,0:0:0:0:
182,124,290410,1,2,0:0:0:0:
301,264,290592,6,0,P|331:202|226:109,2,203.999993774414,14|10|10,0:1|0:0|0:1,0:0:0:0:
242,197,291501,1,0,0:0:0:0:
363,76,291683,2,0,P|395:124|398:136,1,50.9999984436036,10|0,0:0|0:0,0:0:0:0:
405,201,291865,2,0,P|399:253|392:271,1,50.9999984436036,0|0,0:0|0:0,0:0:0:0:
334,342,292047,6,0,P|283:348|235:319,1,101.999996887207,10|0,0:1|0:0,0:0:0:0:
156,216,292410,1,10,0:0:0:0:
121,194,292500,1,0,0:0:0:0:
81,190,292591,1,0,0:0:0:0:
43,204,292682,1,0,0:0:0:0:
15,233,292774,2,0,L|8:340,1,101.999996887207,10|0,0:1|0:0,0:0:0:0:
219,280,293138,2,0,P|241:234|226:161,1,101.999996887207,10|2,0:0|0:0,0:0:0:0:
171,46,293501,5,14,0:1:0:0:
237,184,293683,2,0,L|344:165,1,101.999996887207,2|8,0:0|0:0,0:0:0:0:
216,24,294047,1,2,0:0:0:0:
150,162,294229,2,0,L|43:143,1,101.999996887207,10|2,0:1|0:0,0:0:0:0:
248,159,294592,2,0,L|355:140,1,101.999996887207,10|0,0:0|0:0,0:0:0:0:
405,22,294956,6,0,P|379:102|467:186,1,203.999993774414,10|10,0:1|0:0,0:0:0:0:
461,91,295501,1,0,0:0:0:0:
397,251,295683,2,0,L|281:227,1,101.999996887207,10|0,0:1|0:0,0:0:0:0:
207,92,296047,1,10,0:0:0:0:
178,286,296228,1,2,0:0:0:0:
32,155,296410,6,0,P|97:143|149:159,1,101.999996887207,12|2,0:1|0:0,0:0:0:0:
185,309,296774,1,10,0:0:0:0:
85,225,296956,1,2,0:0:0:0:
237,174,297138,1,10,0:1:0:0:
139,35,297319,2,0,P|122:98|142:153,1,101.999996887207,2|8,0:0|0:0,0:0:0:0:
246,210,297683,1,2,0:0:0:0:
203,89,297865,5,10,0:0:0:0:
173,272,298047,1,10,0:1:0:0:
173,272,298138,1,0,0:0:0:0:
173,272,298228,1,10,0:0:0:0:
131,138,298410,1,8,0:1:0:0:
104,336,298592,1,10,0:0:0:0:
246,210,298774,2,0,L|363:204,1,101.999996887207,10|10,0:1|0:0,0:0:0:0:
484,293,299138,1,10,0:1:0:0:
396,114,299319,6,0,P|383:166|464:285,1,203.999993774414,10|10,0:1|0:1,0:0:0:0:
470,181,299865,1,0,0:0:0:0:
333,290,300047,2,0,L|226:283,1,85,10|2,0:1|0:0,0:0:0:0:
45,150,300410,2,0,L|152:143,1,85,10|2,0:1|0:0,0:0:0:0:
256,192,300774,5,12,0:1:0:0:
256,192,300865,12,0,308410,0:0:0:0:
