osu file format v14

[General]
AudioFilename: audio.mp3
AudioLeadIn: 0
PreviewTime: 84950
Countdown: 0
SampleSet: Soft
StackLeniency: 0.7
Mode: 0
LetterboxInBreaks: 0
WidescreenStoryboard: 1

[Editor]
DistanceSpacing: 1
BeatDivisor: 4
GridSize: 8
TimelineZoom: 1.2

[Metadata]
Title:Remote Control
TitleUnicode:リモコン
Artist:Saiya
ArtistUnicode:祭屋
Creator:Linada
Version:Take Control!
Source:
Tags:Arrival Sotarks Kalibe Jesus-P じーざすP Giga Official Rimokon Wonderful*Opportunity Kagamine Rin Len Glider
BeatmapID:1221602
BeatmapSetID:530445

[Difficulty]
HPDrainRate:6.2
CircleSize:3.8
OverallDifficulty:9
ApproachRate:9.2
SliderMultiplier:1.75
SliderTickRate:1

[Events]
//Background and Video events
0,0,"remotec.jpg",0,0
//Break Periods
//Storyboard Layer 0 (Background)
//Storyboard Layer 1 (Fail)
//Storyboard Layer 2 (Pass)
//Storyboard Layer 3 (Foreground)
//Storyboard Sound Samples

[TimingPoints]
1138,363.636363636364,4,2,1,55,1,0
4047,-133.333333333333,4,2,1,55,0,0
5524,-133.333333333333,4,1,0,55,0,0
5683,-133.333333333333,4,2,1,55,0,0
11342,-133.333333333333,4,1,0,55,0,0
11501,-133.333333333333,4,2,1,55,0,0
15683,-100,4,2,1,55,0,0
16410,-100,4,2,1,55,0,0
25865,-100,4,2,1,55,0,0
27319,-90.9090909090909,4,2,1,70,0,0
33138,-83.3333333333333,4,2,1,70,0,0
38592,-133.333333333333,4,2,1,70,0,0
38865,-133.333333333333,4,2,1,5,0,0
38956,-90.9090909090909,4,2,1,70,0,0
50592,-100,4,2,1,70,0,0
62228,-90.9090909090909,4,2,1,70,0,0
73865,-100,4,2,1,70,0,0
80774,-83.3333333333333,4,2,1,70,0,0
83865,-100,4,2,1,70,0,0
85501,-83.3333333333333,4,2,1,70,0,1
103319,-66.6666666666667,4,2,1,70,0,1
103683,-83.3333333333333,4,2,1,70,0,1
108047,-100,4,2,1,60,0,1
108774,-83.3333333333333,4,2,1,70,0,0
113683,-133.333333333333,4,2,1,70,0,0
113956,-133.333333333333,4,2,1,5,0,0
114047,-83.3333333333333,4,2,1,70,0,0
126228,-100,4,2,1,70,0,0
137865,-90.9090909090909,4,2,1,70,0,0
149501,-100,4,2,1,70,0,0
158229,-100,4,2,1,70,0,0
160774,-83.3333333333333,4,2,1,70,0,0
160797,-83.3333333333333,4,1,0,70,0,0
160956,-83.3333333333333,4,2,1,70,0,0
161138,-83.3333333333333,4,2,1,70,0,1
178956,-66.6666666666667,4,2,1,70,0,1
179319,-83.3333333333333,4,2,1,70,0,1
184047,-100,4,2,1,70,0,1
184410,-133.333333333333,4,2,1,60,0,0
190228,-117.647058823529,4,2,1,70,0,0
192774,-90.9090909090909,4,2,1,70,0,0
193138,-117.647058823529,4,2,1,70,0,0
193865,-90.9090909090909,4,2,1,70,0,0
194228,-117.647058823529,4,2,1,70,0,0
196047,-105.263157894737,4,2,1,70,0,0
219319,-105.263157894737,4,2,1,70,0,0
219365,-100,4,2,1,20,0,0
220774,-95.2380952380954,4,2,1,70,0,0
220819,-95.2380952380954,4,2,1,25,0,0
222228,-86.9565217391304,4,2,1,70,0,0
222274,-86.9565217391304,4,2,1,30,0,0
222956,-80,4,2,1,70,0,0
223001,-80,4,2,1,35,0,0
223683,-74.0740740740741,4,2,1,70,0,0
223728,-74.0740740740741,4,2,1,40,0,0
224047,-68.9655172413793,4,2,1,70,0,0
224092,-68.9655172413793,4,2,1,50,0,0
224410,-68.9655172413793,4,2,1,50,0,0
224592,-68.9655172413793,4,2,1,60,0,0
224774,-68.9655172413793,4,2,1,50,0,0
224956,-68.9655172413793,4,2,1,60,0,0
225138,-68.9655172413793,4,2,1,90,0,0
225865,-90.9090909090909,4,2,1,50,0,0
226138,-68.9655172413793,4,2,1,5,0,0
226228,-58.8235294117647,4,2,1,60,0,0
226501,-100,4,2,1,5,0,0
226592,-90.9090909090909,4,2,1,70,0,0
232410,-83.3333333333333,4,2,1,70,0,0
233865,-90.9090909090909,4,2,1,70,0,0
237683,-83.3333333333333,4,2,1,70,0,0
238228,-100,4,2,1,70,0,0
246228,-83.3333333333333,4,2,1,70,0,0
246956,-100,4,2,1,60,0,0
248228,-83.3333333333333,4,2,1,60,0,0
249683,-74.0740740740741,4,2,1,70,0,0
251319,-83.3333333333333,4,2,1,80,0,1
269138,-66.6666666666667,4,2,1,80,0,1
269501,-83.3333333333333,4,2,1,80,0,1
274410,-83.3333333333333,4,2,1,80,0,0
274956,-83.3333333333333,4,2,1,70,0,0
275229,-100,4,2,1,5,0,0
275319,-83.3333333333333,4,2,1,70,0,0
275592,-100,4,2,1,5,0,0
275683,-66.6666666666667,4,2,1,70,0,0
275956,-100,4,2,1,5,0,0
276047,-83.3333333333333,4,2,1,80,0,1
287319,-100,4,2,1,80,0,1
287683,-83.3333333333333,4,2,1,80,0,1
299319,-83.3333333333333,4,2,1,70,0,1
300047,-100,4,2,1,70,0,1
300774,-100,4,2,1,100,0,0
300865,-83.3333333333333,4,2,1,70,0,0
302228,-83.3333333333333,4,2,1,60,0,0
303683,-83.3333333333333,4,2,1,50,0,0
305138,-83.3333333333333,4,2,1,40,0,0
306592,-83.3333333333333,4,2,1,30,0,0
308047,-83.3333333333333,4,2,1,20,0,0
308410,-83.3333333333333,4,2,1,10,0,0

[Colours]
Combo1 : 255,170,130
Combo2 : 255,255,0
Combo3 : 192,192,192
Combo4 : 125,190,255

[HitObjects]
113,225,4047,6,0,P|175:237|206:293,1,131.25000500679,0|8,0:0|0:0,0:0:0:0:
206,294,4592,1,0,0:0:0:0:
323,204,4774,2,0,L|191:211,1,131.25000500679,0|8,0:0|0:0,0:0:0:0:
191,211,5319,1,0,0:0:0:0:
60,97,5501,6,0,B|124:81|124:81|186:100,1,131.25000500679,0|8,0:0|0:0,0:0:0:0:
186,100,6047,1,0,0:0:0:0:
65,258,6228,2,0,P|74:193|62:129,1,131.25000500679,0|8,0:0|0:1,0:0:0:0:
126,51,6774,1,8,0:1:0:0:
178,187,6956,6,0,P|240:175|271:119,1,131.25000500679,0|8,0:0|0:0,0:0:0:0:
271,118,7501,1,0,0:0:0:0:
388,208,7683,2,0,L|256:201,1,131.25000500679,0|8,0:0|0:0,0:0:0:0:
256,201,8228,1,0,0:0:0:0:
414,127,8410,6,0,P|443:141|465:165,1,65.6250025033952,0|0,0:0|0:0,0:0:0:0:
373,270,8774,2,0,P|374:237|387:207,1,65.6250025033952,8|0,0:0|0:0,0:0:0:0:
410,344,9138,2,0,P|378:352|346:348,1,65.6250025033952,0|0,0:0|0:0,0:0:0:0:
268,292,9501,1,8,0:1:0:0:
268,292,9683,1,8,0:1:0:0:
199,96,9865,6,0,P|195:161|186:226,1,131.25000500679,0|8,0:0|0:0,0:0:0:0:
186,226,10410,1,0,0:0:0:0:
33,160,10592,2,0,L|163:150,1,131.25000500679,0|8,0:0|0:0,0:0:0:0:
163,150,11138,1,0,0:0:0:0:
250,287,11319,6,0,P|190:311|130:289,1,131.25000500679,0|8,0:0|0:0,0:0:0:0:
130,289,11865,1,0,0:0:0:0:
274,210,12047,2,0,P|323:250|326:314,1,131.25000500679,0|8,0:0|0:1,0:0:0:0:
412,376,12592,1,8,0:1:0:0:
443,269,12774,6,0,P|436:203|447:139,1,131.25000500679,0|8,0:0|0:0,0:0:0:0:
447,139,13319,1,0,0:0:0:0:
366,56,13501,2,0,B|299:40|299:40|241:64,1,131.25000500679,0|8,0:0|0:0,0:0:0:0:
241,64,14047,1,0,0:0:0:0:
191,231,14228,6,0,L|256:236,1,65.6250025033952,0|0,0:0|0:0,0:0:0:0:
376,122,14592,2,0,L|310:127,1,65.6250025033952,8|0,0:0|0:0,0:0:0:0:
137,158,14956,2,0,P|103:213|114:277,1,131.25000500679,0|8,0:0|0:1,0:0:0:0:
193,336,15501,1,8,0:1:0:0:
277,215,15683,5,10,0:1:0:0:
338,364,15865,1,10,0:1:0:0:
423,253,16047,1,10,0:0:0:0:
423,253,16138,1,0,0:0:0:0:
423,253,16228,2,0,L|379:257,1,43.75,2|2,0:0|0:0,0:0:0:0:
300,192,16410,2,0,P|256:186|212:186,1,87.5,2|8,0:0|0:1,0:0:0:0:
113,44,16774,2,0,P|118:87|118:131,1,87.5,8|2,0:0|0:0,0:0:0:0:
104,158,17047,1,2,0:0:0:0:
94,187,17138,6,0,P|88:230|88:274,1,87.5,10|0,0:1|0:0,0:0:0:0:
150,384,17501,1,10,0:0:0:0:
150,384,17683,1,2,0:0:0:0:
265,222,17865,2,0,L|177:228,1,87.5,2|0,0:0|0:0,0:0:0:0:
278,340,18228,2,0,L|365:346,1,87.5,8|8,0:1|0:1,0:0:0:0:
428,210,18592,5,10,0:1:0:0:
328,128,18774,1,0,0:0:0:0:
484,43,18956,2,0,P|441:49|397:46,1,87.5,8|2,0:0|0:0,0:0:0:0:
367,41,19228,1,2,0:0:0:0:
338,29,19319,2,0,P|294:23|251:25,1,87.5,2|8,0:0|0:1,0:0:0:0:
181,179,19683,1,8,0:0:0:0:
311,120,19865,1,0,0:0:0:0:
137,11,20047,6,0,P|131:54|135:97,1,87.5,10|0,0:1|0:0,0:0:0:0:
214,321,20410,2,0,P|218:277|212:234,1,87.5,8|2,0:0|0:0,0:0:0:0:
199,206,20683,1,2,0:0:0:0:
181,179,20774,2,0,P|137:184|94:180,1,87.5,2|0,0:0|0:0,0:0:0:0:
0,106,21138,1,8,0:1:0:0:
135,97,21319,1,8,0:1:0:0:
64,285,21501,6,0,P|57:241|68:199,1,87.5,10|2,0:1|0:0,0:0:0:0:
203,62,21865,1,10,0:0:0:0:
207,71,21956,1,2,0:0:0:0:
211,82,22047,1,2,0:0:0:0:
213,93,22138,1,2,0:0:0:0:
214,103,22228,2,0,P|258:101|301:106,1,87.5,2|8,0:0|0:1,0:0:0:0:
447,194,22592,2,0,P|403:191|359:196,1,87.5,8|0,0:0|0:0,0:0:0:0:
422,39,22956,6,0,P|433:103|426:168,1,131.25,10|0,0:1|0:0,0:0:0:0:
447,194,23319,2,0,P|442:237|444:281,1,87.5,8|2,0:0|0:0,0:0:0:0:
434,310,23592,1,2,0:0:0:0:
418,336,23683,2,0,L|331:347,1,87.5,2|0,0:0|0:0,0:0:0:0:
202,225,24047,2,0,L|288:236,1,87.5,8|8,0:1|0:1,0:0:0:0:
144,285,24410,6,0,P|120:204|177:143,1,175,2|10,0:0|0:0,0:0:0:0:
304,191,24956,1,0,0:0:0:0:
296,203,25047,1,0,0:0:0:0:
286,213,25138,2,0,P|244:226|201:224,1,87.5,2|8,0:0|0:1,0:0:0:0:
68,329,25501,2,0,P|109:316|153:318,1,87.5,10|0,0:0|0:0,0:0:0:0:
305,362,25865,5,0,0:0:0:0:
177,143,26228,1,0,0:0:0:0:
233,307,26592,1,0,0:0:0:0:
344,136,26956,5,0,0:0:0:0:
152,152,27138,1,0,0:0:0:0:
306,57,27319,6,0,P|353:54|399:68,1,96.250002937317,10|0,0:1|0:0,0:0:0:0:
465,132,27592,1,0,0:0:0:0:
448,161,27683,2,0,B|436:209|436:209|446:254,1,96.250002937317,2|8,0:0|0:1,0:0:0:0:
408,337,27956,1,8,0:1:0:0:
391,366,28047,2,0,L|294:362,1,96.250002937317,10|8,0:0|0:1,0:0:0:0:
34,265,28410,1,2,0:0:0:0:
72,236,28500,1,2,0:0:0:0:
119,232,28591,1,2,0:0:0:0:
162,252,28682,1,2,0:0:0:0:
189,291,28774,6,0,L|187:194,1,96.250002937317,10|10,0:1|0:1,0:0:0:0:
280,10,29138,2,0,B|290:82|290:82|275:158,1,144.375004405975,2|0,0:0|0:0,0:0:0:0:
294,180,29501,2,0,P|287:227|299:273,1,96.250002937317,10|0,0:0|0:0,0:0:0:0:
255,358,29774,1,8,0:1:0:0:
226,345,29865,2,0,B|183:330|183:330|130:337,1,96.250002937317,8|8,0:1|0:0,0:0:0:0:
0,143,30228,6,0,L|94:126,1,96.250002937317,10|0,0:1|0:0,0:0:0:0:
208,202,30592,2,0,L|209:250,1,48.1250014686585,2|0,0:0|0:0,0:0:0:0:
108,310,30774,2,0,L|106:261,1,48.1250014686585,10|0,0:1|0:0,0:0:0:0:
97,94,30956,1,10,0:0:0:0:
239,204,31138,2,0,P|262:207|286:207,1,48.1250014686585,10|0,0:1|0:0,0:0:0:0:
356,130,31319,1,2,0:0:0:0:
389,116,31409,1,2,0:0:0:0:
424,113,31500,1,2,0:0:0:0:
459,122,31591,1,2,0:0:0:0:
478,142,31682,5,10,0:1:0:0:
397,279,31865,1,2,0:0:0:0:
397,279,32047,2,0,L|405:183,1,96.250002937317,2|10,0:0|0:1,0:0:0:0:
399,149,32319,1,0,0:0:0:0:
389,116,32410,1,10,0:0:0:0:
286,207,32592,1,10,0:1:0:0:
464,116,32774,1,2,0:0:0:0:
299,86,32956,1,0,0:0:0:0:
289,340,33138,6,0,L|296:236,1,104.999996795654,2|2,0:0|0:0,0:0:0:0:
286,207,33410,1,2,0:0:0:0:
270,179,33501,1,10,0:1:0:0:
377,275,33683,2,0,L|374:327,1,52.4999983978272,2|0,0:0|0:0,0:0:0:0:
261,362,33865,2,0,P|213:379|163:368,1,104.999996795654,10|0,0:1|0:0,0:0:0:0:
21,184,34228,1,10,0:1:0:0:
60,150,34318,1,2,0:0:0:0:
111,139,34409,1,2,0:0:0:0:
161,154,34500,1,2,0:0:0:0:
197,191,34592,6,0,L|209:295,1,104.999996795654,10|2,0:1|0:0,0:0:0:0:
338,147,34956,1,10,0:1:0:0:
387,354,35138,1,2,0:0:0:0:
290,233,35319,6,0,P|315:243|341:246,1,52.4999983978272,10|0,0:1|0:0,0:0:0:0:
490,268,35501,2,0,P|463:271|439:280,1,52.4999983978272,0|0,0:0|0:0,0:0:0:0:
278,249,35683,1,10,0:1:0:0:
486,347,35865,1,0,0:0:0:0:
270,366,36047,6,0,L|165:363,1,104.999996795654,10|2,0:1|0:0,0:0:0:0:
34,213,36410,2,0,L|46:263,1,52.4999983978272,10|2,0:1|0:0,0:0:0:0:
80,374,36592,1,2,0:0:0:0:
197,191,36774,6,0,P|171:184|145:183,1,52.4999983978272,10|0,0:1|0:0,0:0:0:0:
0,114,36956,2,0,P|26:113|51:106,1,52.4999983978272,2|0,0:0|0:0,0:0:0:0:
205,108,37138,5,10,0:1:0:0:
242,120,37228,1,2,0:0:0:0:
269,147,37319,1,2,0:0:0:0:
282,184,37410,1,2,0:0:0:0:
282,226,37501,5,10,0:1:0:0:
364,66,37683,1,10,0:1:0:0:
197,191,37865,1,10,0:1:0:0:
253,0,38047,1,10,0:1:0:0:
373,193,38228,5,10,0:1:0:0:
154,103,38410,1,10,0:1:0:0:
385,39,38592,6,0,P|433:35|479:51,1,98.4375037550928,2|0,0:1|0:0,0:0:0:0:
512,75,38956,5,14,0:1:0:0:
353,211,39138,2,0,L|352:162,1,48.1250014686585
349,36,39319,1,8,0:0:0:0:
352,238,39501,1,0,0:0:0:0:
232,127,39683,2,0,L|328:133,1,96.250002937317,10|0,0:1|0:0,0:0:0:0:
192,61,40047,1,8,0:0:0:0:
159,95,40137,1,0,0:0:0:0:
153,142,40228,1,0,0:0:0:0:
175,184,40319,1,0,0:0:0:0:
195,227,40410,6,0,P|197:274|179:318,1,96.250002937317,10|0,0:1|0:0,0:0:0:0:
57,190,40774,1,8,0:0:0:0:
232,127,40956,2,0,L|184:117,1,48.1250014686585
34,64,41138,2,0,L|39:160,1,96.250002937317,10|0,0:1|0:0,0:0:0:0:
52,330,41501,1,8,0:0:0:0:
159,207,41683,1,0,0:0:0:0:
297,355,41865,6,0,P|273:357|250:366,1,48.1250014686585,10|0,0:1|0:0,0:0:0:0:
121,285,42047,2,0,P|143:294|167:296,1,48.1250014686585,0|0,0:0|0:0,0:0:0:0:
330,203,42228,2,0,L|281:199,1,48.1250014686585,8|0,0:0|0:0,0:0:0:0:
136,115,42410,2,0,L|184:116,1,48.1250014686585,0|0,0:0|0:0,0:0:0:0:
346,49,42592,5,10,0:1:0:0:
159,207,42774,1,0,0:0:0:0:
221,54,42956,1,8,0:0:0:0:
225,47,43047,1,0,0:0:0:0:
229,40,43138,1,0,0:0:0:0:
233,33,43229,1,0,0:0:0:0:
237,26,43319,5,10,0:1:0:0:
330,203,43501,1,0,0:0:0:0:
136,115,43683,1,8,0:0:0:0:
365,79,43865,1,0,0:0:0:0:
179,221,44047,5,10,0:1:0:0:
353,194,44228,1,0,0:0:0:0:
200,320,44410,2,0,P|247:326|295:324,1,96.250002937317,8|0,0:0|0:0,0:0:0:0:
152,206,44774,6,0,L|55:201,1,96.250002937317,14|0,0:1|0:0,0:0:0:0:
136,115,45047,1,0,0:0:0:0:
169,111,45138,2,0,L|266:106,1,96.250002937317,10|0,0:0|0:0,0:0:0:0:
185,22,45411,1,0,0:0:0:0:
151,18,45501,2,0,L|54:13,1,96.250002937317,10|0,0:1|0:0,0:0:0:0:
55,201,45865,1,10,0:0:0:0:
85,223,45955,1,0,0:0:0:0:
121,235,46046,1,0,0:0:0:0:
158,226,46137,1,0,0:0:0:0:
190,205,46228,6,0,P|235:193|283:200,1,96.250002937317,10|0,0:1|0:0,0:0:0:0:
361,122,46592,1,10,0:0:0:0:
202,76,46774,2,0,L|212:122,1,48.1250014686585
241,280,46956,6,0,P|288:287|334:275,1,96.250002937317,10|0,0:1|0:0,0:0:0:0:
493,230,47319,1,8,0:0:0:0:
376,340,47501,1,0,0:0:0:0:
432,151,47683,6,0,L|426:198,1,48.1250014686585,10|0,0:1|0:0,0:0:0:0:
369,349,47865,2,0,L|363:301,1,48.1250014686585
258,160,48047,2,0,P|261:183|258:207,1,48.1250014686585,8|0,0:0|0:0,0:0:0:0:
217,373,48228,2,0,P|215:349|219:325,1,48.1250014686585,0|0,0:0|0:0,0:0:0:0:
351,182,48410,5,10,0:1:0:0:
148,248,48592,1,0,0:0:0:0:
268,81,48774,1,8,0:0:0:0:
276,80,48865,1,0,0:0:0:0:
284,80,48956,1,0,0:0:0:0:
292,79,49047,1,0,0:0:0:0:
300,79,49137,5,10,0:1:0:0:
109,78,49319,1,10,0:1:0:0:
351,182,49501,1,10,0:1:0:0:
108,261,49683,1,10,0:1:0:0:
208,101,49865,1,10,0:1:0:0:
344,331,50047,5,8,0:0:0:0:
188,111,50228,1,8,0:0:0:0:
456,104,50410,1,8,0:0:0:0:
342,185,50592,5,12,0:1:0:0:
361,57,50774,1,0,0:0:0:0:
335,218,50956,2,0,L|321:304,1,87.5,8|0,0:0|0:0,0:0:0:0:
165,370,51319,1,8,0:1:0:0:
157,227,51501,1,0,0:0:0:0:
265,381,51683,1,8,0:0:0:0:
81,305,51865,1,0,0:0:0:0:
216,138,52047,5,8,0:1:0:0:
256,257,52228,2,0,P|212:262|169:253,1,87.5,0|8,0:0|0:0,0:0:0:0:
95,107,52592,1,0,0:0:0:0:
95,107,52683,1,0,0:0:0:0:
95,107,52774,2,0,L|182:109,1,87.5,8|0,0:1|0:0,0:0:0:0:
340,198,53138,1,8,0:0:0:0:
307,36,53319,1,0,0:0:0:0:
450,197,53501,6,0,L|363:184,1,87.5,8|0,0:1|0:0,0:0:0:0:
194,122,53865,1,8,0:0:0:0:
329,46,54047,1,0,0:0:0:0:
251,271,54228,2,0,L|265:184,1,87.5,8|0,0:1|0:0,0:0:0:0:
232,27,54592,1,8,0:0:0:0:
355,160,54774,1,0,0:0:0:0:
171,145,54956,5,8,0:1:0:0:
317,77,55138,2,0,P|360:69|402:80,1,87.5,0|8,0:0|0:0,0:0:0:0:
369,247,55501,1,0,0:0:0:0:
369,247,55592,1,0,0:0:0:0:
369,247,55683,2,0,L|356:161,1,87.5,8|0,0:1|0:0,0:0:0:0:
485,254,56047,2,0,L|472:340,1,87.5,8|0,0:0|0:0,0:0:0:0:
253,332,56410,5,8,0:1:0:0:
369,247,56592,1,0,0:0:0:0:
230,354,56774,2,0,P|188:365|146:354,1,87.5,8|0,0:0|0:0,0:0:0:0:
51,197,57138,1,8,0:1:0:0:
189,285,57319,1,0,0:0:0:0:
205,136,57501,1,8,0:0:0:0:
87,282,57683,1,0,0:0:0:0:
89,87,57865,5,8,0:1:0:0:
276,177,58047,2,0,P|284:134|273:92,1,87.5,0|8,0:0|0:0,0:0:0:0:
388,244,58410,1,0,0:0:0:0:
388,244,58501,1,0,0:0:0:0:
388,244,58592,2,0,L|301:254,1,87.5,8|0,0:1|0:0,0:0:0:0:
205,136,58956,1,8,0:0:0:0:
373,149,59138,1,0,0:0:0:0:
190,242,59319,6,0,P|183:199|192:157,1,87.5,8|0,0:1|0:0,0:0:0:0:
359,43,59683,1,8,0:0:0:0:
191,56,59865,1,0,0:0:0:0:
373,149,60046,2,0,P|380:106|371:63,1,87.5,8|0,0:1|0:0,0:0:0:0:
191,154,60410,1,8,0:0:0:0:
273,0,60592,1,0,0:0:0:0:
280,210,60774,5,8,0:1:0:0:
161,150,60956,1,0,0:0:0:0:
126,145,61047,1,0,0:0:0:0:
92,139,61137,1,8,0:0:0:0:
264,231,61319,2,0,L|265:187,1,43.75
269,34,61500,1,8,0:1:0:0:
375,307,61683,5,8,0:0:0:0:
262,112,61865,1,8,0:0:0:0:
490,113,62047,1,8,0:0:0:0:
280,210,62228,6,0,L|136:191,1,144.375004405975,12|0,0:1|0:0,0:0:0:0:
103,187,62592,1,10,0:0:0:0:
277,95,62774,1,0,0:0:0:0:
111,19,62956,2,0,P|96:64|103:111,1,96.250002937317,10|0,0:1|0:0,0:0:0:0:
211,292,63319,1,10,0:0:0:0:
217,244,63409,1,0,0:0:0:0:
201,197,63501,2,0,P|182:183|160:175,1,48.1250014686585,2|0,0:0|0:0,0:0:0:0:
122,347,63683,5,10,0:1:0:0:
307,251,63865,1,0,0:0:0:0:
134,257,64047,1,10,0:0:0:0:
264,356,64228,1,0,0:0:0:0:
287,160,64410,1,10,0:1:0:0:
394,323,64592,1,0,0:0:0:0:
218,256,64774,1,10,0:0:0:0:
399,200,64956,1,0,0:0:0:0:
263,138,65138,6,0,L|167:124,1,96.250002937317,10|0,0:1|0:0,0:0:0:0:
365,58,65501,2,0,L|460:44,1,96.250002937317,10|0,0:0|0:0,0:0:0:0:
470,223,65865,2,0,L|326:208,1,144.375004405975,10|0,0:1|0:0,0:0:0:0:
293,216,66228,2,0,L|289:168,1,48.1250014686585,10|0,0:0|0:0,0:0:0:0:
365,58,66410,1,0,0:0:0:0:
470,223,66592,5,10,0:1:0:0:
263,138,66774,1,10,0:1:0:0:
360,330,66956,1,10,0:0:0:0:
490,213,67138,1,2,0:0:0:0:
373,43,67319,2,0,L|385:138,1,96.250002937317,10|0,0:1|0:0,0:0:0:0:
263,315,67683,2,0,L|359:329,1,96.250002937317,10|2,0:0|0:0,0:0:0:0:
188,356,68047,6,0,P|181:285|227:232,1,144.375004405975,12|0,0:1|0:0,0:0:0:0:
259,221,68410,1,10,0:0:0:0:
107,164,68592,1,0,0:0:0:0:
219,27,68774,2,0,L|212:123,1,96.250002937317,10|0,0:1|0:0,0:0:0:0:
95,287,69138,1,10,0:0:0:0:
91,238,69228,1,0,0:0:0:0:
88,190,69319,2,0,L|83:142,1,48.1250014686585,2|0,0:0|0:0,0:0:0:0:
190,41,69501,5,10,0:1:0:0:
259,221,69683,1,0,0:0:0:0:
396,94,69865,2,0,L|299:100,1,96.250002937317,10|0,0:0|0:0,0:0:0:0:
170,246,70228,1,10,0:1:0:0:
348,196,70410,1,0,0:0:0:0:
246,316,70592,2,0,L|258:220,1,96.250002937317,10|0,0:0|0:0,0:0:0:0:
41,126,70956,6,0,P|88:116|135:127,1,96.250002937317,10|0,0:1|0:0,0:0:0:0:
100,333,71319,2,0,L|93:236,1,96.250002937317,10|0,0:0|0:0,0:0:0:0:
264,172,71683,2,0,L|246:316,1,144.375004405975,10|0,0:1|0:0,0:0:0:0:
241,349,72047,1,10,0:0:0:0:
111,210,72228,1,2,0:0:0:0:
275,74,72410,5,10,0:1:0:0:
253,269,72592,1,0,0:0:0:0:
116,82,72774,1,10,0:0:0:0:
264,172,72956,1,2,0:0:0:0:
111,210,73138,1,10,0:1:0:0:
195,18,73319,5,8,0:0:0:0:
125,221,73501,1,8,0:0:0:0:
0,40,73683,1,8,0:0:0:0:
199,119,73865,6,0,B|285:90|283:152|373:115,1,175,12|10,0:1|0:0,0:0:0:0:
460,73,74410,1,0,0:0:0:0:
337,247,74592,2,0,L|324:160,1,87.5,10|0,0:1|0:0,0:0:0:0:
441,218,74956,1,10,0:0:0:0:
355,357,75138,1,2,0:0:0:0:
250,234,75319,6,0,L|336:246,1,87.5,10|0,0:1|0:0,0:0:0:0:
181,320,75683,1,10,0:0:0:0:
130,144,75865,1,2,0:0:0:0:
32,268,76047,2,0,L|118:255,1,87.5,10|0,0:1|0:0,0:0:0:0:
173,69,76410,2,0,P|129:63|87:73,1,87.5,10|0,0:0|0:0,0:0:0:0:
209,163,76774,6,0,L|383:146,1,175,10|8,0:1|0:0,0:0:0:0:
483,261,77319,1,0,0:0:0:0:
483,261,77410,1,0,0:0:0:0:
483,261,77501,2,0,L|396:249,1,87.5,10|0,0:1|0:0,0:0:0:0:
248,126,77865,1,10,0:0:0:0:
418,158,78047,1,0,0:0:0:0:
314,282,78228,6,0,L|328:195,1,87.5,10|0,0:1|0:0,0:0:0:0:
292,37,78592,1,10,0:0:0:0:
199,195,78774,1,2,0:0:0:0:
70,85,78956,2,0,P|113:78|155:86,1,87.5,10|0,0:1|0:0,0:0:0:0:
310,212,79319,2,0,P|266:205|224:213,1,87.5,10|0,0:0|0:0,0:0:0:0:
114,335,79683,6,0,P|121:246|111:159,1,175,10|10,0:1|0:0,0:0:0:0:
236,36,80228,1,0,0:0:0:0:
236,36,80319,1,0,0:0:0:0:
236,36,80410,2,0,P|227:78|230:122,1,87.5,10|0,0:1|0:0,0:0:0:0:
290,300,80774,5,10,0:0:0:0:
319,177,80956,1,2,0:0:0:0:
201,215,81138,1,10,0:1:0:0:
384,256,81319,1,2,0:0:0:0:
191,316,81501,1,10,0:0:0:0:
230,122,81683,1,2,0:0:0:0:
385,289,81865,6,0,P|424:323|466:355,1,104.999996795654,10|0,0:1|0:0,0:0:0:0:
393,71,82228,2,0,P|359:110|327:152,1,104.999996795654,10|0,0:0|0:0,0:0:0:0:
183,331,82592,5,10,0:1:0:0:
135,91,82774,1,10,0:1:0:0:
318,176,83319,5,10,0:1:0:0:
77,228,83501,1,10,0:1:0:0:
222,41,83865,6,0,P|205:140|199:214,1,175,12|2,0:1|0:0,0:0:0:0:
164,320,84410,1,10,0:1:0:0:
127,74,84592,1,10,0:1:0:0:
356,127,85138,5,8,0:1:0:0:
198,214,85319,1,0,0:0:0:0:
329,232,85501,5,14,0:1:0:0:
299,41,85683,2,0,P|284:91|278:143,1,104.999996795654,0|8,0:0|0:0,0:0:0:0:
359,329,86047,1,2,0:0:0:0:
417,189,86228,1,10,0:1:0:0:
273,299,86410,1,0,0:0:0:0:
356,127,86592,2,0,P|403:106|454:111,1,104.999996795654,10|0,0:0|0:0,0:0:0:0:
256,217,86956,6,0,L|153:195,1,104.999996795654,10|0,0:1|0:0,0:0:0:0:
31,116,87319,1,10,0:0:0:0:
204,60,87501,1,0,0:0:0:0:
117,290,87683,2,0,L|123:185,1,104.999996795654,10|0,0:1|0:0,0:0:0:0:
92,24,88047,5,10,0:0:0:0:
257,188,88228,2,0,P|205:197|153:194,1,104.999996795654,2|8,0:0|0:1,0:0:0:0:
299,18,88592,5,2,0:0:0:0:
393,194,88774,2,0,P|341:184|289:187,1,104.999996795654,10|0,0:0|0:0,0:0:0:0:
480,93,89138,2,0,B|472:152|472:152|482:196|482:196|474:248,1,157.499995193482,10|0,0:1|0:0,0:0:0:0:
466,289,89501,1,10,0:0:0:0:
322,335,89683,1,2,0:0:0:0:
153,194,89865,5,10,0:1:0:0:
393,194,90047,1,2,0:0:0:0:
200,301,90228,1,10,0:0:0:0:
193,308,90319,1,0,0:1:0:0:
186,315,90410,1,2,0:1:0:0:
256,78,90592,5,10,0:1:0:0:
329,318,90774,1,10,0:1:0:0:
137,178,90956,1,10,0:0:0:0:
375,178,91138,1,2,0:0:0:0:
186,315,91319,5,14,0:1:0:0:
83,113,91501,2,0,P|136:97|186:112,1,104.999996795654,0|8,0:0|0:0,0:0:0:0:
393,194,91865,1,2,0:0:0:0:
137,178,92047,1,10,0:1:0:0:
306,80,92228,1,0,0:0:0:0:
301,286,92410,2,0,P|291:235|267:189,1,104.999996795654,10|0,0:0|0:0,0:0:0:0:
51,181,92774,6,0,P|101:198|153:194,1,104.999996795654,10|0,0:1|0:0,0:0:0:0:
149,1,93138,2,0,L|115:100,1,104.999996795654,10|0,0:0|0:0,0:0:0:0:
203,363,93501,2,0,L|209:258,1,104.999996795654,10|0,0:1|0:0,0:0:0:0:
319,75,93865,5,10,0:0:0:0:
440,289,94047,2,0,L|335:297,1,104.999996795654,2|8,0:0|0:1,0:0:0:0:
211,90,94410,5,2,0:0:0:0:
400,21,94592,2,0,P|411:71|406:124,1,104.999996795654,10|2,0:0|0:1,0:0:0:0:
335,296,94956,1,10,0:1:0:0:
298,159,95138,1,0,0:1:0:0:
189,264,95319,1,10,0:0:0:0:
361,297,95501,1,2,0:0:0:0:
172,144,95683,5,10,0:1:0:0:
415,106,95865,1,2,0:0:0:0:
266,305,96047,5,10,0:0:0:0:
334,46,96229,1,2,0:0:0:0:
186,244,96411,5,10,0:1:0:0:
430,208,96592,1,2,0:0:0:0:
231,61,96774,5,10,0:0:0:0:
369,291,96956,1,2,0:0:0:0:
334,46,97138,5,14,0:1:0:0:
185,243,97319,2,0,P|133:244|81:238,1,104.999996795654,2|8,0:0|0:0,0:0:0:0:
208,344,97683,1,2,0:0:0:0:
126,161,97865,1,8,0:1:0:0:
277,249,98047,1,2,0:0:0:0:
231,61,98228,2,0,P|225:113|225:165,1,104.999996795654,10|0,0:0|0:0,0:0:0:0:
403,317,98592,6,0,L|299:333,1,104.999996795654,10|0,0:1|0:0,0:0:0:0:
319,134,98956,1,10,0:0:0:0:
460,221,99138,1,0,0:0:0:0:
357,35,99319,2,0,P|306:28|257:45,1,104.999996795654,10|0,0:1|0:0,0:0:0:0:
126,161,99683,5,10,0:0:0:0:
318,239,99865,2,0,L|319:134,1,104.999996795654,2|8,0:0|0:1,0:0:0:0:
446,17,100228,5,2,0:0:0:0:
452,240,100410,2,0,P|400:231|349:240,1,104.999996795654,10|2,0:0|0:0,0:0:0:0:
100,308,100774,2,0,B|160:343|194:286|261:321,1,157.499995193482,8|0,0:1|0:0,0:0:0:0:
290,338,101138,1,10,0:0:0:0:
437,266,101319,1,2,0:0:0:0:
144,239,101501,5,10,0:1:0:0:
392,150,101683,1,10,0:1:0:0:
129,104,101865,1,10,0:0:0:0:
318,239,102047,1,2,0:0:0:0:
326,244,102138,1,2,0:0:0:0:
334,249,102229,5,10,0:1:0:0:
212,32,102410,1,10,0:1:0:0:
225,293,102592,1,10,0:0:0:0:
340,55,102774,1,2,0:0:0:0:
130,233,102956,5,12,0:1:0:0:
392,150,103138,1,0,0:0:0:0:
62,285,103319,6,0,B|15:189|103:197|52:75,1,196.875007510186,10|0,0:0|0:0,0:0:0:0:
22,22,103683,5,10,0:1:0:0:
148,220,103865,1,2,0:0:0:0:
265,29,104047,2,0,L|161:45,1,104.999996795654,8|0,0:0|0:0,0:0:0:0:
339,283,104410,6,0,P|332:231|342:179,1,104.999996795654,10|0,0:1|0:0,0:0:0:0:
407,65,104774,1,10,0:0:0:0:
236,142,104956,1,0,0:0:0:0:
409,235,105138,2,0,P|460:241|512:231,1,104.999996795654,10|0,0:1|0:0,0:0:0:0:
289,52,105501,5,10,0:0:0:0:
193,272,105683,2,0,L|297:258,1,104.999996795654,2|8,0:0|0:1,0:0:0:0:
151,118,106047,5,2,0:0:0:0:
98,285,106228,1,8,0:0:0:0:
17,180,106410,1,2,0:0:0:0:
193,272,106592,5,10,0:1:0:0:
14,260,106774,1,0,0:1:0:0:
218,180,106956,1,10,0:0:0:0:
35,95,107138,1,2,0:0:0:0:
112,304,107319,5,12,0:1:0:0:
202,82,107501,1,2,0:0:0:0:
218,277,107683,5,10,0:0:0:0:
224,66,107865,1,2,0:0:0:0:
306,208,108047,5,10,0:0:0:0:
246,49,108228,1,2,0:0:0:0:
389,142,108410,6,0,P|417:174|429:216,1,87.5,10|0,0:1|0:0,0:0:0:0:
363,327,108774,5,12,0:1:0:0:
477,113,109138,1,8,0:0:0:0:
477,113,109228,2,0,P|424:113|372:108,1,104.999996795654
289,101,109501,1,8,0:1:0:0:
403,222,109683,1,8,0:1:0:0:
266,89,109865,2,0,P|213:93|161:93,1,104.999996795654,8|0,0:0|0:0,0:0:0:0:
22,236,110228,5,0,0:0:0:0:
214,381,110592,1,8,0:0:0:0:
214,381,110683,2,0,P|222:328|235:278,1,104.999996795654
256,197,110955,1,8,0:1:0:0:
119,291,111137,1,8,0:1:0:0:
271,176,111319,2,0,P|263:123|250:73,1,104.999996795654,8|0,0:0|0:0,0:0:0:0:
398,285,111683,5,0,0:0:0:0:
433,54,112047,1,8,0:0:0:0:
433,54,112137,2,0,P|399:95|370:138,1,104.999996795654,0|0,0:0|0:0,0:0:0:0:
303,264,112410,2,0,L|407:256,1,104.999996795654,8|8,0:1|0:1,0:0:0:0:
276,140,112774,1,8,0:0:0:0:
110,308,113138,6,0,P|106:230|90:153,1,157.499995193482,8|0,0:1|0:0,0:0:0:0:
4,223,113501,2,0,P|34:227|56:227,1,52.4999983978272,8|0,0:0|0:0,0:0:0:0:
116,78,113683,6,0,P|67:78|26:104,1,98.4375037550928,0|0,0:0|0:0,0:0:0:0:
90,153,114047,5,8,0:0:0:0:
286,51,114228,1,8,0:0:0:0:
108,39,114410,1,8,0:0:0:0:
272,133,114592,6,0,L|376:122,1,104.999996795654,14|0,0:1|0:0,0:0:0:0:
413,118,114865,1,0,0:0:0:0:
449,115,114956,1,8,0:0:0:0:
364,263,115138,1,0,0:0:0:0:
272,133,115319,1,10,0:1:0:0:
426,204,115501,1,0,0:0:0:0:
283,297,115683,2,0,P|257:300|232:309,1,52.4999983978272,8|0,0:0|0:0,0:0:0:0:
138,195,115865,2,0,P|162:204|188:207,1,52.4999983978272,0|0,0:0|0:0,0:0:0:0:
104,322,116047,6,0,L|0:308,1,104.999996795654,10|0,0:1|0:0,0:0:0:0:
115,169,116410,1,8,0:0:0:0:
208,323,116592,1,0,0:0:0:0:
325,191,116774,2,0,L|221:205,1,104.999996795654,10|0,0:1|0:0,0:0:0:0:
34,233,117138,1,8,0:0:0:0:
94,77,117319,1,0,0:0:0:0:
221,206,117501,6,0,L|210:257,1,52.4999983978272,10|0,0:1|0:0,0:0:0:0:
324,340,117683,2,0,L|312:288,1,52.4999983978272,0|0,0:0|0:0,0:0:0:0:
361,195,117865,2,0,P|387:194|413:198,1,52.4999983978272,8|0,0:0|0:0,0:0:0:0:
506,106,118047,2,0,P|480:110|454:110,1,52.4999983978272
321,4,118228,6,0,L|344:106,1,104.999996795654,10|0,0:1|0:0,0:0:0:0:
382,272,118592,1,10,0:0:0:0:
388,298,118682,1,0,0:0:0:0:
394,324,118773,1,0,0:0:0:0:
221,206,118956,5,10,0:1:0:0:
412,199,119138,1,0,0:0:0:0:
211,115,119319,1,8,0:0:0:0:
312,288,119501,1,0,0:0:0:0:
146,173,119683,6,0,P|94:166|43:179,1,104.999996795654,10|0,0:1|0:0,0:0:0:0:
237,92,120047,2,0,P|288:85|339:98,1,104.999996795654,8|0,0:0|0:0,0:0:0:0:
442,292,120410,6,0,L|339:308,1,104.999996795654,14|0,0:1|0:0,0:0:0:0:
217,282,120683,1,0,0:0:0:0:
209,268,120774,2,0,L|105:252,1,104.999996795654,10|0,0:0|0:0,0:0:0:0:
40,159,121047,1,0,0:0:0:0:
51,147,121138,2,0,L|154:162,1,104.999996795654,10|0,0:1|0:0,0:0:0:0:
301,84,121501,1,10,0:0:0:0:
297,77,121592,1,2,0:0:0:0:
293,70,121683,1,2,0:0:0:0:
289,63,121774,1,2,0:0:0:0:
285,56,121864,5,10,0:1:0:0:
324,284,122047,1,0,0:0:0:0:
184,154,122228,1,10,0:0:0:0:
378,153,122410,1,0,0:0:0:0:
154,162,122592,2,0,L|51:147,1,104.999996795654,10|0,0:1|0:0,0:0:0:0:
310,75,122956,2,0,L|413:59,1,104.999996795654,8|0,0:0|0:0,0:0:0:0:
431,223,123319,6,0,P|381:238|331:224,1,104.999996795654,10|0,0:1|0:0,0:0:0:0:
300,203,123592,1,0,0:0:0:0:
279,172,123683,1,8,0:0:0:0:
195,22,123865,2,0,L|189:74,1,52.4999983978272,0|0,0:0|0:0,0:0:0:0:
173,250,124047,1,10,0:1:0:0:
313,75,124228,1,0,0:0:0:0:
154,162,124410,1,8,0:0:0:0:
118,170,124501,1,0,0:0:0:0:
81,166,124592,1,0,0:0:0:0:
145,341,124774,5,10,0:1:0:0:
331,224,124956,1,10,0:1:0:0:
173,250,125138,1,10,0:1:0:0:
388,305,125319,1,10,0:1:0:0:
237,143,125501,5,10,0:1:0:0:
263,371,125683,1,10,0:1:0:0:
433,216,125865,1,10,0:0:0:0:
445,196,126228,5,12,0:1:0:0:
392,333,126410,1,0,0:0:0:0:
459,174,126592,2,0,L|463:86,1,87.5,8|0,0:0|0:0,0:0:0:0:
257,90,126956,1,8,0:1:0:0:
361,128,127138,1,0,0:0:0:0:
284,11,127319,2,0,P|240:8|200:24,1,87.5,8|0,0:0|0:0,0:0:0:0:
156,177,127683,5,8,0:1:0:0:
70,25,127865,2,0,L|75:112,1,87.5,0|8,0:0|0:0,0:0:0:0:
255,198,128228,1,0,0:0:0:0:
255,198,128319,1,0,0:0:0:0:
255,198,128410,2,0,L|167:198,1,87.5,8|0,0:1|0:0,0:0:0:0:
64,293,128774,1,8,0:0:0:0:
215,289,128956,1,0,0:0:0:0:
50,202,129138,6,0,P|93:196|136:203,1,87.5,8|0,0:1|0:0,0:0:0:0:
301,275,129501,1,8,0:0:0:0:
248,117,129683,1,0,0:0:0:0:
418,251,129865,2,0,P|374:245|331:252,1,87.5,8|0,0:1|0:0,0:0:0:0:
143,358,130228,1,8,0:0:0:0:
281,357,130410,1,0,0:0:0:0:
165,217,130592,5,8,0:1:0:0:
332,155,130774,2,0,P|375:162|418:156,1,87.5,0|8,0:0|0:0,0:0:0:0:
237,30,131138,1,0,0:0:0:0:
237,30,131228,1,0,0:0:0:0:
237,30,131319,2,0,L|247:116,1,87.5,8|0,0:1|0:0,0:0:0:0:
342,280,131683,2,0,L|352:193,1,87.5,8|0,0:0|0:0,0:0:0:0:
366,46,132047,5,8,0:1:0:0:
270,194,132228,1,0,0:0:0:0:
123,66,132410,2,0,P|166:64|210:68,1,87.5,8|0,0:0|0:0,0:0:0:0:
358,156,132774,1,8,0:1:0:0:
172,163,132956,1,0,0:0:0:0:
362,277,133138,1,8,0:0:0:0:
272,120,133319,1,0,0:0:0:0:
344,301,133501,5,8,0:1:0:0:
473,169,133683,2,0,P|429:167|385:171,1,87.5,0|8,0:0|0:0,0:0:0:0:
261,350,134047,1,0,0:0:0:0:
261,350,134138,1,0,0:0:0:0:
261,350,134228,2,0,P|265:306|263:262,1,87.5,8|0,0:1|0:0,0:0:0:0:
196,148,134592,1,8,0:0:0:0:
67,136,134774,1,0,0:0:0:0:
211,31,134956,6,0,L|218:118,1,87.5,8|0,0:1|0:0,0:0:0:0:
286,292,135319,1,8,0:0:0:0:
415,280,135501,1,0,0:0:0:0:
271,175,135683,2,0,L|263:262,1,87.5,8|0,0:1|0:0,0:0:0:0:
386,182,136047,1,8,0:0:0:0:
345,64,136229,1,0,0:0:0:0:
474,150,136410,5,8,0:1:0:0:
278,183,136592,1,0,0:0:0:0:
278,183,136683,1,0,0:0:0:0:
278,182,136774,2,0,P|234:185|191:177,1,87.5,8|8,0:0|0:1,0:0:0:0:
87,89,137138,1,8,0:1:0:0:
240,89,137319,5,8,0:0:0:0:
108,269,137501,1,8,0:0:0:0:
76,78,137683,1,8,0:0:0:0:
213,202,137865,6,0,P|220:273|218:345,1,144.375004405975,12|0,0:1|0:0,0:0:0:0:
216,384,138228,1,10,0:0:0:0:
88,253,138410,2,0,P|111:249|135:248,1,48.1250014686585,2|0,0:0|0:0,0:0:0:0:
253,300,138592,2,0,P|301:302|348:295,1,96.250002937317,10|0,0:1|0:0,0:0:0:0:
384,130,138956,1,8,0:0:0:0:
338,141,139046,1,0,0:0:0:0:
309,180,139138,2,0,P|303:202|303:226,1,48.1250014686585,2|0,0:0|0:0,0:0:0:0:
434,361,139319,5,10,0:1:0:0:
382,216,139501,1,0,0:0:0:0:
253,300,139683,1,10,0:0:0:0:
311,105,139865,1,0,0:0:0:0:
348,295,140047,5,10,0:1:0:0:
212,187,140228,1,0,0:0:0:0:
398,185,140410,2,0,P|445:190|491:204,1,96.250002937317,10|0,0:0|0:0,0:0:0:0:
222,297,140774,6,0,L|239:202,1,96.250002937317,10|0,0:1|0:0,0:0:0:0:
136,37,141138,1,8,0:0:0:0:
144,84,141228,1,0,0:0:0:0:
152,131,141319,2,0,L|150:182,1,48.1250014686585,2|0,0:0|0:0,0:0:0:0:
52,293,141501,2,0,P|66:223|41:156,1,144.375004405975,10|0,0:1|0:0,0:0:0:0:
27,127,141865,2,0,L|74:121,1,48.1250014686585,8|2,0:0|0:0,0:0:0:0:
238,202,142047,1,2,0:0:0:0:
312,62,142228,5,10,0:1:0:0:
173,125,142410,1,10,0:1:0:0:
344,235,142592,2,0,P|355:188|348:141,1,96.250002937317,10|2,0:0|0:0,0:0:0:0:
204,36,142956,1,10,0:1:0:0:
405,71,143138,1,0,0:0:0:0:
268,187,143319,1,10,0:0:0:0:
307,29,143501,1,2,0:0:0:0:
441,184,143683,6,0,P|373:160|302:167,1,144.375004405975,12|0,0:1|0:0,0:0:0:0:
268,187,144047,1,10,0:0:0:0:
189,312,144228,2,0,L|181:264,1,48.1250014686585,2|0,0:0|0:0,0:0:0:0:
161,133,144410,1,10,0:1:0:0:
76,317,144592,1,0,0:0:0:0:
1,207,144774,2,0,L|97:207,1,96.250002937317,10|0,0:0|0:0,0:0:0:0:
239,89,145138,6,0,P|179:51|109:65,1,144.375004405975,10|0,0:1|0:0,0:0:0:0:
86,90,145501,1,10,0:0:0:0:
177,227,145683,1,2,0:0:0:0:
177,227,145774,1,0,0:0:0:0:
177,227,145865,2,0,L|160:132,1,96.250002937317,10|0,0:1|0:0,0:0:0:0:
303,37,146228,2,0,P|319:81|312:128,1,96.250002937317,10|0,0:0|0:0,0:0:0:0:
169,258,146592,6,0,L|264:270,1,96.250002937317,10|0,0:1|0:0,0:0:0:0:
396,148,146956,1,8,0:0:0:0:
348,140,147046,1,0,0:0:0:0:
302,156,147138,2,0,P|287:174|277:196,1,48.1250014686585,2|0,0:0|0:0,0:0:0:0:
356,320,147319,2,0,P|365:273|357:226,1,96.250002937317,10|0,0:1|0:0,0:0:0:0:
237,92,147683,1,10,0:0:0:0:
396,148,147865,1,2,0:0:0:0:
233,193,148047,5,10,0:1:0:0:
345,48,148228,1,8,0:1:0:0:
174,26,148410,1,10,0:0:0:0:
314,135,148592,1,2,0:0:0:0:
155,125,148774,1,10,0:1:0:0:
276,340,148956,5,8,0:0:0:0:
96,276,149138,1,8,0:0:0:0:
317,226,149319,1,8,0:0:0:0:
36,331,149501,6,0,P|16:251|79:197,1,175,12|10,0:1|0:0,0:0:0:0:
183,272,150047,1,0,0:0:0:0:
183,272,150228,2,0,L|96:276,1,87.5,10|0,0:1|0:0,0:0:0:0:
44,117,150592,1,10,0:0:0:0:
168,183,150774,1,2,0:0:0:0:
211,84,150956,6,0,P|168:75|125:82,1,87.5,10|0,0:1|0:0,0:0:0:0:
291,27,151319,2,0,P|333:18|376:25,1,87.5,10|0,0:0|0:0,0:0:0:0:
488,144,151683,1,10,0:1:0:0:
336,105,151865,1,2,0:0:0:0:
494,24,152047,2,0,L|489:111,1,87.5,10|0,0:0|0:0,0:0:0:0:
358,306,152410,6,0,B|360:242|360:242|348:204|348:204|351:133,1,175,10|8,0:1|0:0,0:0:0:0:
239,249,152956,1,0,0:0:0:0:
239,249,153047,1,0,0:0:0:0:
239,249,153138,2,0,L|326:244,1,87.5,10|0,0:1|0:0,0:0:0:0:
161,184,153501,1,10,0:0:0:0:
206,336,153683,1,0,0:0:0:0:
47,271,153865,6,0,L|134:275,1,87.5,8|0,0:1|0:0,0:0:0:0:
247,168,154228,1,8,0:0:0:0:
98,117,154410,1,0,0:0:0:0:
193,2,154592,2,0,P|195:45|189:88,1,87.5,10|0,0:1|0:0,0:0:0:0:
270,283,154956,2,0,P|264:239|265:196,1,87.5,10|0,0:0|0:0,0:0:0:0:
472,77,155319,6,0,L|297:90,1,175,10|10,0:1|0:0,0:0:0:0:
144,216,155865,1,0,0:0:0:0:
144,216,155956,1,0,0:0:0:0:
144,216,156047,2,0,P|187:218|231:214,1,87.5,10|0,0:1|0:0,0:0:0:0:
351,175,156410,5,10,0:0:0:0:
191,115,156592,1,2,0:0:0:0:
373,54,156774,5,10,0:1:0:0:
261,207,156956,1,2,0:0:0:0:
237,28,157138,5,10,0:0:0:0:
438,135,157319,1,2,0:0:0:0:
353,292,157501,6,0,L|359:204,1,87.5,10|0,0:1|0:0,0:0:0:0:
156,173,157865,2,0,L|243:179,1,87.5,10|0,0:0|0:0,0:0:0:0:
85,309,158228,5,10,0:1:0:0:
61,89,158410,1,10,0:1:0:0:
263,154,158956,5,10,0:1:0:0:
43,207,159138,1,10,0:1:0:0:
346,182,159501,6,0,L|180:126,1,175,6|2,0:0|0:1,0:0:0:0:
373,68,160047,1,10,0:1:0:0:
325,310,160228,1,10,0:1:0:0:
345,285,160774,6,0,B|319:285|302:292|302:292|277:286|277:286|262:291|241:290,1,104.999996795654,8|0,0:0|0:0,0:0:0:0:
67,228,161138,5,14,0:1:0:0:
166,70,161319,2,0,P|176:121|165:172,1,104.999996795654,0|8,0:0|0:0,0:0:0:0:
136,312,161683,1,2,0:0:0:0:
78,119,161865,1,10,0:1:0:0:
253,199,162047,1,0,0:0:0:0:
367,42,162228,2,0,L|265:67,1,104.999996795654,10|0,0:0|0:0,0:0:0:0:
284,329,162592,6,0,P|286:276|271:226,1,104.999996795654,10|0,0:1|0:0,0:0:0:0:
166,70,162956,1,10,0:0:0:0:
349,147,163138,1,0,0:0:0:0:
130,209,163319,2,0,P|180:221|233:217,1,104.999996795654,10|0,0:1|0:0,0:0:0:0:
367,42,163683,5,10,0:0:0:0:
463,269,163865,2,0,L|480:165,1,104.999996795654,2|8,0:0|0:1,0:0:0:0:
377,25,164228,5,2,0:0:0:0:
244,209,164410,1,10,0:0:0:0:
448,162,164592,1,0,0:0:0:0:
228,14,164774,2,0,B|227:53|239:73|239:73|232:107|232:107|245:130|245:166,1,157.499995193482,10|0,0:1|0:0,0:0:0:0:
244,209,165138,1,10,0:0:0:0:
374,117,165319,1,2,0:0:0:0:
81,178,165501,5,10,0:1:0:0:
328,241,165683,1,2,0:0:0:0:
93,324,165865,1,10,0:0:0:0:
144,79,166047,1,2,0:1:0:0:
249,301,166228,5,10,0:1:0:0:
130,57,166410,1,10,0:1:0:0:
353,228,166592,1,10,0:0:0:0:
62,194,166774,1,2,0:0:0:0:
312,47,166956,5,14,0:1:0:0:
478,258,167138,2,0,P|425:251|374:259,1,104.999996795654,0|8,0:0|0:0,0:0:0:0:
130,210,167501,1,2,0:0:0:0:
323,151,167683,1,10,0:1:0:0:
56,100,167865,1,0,0:0:0:0:
206,249,168047,2,0,P|213:197|191:150,1,104.999996795654,10|0,0:0|0:0,0:0:0:0:
31,311,168410,6,0,L|135:317,1,104.999996795654,10|0,0:1|0:0,0:0:0:0:
306,169,168774,1,10,0:0:0:0:
130,210,168956,1,0,0:0:0:0:
271,366,169138,2,0,P|280:314|281:262,1,104.999996795654,10|0,0:1|0:0,0:0:0:0:
239,55,169501,5,10,0:0:0:0:
431,187,169683,2,0,L|326:195,1,104.999996795654,2|8,0:0|0:1,0:0:0:0:
111,200,170047,5,2,0:0:0:0:
294,118,170228,1,10,0:0:0:0:
77,87,170410,1,2,0:1:0:0:
195,253,170592,2,0,B|194:236|211:194|211:194|199:163|199:163|215:135|211:101,1,157.499995193482,10|0,0:1|0:0,0:0:0:0:
211,60,170956,1,10,0:0:0:0:
95,220,171138,1,2,0:0:0:0:
323,111,171319,5,10,0:1:0:0:
255,355,171501,1,2,0:0:0:0:
390,183,171683,5,10,0:0:0:0:
113,98,171865,1,2,0:0:0:0:
411,95,172047,5,10,0:1:0:0:
201,280,172228,1,2,0:0:0:0:
482,161,172410,5,10,0:0:0:0:
211,75,172592,1,2,2:0:0:0:
490,62,172774,5,14,0:1:0:0:
327,242,172956,2,0,P|307:195|315:144,1,104.999996795654,2|8,0:0|0:0,0:0:0:0:
482,260,173319,1,2,0:0:0:0:
333,340,173501,1,8,0:1:0:0:
390,183,173683,1,2,0:0:0:0:
203,315,173865,2,0,L|307:323,1,104.999996795654,10|0,0:0|0:0,0:0:0:0:
129,137,174228,6,0,P|148:185|144:237,1,104.999996795654,10|0,0:1|0:0,0:0:0:0:
240,8,174592,2,0,P|220:56|224:108,1,104.999996795654,10|0,0:0|0:0,0:0:0:0:
433,17,174956,2,0,L|328:26,1,104.999996795654,10|0,0:1|0:0,0:0:0:0:
122,107,175319,5,10,0:0:0:0:
333,216,175501,2,0,P|336:163|317:115,1,104.999996795654,2|8,0:0|0:1,0:0:0:0:
149,24,175865,5,2,0:0:0:0:
98,204,176047,2,0,P|149:203|194:176,1,104.999996795654,10|0,0:0|0:0,0:0:0:0:
353,319,176410,2,0,B|276:339|277:287|194:326,1,157.499995193482,10|0,0:1|0:0,0:0:0:0:
166,340,176774,1,10,0:0:0:0:
324,232,176956,1,2,0:0:0:0:
121,130,177138,5,10,0:1:0:0:
279,317,177319,1,10,0:1:0:0:
309,63,177501,1,10,0:0:0:0:
102,282,177683,1,2,0:0:0:0:
93,287,177774,1,2,0:0:0:0:
86,292,177865,5,10,0:1:0:0:
192,37,178047,1,10,0:1:0:0:
277,294,178228,1,10,0:0:0:0:
31,151,178410,1,2,0:0:0:0:
325,85,178592,5,12,0:1:0:0:
279,317,178774,1,0,0:0:0:0:
425,216,178956,6,0,B|324:190|330:264|228:226,1,196.875007510186,10|0,0:0|0:0,0:0:0:0:
161,172,179319,5,10,0:1:0:0:
281,345,179501,1,2,0:0:0:0:
430,193,179683,2,0,P|379:188|329:204,1,104.999996795654,8|0,0:0|0:0,0:0:0:0:
46,140,180047,6,0,P|97:135|147:151,1,104.999996795654,10|0,0:1|0:0,0:0:0:0:
222,328,180410,1,10,0:0:0:0:
89,224,180592,1,0,0:0:0:0:
229,93,180774,2,0,L|232:197,1,104.999996795654,10|0,0:1|0:0,0:0:0:0:
108,331,181138,5,10,0:0:0:0:
27,149,181319,2,0,P|76:132|128:137,1,104.999996795654,2|8,0:0|0:1,0:0:0:0:
312,229,181683,5,2,0:0:0:0:
125,319,181865,1,8,0:0:0:0:
297,333,182047,1,2,0:0:0:0:
154,156,182228,5,10,0:1:0:0:
357,82,182410,1,0,0:0:0:0:
139,162,182592,5,10,0:0:0:0:
315,254,182774,1,2,0:0:0:0:
124,79,182956,5,12,0:1:0:0:
216,298,183138,1,2,0:0:0:0:
229,61,183319,5,10,0:0:0:0:
315,254,183501,1,2,0:0:0:0:
334,58,183683,5,10,0:0:0:0:
407,215,183865,1,2,0:0:0:0:
431,73,184047,6,0,L|512:40,1,87.5,10|0,0:1|0:0,0:0:0:0:
431,227,184410,6,0,L|428:292,1,65.6250025033952,12|0,0:1|0:0,0:0:0:0:
328,276,184774,2,0,L|325:341,1,65.6250025033952,10|0,0:1|0:0,0:0:0:0:
232,384,185138,2,0,L|229:318,1,65.6250025033952
129,335,185502,2,0,L|126:269,1,65.6250025033952,10|0,0:1|0:0,0:0:0:0:
94,175,185865,6,0,P|126:170|158:174,1,65.6250025033952,0|0,0:0|0:0,0:0:0:0:
191,271,186228,2,0,P|158:275|126:269,1,65.6250025033952,10|0,0:1|0:0,0:0:0:0:
228,127,186592,2,0,P|242:156|241:188,1,65.6250025033952,0|0,0:0|0:0,0:0:0:0:
149,94,186956,2,0,P|165:66|193:49,1,65.6250025033952,10|0,0:1|0:0,0:0:0:0:
293,122,187319,6,0,L|228:127,1,65.6250025033952,0|0,0:0|0:0,0:0:0:0:
329,210,187683,2,0,L|263:214,1,65.6250025033952,10|0,0:1|0:0,0:0:0:0:
126,269,188047,2,0,L|191:273,1,65.6250025033952,0|0,0:0|0:0,0:0:0:0:
90,356,188411,2,0,L|155:360,1,65.6250025033952,10|0,0:1|0:0,0:0:0:0:
403,254,188774,6,0,P|414:223|412:190,1,65.6250025033952
436,333,189138,2,0,P|462:313|478:285,1,65.6250025033952,10|0,0:1|0:0,0:0:0:0:
263,214,189501,2,0,P|294:206|327:209,1,65.6250025033952
305,289,189865,2,0,L|294:353,1,65.6250025033952,10|0,0:1|0:0,0:0:0:0:
237,202,190228,6,0,L|163:191,1,74.3750014185906,12|0,0:1|0:0,0:0:0:0:
59,177,190592,1,10,0:1:0:0:
118,271,190774,1,0,0:0:0:0:
118,271,190865,1,0,0:0:0:0:
118,271,190956,2,0,L|115:345,1,74.3750014185906,8|0,0:1|0:0,0:0:0:0:
215,296,191319,2,0,L|217:221,1,74.3750014185906,10|0,0:1|0:0,0:0:0:0:
283,88,191683,6,0,P|319:81|356:83,1,74.3750014185906,8|0,0:1|0:0,0:0:0:0:
461,121,192047,1,10,0:1:0:0:
361,197,192228,2,0,L|326:187,1,37.1875007092953,0|0,0:0|0:0,0:0:0:0:
436,227,192410,2,0,L|506:250,1,74.3750014185906,8|0,0:1|0:0,0:0:0:0:
398,316,192774,6,2,B|353:336|353:336|333:378,1,96.250002937317,10|0,0:1|0:0,0:0:0:0:
252,269,193138,6,0,P|217:256|180:257,1,74.3750014185906,8|0,0:1|0:0,0:0:0:0:
73,290,193501,1,10,0:1:0:0:
128,193,193683,2,0,P|131:174|131:156,1,37.1875007092953,0|0,0:0|0:0,0:0:0:0:
35,129,193865,6,2,B|13:172|13:172|21:219,1,96.250002937317,10|0,0:1|0:0,0:0:0:0:
153,174,194228,6,0,P|151:136|139:101,1,74.3750014185906,10|0,0:1|0:0,0:0:0:0:
262,29,194592,5,8,0:1:0:0:
262,29,194683,1,8,0:1:0:0:
262,29,194774,2,0,L|297:40,1,37.1875007092953,8|8,0:0|0:0,0:0:0:0:
416,65,194956,2,0,L|452:55,1,37.1875007092953,8|8,0:0|0:0,0:0:0:0:
249,113,195228,6,0,P|270:142|286:176,1,74.3750014185906,8|8,0:0|0:0,0:0:0:0:
333,288,195501,2,0,L|340:252,1,37.1875007092953,8|8,0:0|0:1,0:0:0:0:
394,180,195683,2,0,L|442:177,2,37.1875007092953,8|8|12,0:1|0:1|0:1,0:0:0:0:
107,219,196047,6,0,P|148:212|187:227,1,83.1249977803231,12|0,0:1|0:0,0:0:0:0:
150,378,196410,2,0,P|151:337|140:297,1,83.1249977803231,10|0,0:0|0:0,0:0:0:0:
217,127,196774,2,0,P|218:168|207:208,1,83.1249977803231,8|0,0:1|0:0,0:0:0:0:
171,58,197138,2,0,P|209:44|249:50,1,83.1249977803231,10|0,0:0|0:0,0:0:0:0:
352,122,197501,5,8,0:1:0:0:
352,122,197683,1,0,0:0:0:0:
454,37,197865,2,0,L|443:119,1,83.1249977803231,10|0,0:0|0:0,0:0:0:0:
353,227,198228,2,0,L|342:144,1,83.1249977803231,8|0,0:1|0:0,0:0:0:0:
464,236,198592,2,0,P|423:231|383:242,1,83.1249977803231,10|0,0:0|0:0,0:0:0:0:
266,307,198956,6,0,P|224:311|184:301,1,83.1249977803231,8|0,0:1|0:0,0:0:0:0:
91,206,199319,1,10,0:0:0:0:
91,206,199501,1,0,0:0:0:0:
9,311,199683,2,0,L|4:227,1,83.1249977803231,8|0,0:1|0:0,0:0:0:0:
114,104,200047,2,0,L|109:187,1,83.1249977803231,10|0,0:0|0:0,0:0:0:0:
0,108,200410,5,8,0:1:0:0:
0,108,200592,1,0,0:0:0:0:
68,26,200774,2,0,P|108:17|149:23,1,83.1249977803231,10|0,0:0|0:0,0:0:0:0:
256,74,201138,1,8,0:1:0:0:
256,74,201319,1,0,0:0:0:0:
298,170,201501,2,0,P|258:181|217:176,1,83.1249977803231,10|0,0:0|0:0,0:0:0:0:
361,52,201865,6,0,P|402:47|441:58,1,83.1249977803231,12|0,0:1|0:0,0:0:0:0:
497,164,202228,2,0,L|485:246,1,83.1249977803231,10|0,0:0|0:0,0:0:0:0:
399,349,202592,1,8,0:1:0:0:
399,349,202774,2,0,B|364:333|364:333|319:330,1,83.1249977803231,0|10,0:0|0:0,0:0:0:0:
229,374,203138,1,0,0:0:0:0:
195,280,203319,6,0,L|112:273,1,83.1249977803231,8|0,0:1|0:0,0:0:0:0:
4,194,203683,2,0,L|86:187,1,83.1249977803231,10|0,0:0|0:0,0:0:0:0:
220,185,204047,2,0,P|228:145|220:105,1,83.1249977803231,8|0,0:1|0:0,0:0:0:0:
116,22,204410,2,0,P|107:62|116:102,1,83.1249977803231,10|0,0:0|0:0,0:0:0:0:
219,209,204774,6,0,P|259:217|299:209,1,83.1249977803231,8|0,0:1|0:0,0:0:0:0:
400,121,205138,2,0,L|401:204,1,83.1249977803231,10|0,0:0|0:0,0:0:0:0:
402,303,205501,1,8,0:1:0:0:
303,296,205683,2,0,P|262:304|222:295,1,83.1249977803231,0|10,0:0|0:0,0:0:0:0:
126,323,206047,1,0,0:0:0:0:
132,219,206228,6,0,L|123:136,1,83.1249977803231,10|0,0:1|0:0,0:0:0:0:
270,135,206592,2,0,L|261:217,1,83.1249977803231,10|0,0:0|0:0,0:0:0:0:
67,58,206956,2,0,L|149:49,1,83.1249977803231,10|0,0:1|0:0,0:0:0:0:
350,175,207319,2,0,L|267:166,1,83.1249977803231,10|0,0:0|0:0,0:0:0:0:
366,38,207683,5,12,0:1:0:0:
458,125,207865,1,0,0:0:0:0:
458,125,208047,2,0,L|451:207,1,83.1249977803231,10|0,0:0|0:0,0:0:0:0:
314,290,208410,2,0,L|307:207,1,83.1249977803231,8|0,0:1|0:0,0:0:0:0:
297,90,208774,1,8,0:0:0:0:
185,159,208956,1,0,0:0:0:0:
307,76,209138,6,0,L|389:67,1,83.1249977803231,8|0,0:1|0:0,0:0:0:0:
465,223,209501,2,0,L|382:214,1,83.1249977803231,10|0,0:0|0:0,0:0:0:0:
184,158,209865,2,0,P|172:118|175:77,1,83.1249977803231,8|0,0:1|0:0,0:0:0:0:
286,9,210228,2,0,P|297:48|295:90,1,83.1249977803231,10|0,0:0|0:0,0:0:0:0:
187,179,210592,1,8,0:1:0:0:
303,247,210774,5,0,0:0:0:0:
422,143,210956,2,0,L|340:152,1,83.1249977803231,10|0,0:0|0:0,0:0:0:0:
197,253,211319,1,8,0:1:0:0:
165,110,211501,1,0,0:0:0:0:
203,273,211683,2,0,L|286:283,1,83.1249977803231,10|0,0:0|0:0,0:0:0:0:
118,189,212047,6,0,P|76:186|36:196,1,83.1249977803231,8|0,0:1|0:0,0:0:0:0:
97,350,212410,1,10,0:0:0:0:
203,273,212592,1,0,0:0:0:0:
92,362,212774,2,0,P|84:321|90:280,1,83.1249977803231,8|0,0:1|0:0,0:0:0:0:
201,160,213138,2,0,P|206:201|200:242,1,83.1249977803231,10|0,0:0|0:0,0:0:0:0:
54,154,213501,5,12,0:1:0:0:
54,154,213683,1,0,0:0:0:0:
125,41,213865,2,0,P|163:27|203:35,1,83.1249977803231,10|0,0:0|0:0,0:0:0:0:
348,99,214228,2,0,P|310:113|270:106,1,83.1249977803231,8|0,0:1|0:0,0:0:0:0:
407,25,214592,2,0,P|448:17|486:31,1,83.1249977803231,10|0,0:0|0:0,0:0:0:0:
470,170,214956,5,8,0:1:0:0:
348,99,215138,1,0,0:0:0:0:
484,179,215319,2,0,P|496:218|486:258,1,83.1249977803231,10|0,0:0|0:0,0:0:0:0:
330,170,215683,2,0,P|319:131|328:91,1,83.1249977803231,8|0,0:1|0:0,0:0:0:0:
375,249,216047,2,0,P|336:260|296:250,1,83.1249977803231,10|0,0:0|0:0,0:0:0:0:
74,133,216410,6,0,P|113:122|153:133,1,83.1249977803231,8|0,0:1|0:0,0:0:0:0:
166,241,216774,1,10,0:0:0:0:
256,176,216956,1,0,0:0:0:0:
154,134,217138,1,8,0:1:0:0:
256,273,217319,1,0,0:0:0:0:
352,120,217501,1,10,0:0:0:0:
256,176,217683,1,0,0:0:0:0:
344,236,217865,5,8,0:1:0:0:
256,88,218047,1,0,0:0:0:0:
256,273,218228,1,10,0:0:0:0:
416,184,218410,1,0,0:0:0:0:
203,114,218592,6,0,P|144:97|87:120,1,124.687496670485,10|0,0:1|0:0,0:0:0:0:
66,138,218956,2,0,L|66:54,1,83.1249977803231,10|0,0:0|0:0,0:0:0:0:
144,212,219319,6,0,L|146:192,30,20.7812494450808,4|0|0|0|0|0|0|0|0|0|0|0|0|0|0|0|0|0|0|0|0|0|0|0|0|0|0|0|0|0|0,0:0|0:0|0:0|0:0|0:0|0:0|0:0|0:0|0:0|0:0|0:0|0:0|0:0|0:0|0:0|0:0|0:0|0:0|0:0|0:0|0:0|0:0|0:0|0:0|0:0|0:0|0:0|0:0|0:0|0:0|0:0,0:0:0:0:
214,261,220774,6,0,L|216:283,30,22.9687492990494,4|0|0|0|0|0|0|0|0|0|0|0|0|0|0|0|0|0|0|0|0|0|0|0|0|0|0|0|0|0|0,0:0|0:0|0:0|0:0|0:0|0:0|0:0|0:0|0:0|0:0|0:0|0:0|0:0|0:0|0:0|0:0|0:0|0:0|0:0|0:0|0:0|0:0|0:0|0:0|0:0|0:0|0:0|0:0|0:0|0:0|0:0,0:0:0:0:
290,215,222228,6,0,L|293:187,14,25.1562504798174,4|0|0|0|0|0|0|0|0|0|0|0|0|0|0,0:0|0:0|0:0|0:0|0:0|0:0|0:0|0:0|0:0|0:0|0:0|0:0|0:0|0:0|0:0,0:0:0:0:
344,290,222956,6,0,L|347:317,14,27.34375,4|0|0|0|0|0|0|0|0|0|0|0|0|0|0,0:0|0:0|0:0|0:0|0:0|0:0|0:0|0:0|0:0|0:0|0:0|0:0|0:0|0:0|0:0,0:0:0:0:
388,211,223683,6,0,L|392:181,6,29.5312501126528,4|0|0|0|0|0|0,0:0|0:0|0:0|0:0|0:0|0:0|0:0,0:0:0:0:
446,293,224047,6,0,L|450:324,6,31.7187509679795,8|0|0|0|0|0|0,0:1|0:0|0:0|0:0|0:0|0:0|0:0,0:0:0:0:
468,193,224410,6,0,L|478:130,1,63.4375019359589,8|0,0:1|0:0,0:0:0:0:
303,134,224592,2,0,L|313:196,1,63.4375019359589,8|0,0:1|0:0,0:0:0:0:
413,33,224774,2,0,L|349:33,1,63.4375019359589,8|0,0:1|0:0,0:0:0:0:
218,31,224956,1,8,0:1:0:0:
209,31,225047,1,8,0:1:0:0:
200,31,225138,5,4,0:0:0:0:
101,267,225865,6,0,B|118:300|118:300|140:233|134:194,1,144.375004405975,2|0,0:0|0:0,0:0:0:0:
55,159,226228,6,0,P|147:109|218:185,1,223.125004255772,10|0,0:1|0:0,0:0:0:0:
232,303,226592,5,14,0:1:0:0:
315,204,226774,1,2,0:0:0:0:
315,204,226865,1,0,0:0:0:0:
315,203,226956,2,0,P|361:192|408:202,1,96.250002937317,10|0,0:0|0:0,0:0:0:0:
486,65,227319,2,0,L|390:77,1,96.250002937317,10|0,0:1|0:0,0:0:0:0:
296,179,227683,1,10,0:0:0:0:
174,38,227865,1,2,0:0:0:0:
174,38,227956,1,0,0:0:0:0:
174,38,228047,6,0,L|269:45,1,96.250002937317,10|0,0:1|0:0,0:0:0:0:
295,178,228410,2,0,P|250:165|203:177,1,96.250002937317,10|0,0:0|0:0,0:0:0:0:
127,339,228774,2,0,L|124:291,1,48.1250014686585,10|2,0:1|0:0,0:0:0:0:
117,173,228956,1,2,0:0:0:0:
251,259,229138,1,10,0:0:0:0:
284,271,229228,1,2,0:0:0:0:
320,268,229319,1,2,0:0:0:0:
352,252,229410,1,2,0:0:0:0:
374,224,229501,6,0,P|387:177|391:130,1,96.250002937317,10|2,0:1|0:0,0:0:0:0:
331,28,229774,1,0,0:0:0:0:
318,16,229865,2,0,P|271:9|222:10,1,96.250002937317,10|0,0:0|0:0,0:0:0:0:
124,121,230229,2,0,P|75:120|28:114,1,96.250002937317,10|0,0:1|0:0,0:0:0:0:
201,264,230592,2,0,B|206:224|224:201|224:201|211:171|213:126,1,144.375004405975,10|0,0:0|0:0,0:0:0:0:
233,98,230956,6,0,L|281:100,1,48.1250014686585,10|2,0:1|0:0,0:0:0:0:
335,256,231138,2,0,L|286:258,1,48.1250014686585,2|2,0:0|0:0,0:0:0:0:
370,150,231319,2,0,L|466:145,1,96.250002937317,10|0,0:0|0:0,0:0:0:0:
457,231,231592,1,0,0:0:0:0:
439,260,231683,2,0,L|432:356,1,96.250002937317,10|0,0:1|0:0,0:0:0:0:
217,288,232047,2,0,P|264:280|310:292,1,96.250002937317,10|2,0:0|0:0,0:0:0:0:
275,97,232410,5,10,0:1:0:0:
192,210,232592,1,2,0:0:0:0:
150,227,232683,1,2,0:0:0:0:
105,216,232774,1,10,0:0:0:0:
77,179,232865,1,2,0:0:0:0:
90,133,232956,1,2,0:0:0:0:
132,114,233047,1,2,0:0:0:0:
177,138,233138,5,10,0:1:0:0:
182,189,233228,1,2,0:0:0:0:
150,227,233319,1,2,0:0:0:0:
136,276,233410,1,2,0:0:0:0:
145,323,233501,2,0,P|160:344|183:357,3,52.4999983978272,10|2|2|2,0:0|0:0|0:0|0:0,0:0:0:0:
217,287,233865,6,0,P|263:277|309:289,1,96.250002937317,10|0,0:1|0:0,0:0:0:0:
346,322,234138,1,0,0:0:0:0:
346,322,234228,2,0,L|395:311,1,48.1250014686585,10|2,0:0|0:0,0:0:0:0:
506,235,234410,2,0,L|458:223,1,48.1250014686585,2|2,0:0|0:0,0:0:0:0:
318,143,234592,2,0,L|411:121,1,96.250002937317,10|0,0:1|0:0,0:0:0:0:
264,75,234956,2,0,P|237:113|237:161,1,96.250002937317,10|2,0:0|0:0,0:0:0:0:
309,289,235319,6,0,P|263:277|217:287,1,96.250002937317,8|2,0:1|0:0,0:0:0:0:
123,309,235592,1,2,0:0:0:0:
92,333,235683,2,0,L|87:236,1,96.250002937317,10|2,0:0|0:0,0:0:0:0:
132,150,235956,1,2,0:0:0:0:
163,174,236047,2,0,L|167:77,1,96.250002937317,10|2,0:1|0:0,0:0:0:0:
253,33,236319,1,2,0:0:0:0:
285,12,236410,2,0,L|381:10,1,96.250002937317,10|2,0:0|0:0,0:0:0:0:
355,280,236774,5,10,0:1:0:0:
365,231,236865,1,2,0:0:0:0:
348,186,236956,1,2,0:0:0:0:
336,138,237047,1,2,0:0:0:0:
341,89,237138,2,0,L|294:75,1,48.1250014686585,10|2,0:1|0:0,0:0:0:0:
163,174,237319,2,0,L|210:167,1,48.1250014686585,2|2,0:0|0:0,0:0:0:0:
287,238,237501,1,10,0:1:0:0:
95,122,237683,5,8,0:0:0:0:
163,271,237865,1,8,0:0:0:0:
198,68,238047,1,8,0:0:0:0:
18,228,238228,6,0,L|37:313,1,87.5,12|0,0:1|0:0,0:0:0:0:
231,314,238592,2,0,P|188:303|145:311,1,87.5,10|0,0:0|0:0,0:0:0:0:
364,210,238956,2,0,P|321:218|278:208,1,87.5,10|0,0:1|0:0,0:0:0:0:
419,301,239319,1,10,0:0:0:0:
441,127,239501,1,2,0:0:0:0:
279,209,239683,5,10,0:1:0:0:
448,215,239865,1,0,0:0:0:0:
284,126,240047,2,0,P|241:134|208:162,1,87.5,10|2,0:0|0:0,0:0:0:0:
123,336,240410,2,0,L|118:248,1,87.5,10|0,0:1|0:0,0:0:0:0:
115,92,240774,1,10,0:0:0:0:
13,159,240956,1,0,0:0:0:0:
138,79,241138,6,0,B|204:73|204:73|241:88|241:88|309:83,1,175,10|8,0:1|0:0,0:0:0:0:
434,178,241683,1,0,0:0:0:0:
434,178,241774,1,0,0:0:0:0:
434,178,241865,2,0,P|390:181|349:170,1,87.5,10|0,0:1|0:0,0:0:0:0:
261,300,242228,2,0,P|302:288|346:291,1,87.5,10|0,0:0|0:0,0:0:0:0:
203,376,242592,6,0,P|167:299|205:223,1,175,10|10,0:1|0:0,0:0:0:0:
118,72,243138,1,2,0:0:0:0:
118,72,243228,1,0,0:0:0:0:
118,72,243319,2,0,L|140:156,1,87.5,10|0,0:1|0:0,0:0:0:0:
348,294,243683,2,0,L|261:300,1,87.5,10|0,0:0|0:0,0:0:0:0:
278,105,244047,6,0,B|370:130|365:74|452:113,1,175,10|10,0:1|0:0,0:0:0:0:
422,266,244592,1,0,0:0:0:0:
422,266,244682,1,0,0:0:0:0:
422,266,244774,2,0,L|399:181,1,87.5,10|0,0:1|0:0,0:0:0:0:
321,27,245138,5,10,0:0:0:0:
250,194,245319,1,2,0:0:0:0:
202,61,245501,5,10,0:1:0:0:
399,181,245683,1,2,0:0:0:0:
167,152,245865,5,10,0:0:0:0:
400,98,246047,1,2,0:0:0:0:
116,91,246228,6,0,B|6:82|6:82|45:56,1,157.499995193482,10|0,0:1|0:0,0:0:0:0:
125,16,246592,1,10,0:0:0:0:
57,177,246774,1,0,0:0:0:0:
237,73,246956,5,10,0:1:0:0:
276,292,247138,1,10,0:1:0:0:
79,196,247683,5,10,0:1:0:0:
321,150,247865,1,10,0:1:0:0:
191,384,248228,6,0,B|206:338|196:301|196:301|225:271|225:271|215:223|233:186,1,209.999993591309,12|0,0:1|0:0,0:0:0:0:
261,64,248774,1,10,0:1:0:0:
279,330,248956,1,10,0:1:0:0:
440,41,249683,6,0,B|387:32|346:57|346:57|328:51|306:50|306:50|266:71|211:64,1,236.250000901222,4|10,0:1|0:1,0:0:0:0:
73,76,250228,1,10,0:1:0:0:
344,190,250410,1,10,0:1:0:0:
367,173,251138,1,2,0:0:0:0:
245,324,251319,5,14,0:1:0:0:
461,304,251501,2,0,L|359:277,1,104.999996795654,0|8,0:0|0:0,0:0:0:0:
187,169,251865,1,2,0:0:0:0:
389,149,252047,1,10,0:1:0:0:
236,242,252228,1,0,0:0:0:0:
265,0,252410,2,0,L|252:112,1,104.999996795654,10|0,0:0|0:0,0:0:0:0:
41,243,252774,6,0,P|92:235|143:248,1,104.999996795654,10|0,0:1|0:0,0:0:0:0:
315,184,253138,1,10,0:0:0:0:
111,159,253319,1,0,0:0:0:0:
349,316,253501,2,0,L|244:323,1,104.999996795654,10|0,0:1|0:0,0:0:0:0:
93,146,253865,5,10,0:0:0:0:
347,55,254047,2,0,L|332:158,1,104.999996795654,2|8,0:0|0:1,0:0:0:0:
221,326,254410,5,2,0:0:0:0:
197,83,254592,1,10,0:0:0:0:
88,276,254774,1,0,0:0:0:0:
7,72,254956,2,0,B|49:77|74:69|74:69|98:84|98:84|126:76|159:81,1,157.499995193482,10|0,0:1|0:0,0:0:0:0:
197,83,255319,1,10,0:0:0:0:
178,257,255501,1,2,0:0:0:0:
273,36,255683,5,10,0:1:0:0:
351,282,255865,1,10,0:1:0:0:
133,155,256047,1,10,0:0:0:0:
123,151,256138,1,0,0:0:0:0:
113,147,256228,1,2,0:1:0:0:
397,162,256410,5,10,0:1:0:0:
145,245,256592,1,10,0:1:0:0:
355,48,256774,1,10,0:0:0:0:
237,335,256956,1,2,0:0:0:0:
169,56,257138,5,14,0:1:0:0:
333,238,257319,2,0,P|280:234|228:240,1,104.999996795654,0|8,0:0|0:0,0:0:0:0:
67,203,257683,1,2,0:0:0:0:
274,152,257865,1,10,0:1:0:0:
63,81,258047,1,0,0:0:0:0:
272,33,258228,2,0,P|323:25|376:26,1,104.999996795654,10|0,0:0|0:0,0:0:0:0:
479,263,258592,6,0,L|462:159,1,104.999996795654,10|0,0:1|0:0,0:0:0:0:
256,62,258956,1,10,0:0:0:0:
358,223,259138,1,0,0:0:0:0:
138,153,259319,2,0,L|242:145,1,104.999996795654,10|0,0:1|0:0,0:0:0:0:
432,141,259683,5,10,0:0:0:0:
291,352,259865,2,0,P|291:299|278:248,1,104.999996795654,2|8,0:0|0:1,0:0:0:0:
75,62,260228,5,2,0:0:0:0:
274,152,260410,1,10,0:0:0:0:
120,178,260592,1,2,0:1:0:0:
255,31,260774,2,0,P|306:23|358:28,1,104.999996795654,10|0,0:1|0:0,0:0:0:0:
421,177,261138,1,10,0:0:0:0:
181,93,261319,1,2,0:0:0:0:
169,276,261501,5,10,0:1:0:0:
400,157,261683,1,2,0:0:0:0:
131,6,261865,5,10,0:0:0:0:
289,272,262047,1,2,0:0:0:0:
79,197,262228,5,10,0:1:0:0:
369,70,262410,1,2,0:0:0:0:
67,81,262592,5,10,0:0:0:0:
381,241,262774,1,2,2:0:0:0:
84,284,262956,5,14,0:1:0:0:
212,39,263138,2,0,P|226:91|226:145,1,104.999996795654,2|8,0:0|0:0,0:0:0:0:
222,336,263501,1,2,0:0:0:0:
327,168,263683,1,8,0:1:0:0:
110,196,263865,1,2,0:0:0:0:
291,249,264047,2,0,P|343:250|391:232,1,104.999996795654,10|0,0:0|0:0,0:0:0:0:
330,35,264410,6,0,L|325:139,1,104.999996795654,10|0,0:1|0:0,0:0:0:0:
235,315,264774,1,10,0:0:0:0:
230,142,264956,1,0,0:0:0:0:
392,257,265138,2,0,P|341:243|290:248,1,104.999996795654,10|0,0:1|0:0,0:0:0:0:
106,308,265501,5,10,0:0:0:0:
105,66,265683,2,0,P|117:123|126:168,1,104.999996795654,2|8,0:0|0:1,0:0:0:0:
210,357,266047,5,2,0:0:0:0:
251,156,266228,1,10,0:0:0:0:
91,324,266410,1,0,0:0:0:0:
254,68,266592,2,0,B|284:46|353:54|353:54|331:68|315:95,1,157.499995193482,10|0,0:1|0:0,0:0:0:0:
391,123,266956,5,10,0:0:0:0:
214,245,267138,1,2,0:0:0:0:
407,132,267319,5,10,0:1:0:0:
126,73,267501,1,10,0:1:0:0:
380,36,267683,1,10,0:0:0:0:
214,245,267865,2,0,L|231:196,1,52.4999983978272,2|2,0:0|0:0,0:0:0:0:
235,0,268047,5,10,0:1:0:0:
338,229,268228,1,10,0:1:0:0:
106,99,268410,1,10,0:0:0:0:
386,22,268592,1,2,0:0:0:0:
214,245,268774,5,12,0:1:0:0:
463,213,268956,1,0,0:0:0:0:
327,370,269138,6,0,B|330:322|307:293|307:293|319:248|319:248|305:223|309:173,1,196.875007510186,10|0,0:0|0:0,0:0:0:0:
338,94,269501,5,10,0:1:0:0:
230,249,269683,1,2,0:0:0:0:
445,197,269865,1,8,0:0:0:0:
210,106,270047,1,0,0:0:0:0:
323,324,270228,6,0,P|322:271|311:220,1,104.999996795654,10|0,0:1|0:0,0:0:0:0:
171,31,270592,1,10,0:0:0:0:
155,192,270774,1,0,0:0:0:0:
344,79,270956,2,0,P|295:80|239:91,1,104.999996795654,10|0,0:1|0:0,0:0:0:0:
161,340,271319,5,10,0:0:0:0:
63,188,271501,2,0,P|114:178|167:175,1,104.999996795654,2|8,0:0|0:1,0:0:0:0:
461,243,271865,5,2,0:0:0:0:
276,220,272047,1,8,0:0:0:0:
465,152,272228,1,2,0:0:0:0:
258,298,272410,5,10,0:1:0:0:
483,242,272592,1,0,0:0:0:0:
326,103,272774,1,10,0:0:0:0:
399,317,272956,1,2,0:0:0:0:
219,139,273138,5,12,0:1:0:0:
258,298,273319,1,2,0:0:0:0:
330,77,273501,5,10,0:0:0:0:
241,322,273683,1,2,0:0:0:0:
225,43,273865,5,10,0:1:0:0:
224,346,274047,1,10,0:1:0:0:
113,76,274228,5,10,0:1:0:0:
404,201,274410,1,10,0:1:0:0:
372,222,274956,6,0,P|419:259|405:201,1,157.499995193482,10|0,0:1|0:0,0:0:0:0:
373,123,275319,6,0,B|335:131|312:110|312:110|286:121|286:121|270:109|270:109|257:103|217:104,1,157.499995193482,10|0,0:1|0:0,0:0:0:0:
143,77,275683,6,0,B|130:123|156:158|156:158|147:188|147:188|171:220|159:264,1,196.875007510186,6|0,0:3|0:0,0:0:0:0:
130,349,276047,6,0,P|205:341|244:276,1,157.499995193482,14|0,0:1|0:0,0:0:0:0:
293,210,276410,2,0,P|291:157|311:109,1,104.999996795654,8|2,0:0|0:0,0:0:0:0:
489,60,276774,1,10,0:1:0:0:
373,177,276956,1,2,0:0:0:0:
268,26,277138,2,0,P|319:20|369:35,1,104.999996795654,10|0,0:0|0:0,0:0:0:0:
484,260,277501,6,0,L|380:262,1,104.999996795654,10|0,0:1|0:0,0:0:0:0:
158,264,277865,2,0,P|203:291|228:337,1,104.999996795654,10|0,0:0|0:0,0:0:0:0:
353,163,278228,2,0,P|308:190|283:235,1,104.999996795654,10|0,0:1|0:0,0:0:0:0:
141,347,278592,5,10,0:0:0:0:
45,173,278774,1,2,0:0:0:0:
228,96,278956,6,0,L|215:201,1,104.999996795654,14|0,0:1|0:0,0:0:0:0:
393,366,279319,2,0,L|379:261,1,104.999996795654,10|0,0:0|0:0,0:0:0:0:
344,85,279683,1,10,0:1:0:0:
293,242,279865,1,0,0:0:0:0:
117,151,280047,2,0,P|169:147|220:156,1,104.999996795654,10|0,0:0|0:0,0:0:0:0:
424,60,280410,6,0,P|371:56|320:65,1,104.999996795654,10|0,0:1|0:0,0:0:0:0:
160,237,280774,1,10,0:0:0:0:
216,60,280956,1,0,0:0:0:0:
407,180,281138,2,0,L|306:210,1,104.999996795654,10|0,0:1|0:0,0:0:0:0:
101,304,281501,2,0,L|201:334,1,104.999996795654,10|2,0:0|0:0,0:0:0:0:
356,294,281865,5,14,0:1:0:0:
160,237,282047,1,2,0:0:0:0:
310,107,282228,2,0,P|315:159|307:211,1,104.999996795654,8|2,0:0|0:0,0:0:0:0:
203,374,282592,1,10,0:1:0:0:
383,286,282774,1,2,0:0:0:0:
177,220,282956,2,0,P|125:212|73:221,1,104.999996795654,10|0,0:0|0:0,0:0:0:0:
187,32,283319,5,14,0:1:0:0:
277,222,283501,1,0,0:0:0:0:
440,69,283683,2,0,L|336:84,1,104.999996795654,10|0,0:0|0:0,0:0:0:0:
108,132,284047,2,0,L|211:147,1,104.999996795654,10|0,0:1|0:0,0:0:0:0:
409,182,284410,5,10,0:0:0:0:
160,237,284592,1,2,0:0:0:0:
336,84,284774,5,14,0:1:0:0:
300,323,284956,1,0,0:0:0:0:
165,123,285138,1,10,0:0:0:0:
159,117,285228,1,0,0:0:0:0:
152,110,285319,1,0,0:0:0:0:
363,266,285501,1,10,0:1:0:0:
139,258,285683,1,0,0:0:0:0:
379,179,285865,2,0,P|432:184|483:195,1,104.999996795654,10|0,0:0|0:0,0:0:0:0:
283,341,286228,5,10,0:1:0:0:
165,123,286410,1,2,0:0:0:0:
401,181,286592,5,10,0:0:0:0:
117,274,286774,1,2,0:0:0:0:
311,92,286956,5,10,0:1:0:0:
190,344,287138,1,2,0:0:0:0:
384,268,287319,6,0,P|428:263|471:270,1,87.5,10|0,0:0|0:0,0:0:0:0:
406,99,287683,5,14,0:1:0:0:
309,215,287865,2,0,P|299:266|307:317,1,104.999996795654,2|8,0:0|0:0,0:0:0:0:
488,240,288228,1,2,0:0:0:0:
298,187,288410,1,10,0:1:0:0:
423,84,288592,1,2,0:0:0:0:
193,97,288774,2,0,P|244:86|296:91,1,104.999996795654,10|0,0:0|0:0,0:0:0:0:
106,257,289138,5,10,0:1:0:0:
90,76,289319,1,0,0:0:0:0:
227,234,289501,2,0,L|122:228,1,104.999996795654,10|0,0:0|0:0,0:0:0:0:
307,317,289865,2,0,L|411:311,1,104.999996795654,10|0,0:1|0:0,0:0:0:0:
343,151,290228,5,10,0:0:0:0:
219,312,290410,1,2,0:0:0:0:
472,182,290592,6,0,L|368:172,1,104.999996795654,14|0,0:1|0:0,0:0:0:0:
185,56,290956,1,10,0:0:0:0:
178,51,291047,1,0,0:0:0:0:
172,45,291138,1,0,0:0:0:0:
383,49,291319,1,10,0:1:0:0:
223,156,291501,1,0,0:0:0:0:
300,1,291683,1,10,0:0:0:0:
368,172,291865,1,0,0:0:0:0:
192,63,292047,5,10,0:1:0:0:
289,246,292228,1,0,0:0:0:0:
450,108,292410,2,0,P|458:56|449:5,1,104.999996795654,10|0,0:0|0:0,0:0:0:0:
236,164,292774,2,0,P|287:154|338:163,1,104.999996795654,10|0,0:1|0:0,0:0:0:0:
466,250,293138,1,10,0:0:0:0:
366,80,293319,1,2,0:0:0:0:
282,280,293501,5,14,0:1:0:0:
415,187,293683,1,2,0:0:0:0:
205,158,293865,2,0,L|100:146,1,104.999996795654,8|2,0:0|0:0,0:0:0:0:
281,64,294228,1,10,0:1:0:0:
300,261,294410,1,2,0:0:0:0:
83,201,294592,2,0,L|188:189,1,104.999996795654,10|0,0:0|0:0,0:0:0:0:
429,169,294956,5,10,0:1:0:0:
205,273,295138,1,0,0:0:0:0:
402,346,295319,2,0,P|454:347|506:342,1,104.999996795654,10|0,0:0|0:0,0:0:0:0:
314,238,295683,1,10,0:1:0:0:
512,117,295865,1,0,0:0:0:0:
402,346,296047,5,10,0:0:0:0:
250,146,296228,2,0,P|301:139|353:149,1,104.999996795654,2|12,0:0|0:1,0:0:0:0:
270,355,296592,5,2,0:0:0:0:
64,192,296774,1,10,0:1:0:0:
296,226,296956,1,2,0:0:0:0:
100,278,297138,5,8,0:1:0:0:
256,373,297319,1,2,0:1:0:0:
250,146,297501,1,8,0:0:0:0:
351,350,297683,1,2,0:0:0:0:
311,23,297865,5,10,0:0:0:0:
161,350,298047,1,10,0:1:0:0:
414,82,298228,5,10,0:0:0:0:
100,278,298410,1,8,0:1:0:0:
201,23,298592,5,10,0:0:0:0:
412,278,298774,1,10,0:1:0:0:
98,82,298956,5,10,0:0:0:0:
448,192,299138,1,10,0:1:0:0:
228,245,299319,5,10,0:1:0:0:
284,151,299501,1,0,0:0:0:0:
206,241,299683,1,10,0:1:0:0:
271,137,299865,1,0,0:0:0:0:
305,322,300047,6,0,L|217:329,1,87.5,10|0,0:1|0:0,0:0:0:0:
98,162,300410,2,0,L|186:169,1,87.5,10|0,0:1|0:0,0:0:0:0:
382,74,300774,5,12,0:1:0:0:
256,192,300865,12,0,308410,0:0:0:0:
