osu file format v14

[General]
AudioFilename: audio.mp3
AudioLeadIn: 0
PreviewTime: 46967
Countdown: 0
SampleSet: Soft
StackLeniency: 0.5
Mode: 0
LetterboxInBreaks: 0
WidescreenStoryboard: 1

[Editor]
DistanceSpacing: 0.5
BeatDivisor: 4
GridSize: 8
TimelineZoom: 2.1

[Metadata]
Title:PaPaPa (TV Size)
TitleUnicode:パパパ (TV Size)
Artist:Saito Shuka
ArtistUnicode:斉藤朱夏
Creator:NotABox
Version:Ralkinson's Insane
Source:俺を好きなのはお前だけかよ
Tags:ORESUKI Ore wo Suki nano wa Omae dake ka yo Are you the only one who loves me? Sumireko Sanshokuin anime japanese op opening Kei Hayashi jpop j-pop pop Ralkinson
BeatmapID:2791830
BeatmapSetID:1070148

[Difficulty]
HPDrainRate:5
CircleSize:4
OverallDifficulty:7.5
ApproachRate:8.7
SliderMultiplier:1.8
SliderTickRate:1

[Events]
//Background and Video events
0,0,"pansybgsmol.jpg",0,0
//Break Periods
//Storyboard Layer 0 (Background)
//Storyboard Layer 1 (Fail)
//Storyboard Layer 2 (Pass)
//Storyboard Layer 3 (Foreground)
//Storyboard Layer 4 (Overlay)
//Storyboard Sound Samples

[TimingPoints]
-173,476.190476190476,4,2,1,60,1,0
779,-100,4,2,1,50,0,0
2446,-86.9565217391304,4,2,1,60,0,0
3398,-74.0740740740741,4,2,1,70,0,0
9112,-66.6666666666667,4,2,1,70,0,0
11017,-74.0740740740741,4,2,1,70,0,0
11255,-95.2380952380952,4,2,1,60,0,0
24588,-86.9565217391304,4,2,1,60,0,0
26493,-86.9565217391304,4,2,1,65,0,0
28398,-86.9565217391304,4,2,1,70,0,0
30303,-86.9565217391304,4,2,1,80,0,0
36017,-80,4,2,1,80,0,0
37922,-80,4,2,1,60,0,0
41731,-76.9230769230769,4,2,1,65,0,0
42446,-76.9230769230769,4,2,1,55,0,0
44588,-66.6666666666667,4,2,1,60,0,0
44668,-66.6666666666667,4,2,1,40,0,0
44826,-66.6666666666667,4,2,1,60,0,0
44906,-66.6666666666667,4,2,1,40,0,0
45065,-66.6666666666667,4,2,1,70,0,0
45779,-55.5555555555556,4,2,1,70,0,0
46017,-55.5555555555556,4,2,1,5,0,0
46136,-55.5555555555556,4,2,1,70,0,0
46374,-55.5555555555556,4,2,1,5,0,0
46493,-55.5555555555556,4,2,1,70,0,0
46731,-55.5555555555556,4,2,1,5,0,0
47207,-62.5,4,2,1,75,0,1
47922,-66.6666666666667,4,2,1,75,0,1
49469,-66.6666666666667,4,2,1,5,0,1
49588,-54.054054054054,4,2,1,75,0,1
51017,-62.5,4,2,1,75,0,1
51731,-66.6666666666667,4,2,1,75,0,1
53279,-66.6666666666667,4,2,1,5,0,1
53398,-66.6666666666667,4,2,1,75,0,1
54231,-66.6666666666667,4,2,1,5,0,1
54350,-66.6666666666667,4,2,1,75,0,1
55303,-83.3333333333333,4,2,1,60,0,1
56374,-66.6666666666667,4,2,1,60,0,1
57207,-83.3333333333333,4,2,1,60,0,1
58279,-66.6666666666667,4,2,1,60,0,1
58871,-66.6666666666667,4,2,1,70,0,1
61731,-83.3333333333333,4,2,1,75,0,1
62207,-83.3333333333333,4,2,1,80,0,1
62684,-62.5,4,2,1,75,0,1
63041,-62.5,4,2,1,5,0,1
63160,-66.6666666666667,4,2,1,75,0,1
64707,-66.6666666666667,4,2,1,5,0,1
64826,-54.054054054054,4,2,1,75,0,1
66493,-62.5,4,2,1,75,0,1
66969,-66.6666666666667,4,2,1,75,0,1
68517,-66.6666666666667,4,2,1,5,0,1
68636,-58.7544065804935,4,2,1,75,0,1
69469,-58.7544065804935,4,2,1,5,0,1
69588,-66.6666666666667,4,2,1,75,0,1
70303,-66.6666666666667,4,2,1,60,0,1
70541,-83.3333333333333,4,2,1,60,0,1
71612,-66.6666666666667,4,2,1,60,0,1
72446,-83.3333333333333,4,2,1,60,0,1
73517,-66.6666666666667,4,2,1,60,0,1
74112,-66.6666666666667,4,2,1,70,0,0
76136,-66.6666666666667,4,2,1,75,0,0
76969,-55.5555555555556,4,2,1,80,0,1
77207,-55.5555555555556,4,2,1,5,0,1
77326,-55.5555555555556,4,2,1,80,0,1
77565,-55.5555555555556,4,2,1,5,0,1
77684,-55.5555555555556,4,2,1,80,0,1
78041,-55.5555555555556,4,2,1,5,0,1
78160,-66.6666666666667,4,2,1,70,0,0
79946,-66.6666666666667,4,2,1,5,0,0
80065,-66.6666666666667,4,2,1,70,0,0
80779,-60.6060606060606,4,2,1,70,0,0
81731,-66.6666666666667,4,2,1,70,0,0
83636,-66.6666666666667,4,2,1,75,0,0
84112,-66.6666666666667,4,2,1,80,0,0
84588,-55.5555555555556,4,2,1,80,0,1
84826,-55.5555555555556,4,2,1,5,0,1
84946,-55.5555555555556,4,2,1,80,0,1
85184,-55.5555555555556,4,2,1,5,0,1
85303,-55.5555555555556,4,2,1,75,0,1
85541,-55.5555555555556,4,2,1,70,0,1
85660,-55.5555555555556,4,2,1,5,0,1
85779,-74.0740740740741,4,2,1,70,0,0
87207,-66.6666666666667,4,2,1,70,0,0
88398,-66.6666666666667,4,2,1,80,0,0
88752,-66.6666666666667,4,2,1,75,0,0
89112,-66.6666666666667,4,2,1,80,0,0

[Colours]
Combo1 : 241,118,238
Combo2 : 255,255,96
Combo3 : 122,227,239

[HitObjects]
247,319,779,6,0,P|288:300|331:305,2,90,2|2|2,0:0|0:0|0:0,0:0:0:0:
156,283,1493,2,0,L|148:235,2,45,2|2|2,0:0|0:0|0:0,0:0:0:0:
150,302,1850,1,2,0:0:0:0:
67,239,2088,1,2,0:0:0:0:
61,220,2207,2,0,L|69:172,1,45,0|0,1:0|1:0,0:0:0:0:
261,79,2446,6,0,B|295:109|295:109|184:89,1,155.250002961159,12|0,1:0|1:0,0:0:0:0:
155,85,2922,1,0,1:0:0:0:
223,196,3160,1,0,3:0:0:0:
225,211,3279,1,0,0:0:0:0:
228,227,3398,6,0,P|182:308|101:285,1,182.250000695229,6|0,1:0|0:0,0:0:0:0:
219,323,3874,2,0,P|225:352|229:382,1,60.7500002317429,2|0,0:0|0:0,0:0:0:0:
368,276,4112,2,0,P|338:269|308:265,1,60.7500002317429,10|0,1:0|0:0,0:0:0:0:
377,384,4350,2,0,P|406:377|436:373,1,60.7500002317429,2|0,0:0|0:0,0:0:0:0:
477,165,4588,2,0,P|465:223|455:284,1,121.500000463486,2|0,1:0|0:0,0:0:0:0:
493,318,4946,2,0,P|489:287|482:258,1,60.7500002317429,2|8,0:0|1:0,0:0:0:0:
368,168,5303,6,0,B|275:148|300:224|194:203,1,182.250000695229,2|0,0:0|0:0,0:0:0:0:
181,71,5779,2,0,P|206:93|227:122,1,60.7500002317429,2|0,0:0|0:0,0:0:0:0:
74,149,6017,2,0,P|80:115|95:83,1,60.7500002317429,10|0,1:0|0:0,0:0:0:0:
196,203,6255,2,0,P|164:214|128:217,1,60.7500002317429,2|0,0:0|0:0,0:0:0:0:
37,335,6493,2,0,P|94:314|154:306,1,121.500000463486,2|0,1:0|0:0,0:0:0:0:
187,347,6850,2,0,P|156:343|128:332,1,60.7500002317429,2|8,0:0|1:0,0:0:0:0:
326,219,7207,6,0,B|301:238|277:257|277:257|288:315|298:375,1,182.250000695229,2|0,0:0|0:0,0:0:0:0:
446,332,7684,2,0,P|416:325|386:321,1,60.7500002317429,2|0,0:0|0:0,0:0:0:0:
502,215,7922,2,0,P|506:245|512:274,1,60.7500002317429,10|0,1:0|0:0,0:0:0:0:
406,235,8160,2,0,P|412:205|416:175,1,60.7500002317429,2|0,0:0|0:0,0:0:0:0:
366,77,8398,2,0,B|314:86|314:86|300:96|300:96|250:105,1,121.500000463486,2|0,1:0|0:0,0:0:0:0:
208,133,8755,2,0,L|271:144,1,60.7500002317429,2|0,0:0|1:0,0:0:0:0:
176,15,9112,6,0,P|141:27|116:51,1,67.5000025749208,14|0,1:0|0:0,0:0:0:0:
100,141,9350,1,0,1:0:0:0:
6,183,9588,5,10,1:0:0:0:
21,216,9707,1,8,1:0:0:0:
52,238,9826,1,2,1:0:0:0:
47,325,10065,5,10,3:0:0:0:
83,328,10184,1,8,3:0:0:0:
117,312,10303,1,10,1:0:0:0:
137,282,10422,1,8,1:0:0:0:
140,244,10541,1,0,1:0:0:0:
160,214,10660,1,2,1:0:0:0:
194,198,10779,1,8,1:0:0:0:
230,201,10898,1,0,1:0:0:0:
259,221,11017,2,0,P|265:252|270:284,1,60.7500002317429,10|10,1:0|1:0,0:0:0:0:
361,353,11255,6,0,P|368:308|376:259,1,94.499997116089,14|2,1:2|0:0,0:0:0:0:
351,142,11731,1,2,1:0:0:0:
351,142,11969,2,0,P|400:171|446:169,1,94.499997116089,2|0,0:0|1:0,0:0:0:0:
469,51,12446,1,2,0:0:0:0:
321,57,12684,2,0,P|273:88|253:135,1,94.499997116089,2|2,1:0|0:0,0:0:0:0:
276,205,13160,5,2,1:0:0:0:
165,124,13398,1,2,0:0:0:0:
72,200,13636,1,2,1:0:0:0:
72,200,13874,2,0,P|117:209|166:216,1,94.499997116089,2|0,0:0|1:0,0:0:0:0:
237,301,14350,2,0,P|190:308|143:317,1,94.499997116089,2|0,0:0|1:0,0:0:0:0:
248,197,14826,1,2,0:0:0:0:
313,335,15065,6,0,P|359:344|406:351,1,94.499997116089,2|2,1:0|0:0,0:0:0:0:
468,197,15541,1,2,1:0:0:0:
468,197,15779,2,0,P|353:195|332:259,1,188.999994232178,2|2,0:0|0:0,0:0:0:0:
227,106,16493,1,2,1:0:0:0:
377,147,16731,1,2,0:0:0:0:
245,206,16969,6,0,P|196:201|156:181,1,94.499997116089,2|2,1:0|0:0,0:0:0:0:
31,94,17446,1,2,1:0:0:0:
31,94,17684,2,0,P|62:172|63:288,1,188.999994232178,2|2,0:0|0:0,0:0:0:0:
49,281,18279,1,0,0:0:0:0:
32,285,18398,1,0,1:0:0:0:
152,220,18636,1,2,0:0:0:0:
169,225,18755,1,0,0:0:0:0:
186,229,18874,6,0,P|203:273|203:320,1,94.499997116089,2|2,1:0|0:0,0:0:0:0:
305,289,19350,1,2,1:0:0:0:
305,289,19588,2,0,B|299:255|312:224|334:203|334:203|360:181|370:148|365:118,1,188.999994232178,2|2,0:0|0:0,0:0:0:0:
194,101,20303,2,0,P|233:126|280:135,1,94.499997116089,2|2,1:0|0:0,0:0:0:0:
372,26,20779,5,2,1:0:0:0:
467,85,21017,1,2,0:0:0:0:
426,220,21255,1,2,1:0:0:0:
426,220,21493,2,0,B|348:201|364:254|287:231,1,141.749995674133,2|2,0:0|0:0,0:0:0:0:
280,216,21969,2,0,P|322:222|363:252,1,94.499997116089,2|0,0:0|1:0,0:0:0:0:
295,122,22446,1,2,0:0:0:0:
204,250,22684,5,2,1:0:0:0:
86,228,22922,1,2,0:0:0:0:
21,129,23160,1,2,1:0:0:0:
139,107,23398,1,2,0:0:0:0:
299,26,23636,2,0,P|252:21|205:10,1,94.499997116089,2|2,1:0|0:0,0:0:0:0:
241,151,24112,2,0,P|287:140|334:135,1,94.499997116089,2|2,1:0|0:0,0:0:0:0:
476,99,24588,6,0,P|448:142|438:193,1,103.500001974106,2|2,1:0|0:0,0:0:0:0:
502,236,24946,2,0,P|452:227|409:255,1,103.500001974106,2|2,0:0|0:0,0:0:0:0:
435,322,25303,2,0,B|397:287|397:287|279:307,1,155.250002961159,2|0,0:0|0:0,0:0:0:0:
261,312,25779,1,0,0:0:0:0:
183,204,26017,1,0,1:0:0:0:
116,319,26255,1,10,1:0:0:0:
128,295,26374,1,8,1:0:0:0:
116,271,26493,6,0,P|64:260|11:253,1,103.500001974106,6|2,1:0|0:0,0:0:0:0:
90,124,26969,2,0,P|141:113|194:106,1,103.500001974106,2|2,1:0|0:0,0:0:0:0:
313,225,27446,1,2,1:0:0:0:
219,205,27684,1,2,0:0:0:0:
411,153,27922,1,2,1:0:0:0:
505,173,28160,1,2,0:0:0:0:
375,285,28398,5,2,1:0:0:0:
328,144,28636,1,10,1:0:0:0:
325,136,28755,1,2,1:0:0:0:
292,39,28993,1,2,1:0:0:0:
289,31,29112,1,2,1:0:0:0:
231,123,29350,5,8,1:3:0:0:
252,138,29469,1,0,1:0:0:0:
276,147,29588,1,8,1:3:0:0:
302,149,29707,1,0,1:0:0:0:
328,144,29827,1,8,3:0:0:0:
361,124,29946,1,8,3:0:0:0:
399,125,30065,1,8,3:0:0:0:
432,145,30184,1,8,3:0:0:0:
449,179,30303,6,0,P|456:230|466:280,1,103.500001974106,6|2,1:2|0:0,0:0:0:0:
314,343,30779,2,0,P|323:292|331:241,1,103.500001974106,10|2,1:0|0:0,0:0:0:0:
140,283,31255,1,2,1:0:0:0:
140,283,31374,2,0,P|186:321|242:311,1,103.500001974106,0|2,0:0|0:0,0:0:0:0:
235,302,31731,1,8,1:0:0:0:
238,164,31969,6,0,B|192:139|139:160|139:160|111:210|46:207,1,207.000003948212,2|2,0:0|0:0,0:0:0:0:
30,20,32684,2,0,P|51:61|60:123,1,103.500001974106,10|2,1:0|0:0,0:0:0:0:
175,18,33160,2,0,P|235:14|274:55,1,103.500001974106,2|0,1:0|0:0,0:0:0:0:
263,47,33517,1,2,0:0:0:0:
260,55,33636,1,8,1:0:0:0:
173,176,33874,2,0,P|169:146|163:120,1,51.7500009870529,2|0,0:0|0:0,0:0:0:0:
277,165,34112,6,0,P|271:217|258:266,1,103.500001974106,2|2,1:0|0:0,0:0:0:0:
398,349,34588,2,0,P|385:298|379:247,1,103.500001974106,10|2,1:0|0:0,0:0:0:0:
502,124,35065,1,2,1:0:0:0:
463,209,35303,1,2,0:0:0:0:
347,70,35541,1,10,1:0:0:0:
375,158,35779,1,2,0:0:0:0:
319,58,36017,6,0,B|253:51|274:91|202:78,1,112.5,2|2,1:0|0:0,0:0:0:0:
116,102,36374,2,0,B|151:127|151:127|138:198,1,112.5,2|2,0:0|0:0,0:0:0:0:
97,282,36731,2,0,P|125:274|152:272,1,56.25,2|0,0:0|0:0,0:0:0:0:
282,306,36969,1,0,1:0:0:0:
181,384,37207,1,12,1:0:0:0:
385,367,37446,1,8,1:0:0:0:
387,339,37565,1,8,1:0:0:0:
388,311,37684,1,8,3:0:0:0:
390,283,37803,1,8,3:0:0:0:
392,255,37922,6,0,P|342:203|281:190,1,112.5,6|2,1:0|0:0,0:0:0:0:
313,80,38398,2,0,P|244:96|201:143,1,112.5,2|2,1:0|0:0,0:0:0:0:
121,60,38874,2,0,P|101:128|120:188,1,112.5,2|2,1:0|0:0,0:0:0:0:
123,152,39231,1,2,0:0:0:0:
121,129,39350,1,0,1:0:0:0:
19,203,39588,1,2,0:0:0:0:
6,219,39706,1,0,0:0:0:0:
8,242,39825,5,2,1:0:0:0:
198,292,40065,1,2,0:0:0:0:
69,353,40303,1,2,1:0:0:0:
186,197,40541,2,0,B|284:186|243:262|378:239,1,168.75,2|2,0:0|0:0,0:0:0:0:
367,207,41017,2,0,P|331:214|308:233,1,56.25,2|0,0:0|0:0,0:0:0:0:
279,117,41255,1,0,1:0:0:0:
451,116,41493,2,0,P|423:112|399:98,1,56.25,6|0,0:2|0:0,0:0:0:0:
300,9,41731,6,0,P|331:3|363:-2,1,58.4999973220826,6|0,1:0|0:0,0:0:0:0:
279,117,41969,1,10,1:3:0:0:
248,111,42088,2,0,P|217:107|184:99,1,58.4999973220826,2|0,1:0|1:0,0:0:0:0:
81,46,42326,1,10,3:0:0:0:
87,77,42445,2,0,P|93:108|98:140,1,58.4999973220826,2|0,3:0|0:0,0:0:0:0:
48,237,42684,6,0,P|105:226|153:263,1,116.999994644165,8|2,3:0|1:0,0:0:0:0:
255,324,43041,1,0,1:0:0:0:
249,293,43160,2,0,L|237:229,2,58.4999973220826,2|0|8,3:0|3:0|3:0,0:0:0:0:
293,157,43636,6,0,P|256:142|224:141,1,58.4999973220826,6|0,1:0|0:0,0:0:0:0:
336,70,43874,1,8,1:0:0:0:
371,44,43993,1,8,1:0:0:0:
413,32,44112,1,8,1:0:0:0:
457,32,44231,1,8,1:0:0:0:
498,47,44350,1,8,3:0:0:0:
498,172,44588,6,0,P|464:168|438:152,2,45.0000017166138,8|8|8,3:1|1:0|1:0,0:0:0:0:
387,273,44826,2,0,P|408:265|430:264,2,45.0000017166138,8|8|8,3:1|1:0|1:0,0:0:0:0:
318,306,45065,1,0,1:0:0:0:
281,266,45184,1,0,1:0:0:0:
229,254,45303,1,8,3:0:0:0:
179,273,45422,1,8,3:0:0:0:
179,273,45779,6,0,P|215:207|164:150,1,161.999995056153,8|0,3:1|0:0,0:0:0:0:
22,113,46136,6,0,P|61:178|135:162,1,161.999995056153,8|0,3:1|0:0,0:0:0:0:
239,57,46493,6,0,P|162:58|139:130,1,161.999995056153,8|0,3:1|0:0,0:0:0:0:
138,129,47207,6,0,P|236:55|237:166,1,288,6|0,1:0|0:0,0:0:0:0:
188,242,47803,1,0,0:0:0:0:
188,242,47922,2,0,B|267:240|237:280|325:280,1,135.000005149842,10|0,1:0|0:0,0:0:0:0:
409,255,48279,1,2,0:0:0:0:
409,255,48398,6,0,P|400:291|395:333,1,67.5000025749208,2|0,1:0|0:0,0:0:0:0:
341,185,48636,2,0,P|376:173|416:157,1,67.5000025749208,2|0,0:0|0:0,0:0:0:0:
314,279,48874,2,0,P|286:253|252:227,1,67.5000025749208,10|0,1:0|0:0,0:0:0:0:
88,268,49112,2,0,P|166:354|226:321,1,202.500007724762,2|0,0:0|0:0,0:0:0:0:
183,146,49588,6,0,B|91:132|119:198|22:182,1,166.499999364853,2|10,0:0|0:0,0:0:0:0:
153,58,50065,6,0,B|193:23|193:23|305:43,1,166.499999364853,2|0,0:0|1:0,0:0:0:0:
304,205,50541,6,0,B|308:228|295:246|295:246|262:205|263:164|293:124,1,166.499999364853,2|8,0:0|1:0,0:0:0:0:
497,123,51017,6,0,P|481:238|396:158,1,288,6|0,0:2|0:0,0:0:0:0:
348,74,51612,1,0,0:0:0:0:
348,74,51731,2,0,B|269:72|299:112|211:112,1,135.000005149842,10|0,1:0|0:0,0:0:0:0:
87,73,52088,1,2,0:0:0:0:
87,73,52207,6,0,P|113:61|152:53,1,67.5000025749208,2|0,1:0|0:0,0:0:0:0:
115,198,52446,2,0,P|91:180|64:148,1,67.5000025749208,2|0,0:0|0:0,0:0:0:0:
211,109,52684,2,0,P|207:137|193:177,1,67.5000025749208,10|0,1:0|0:0,0:0:0:0:
132,325,52922,6,0,P|217:258|294:302,1,202.500007724762,2|0,0:0|0:0,0:0:0:0:
314,374,53398,2,0,P|347:362|384:361,1,67.5000025749208,2|0,0:0|0:0,0:0:0:0:
433,279,53636,2,0,P|399:277|367:265,1,67.5000025749208,10|0,1:0|0:0,0:0:0:0:
391,105,53874,6,0,B|442:58|442:58|418:191,1,202.500007724762,2|0,0:0|0:0,0:0:0:0:
300,118,54350,2,0,P|301:84|313:52,1,67.5000025749208,2|0,0:0|0:0,0:0:0:0:
200,94,54588,2,0,P|211:125|212:159,1,67.5000025749208,10|0,1:0|0:0,0:0:0:0:
292,215,54826,1,2,3:0:0:0:
292,215,54946,1,0,3:0:0:0:
292,215,55065,1,4,1:0:0:0:
233,341,55303,5,2,0:0:0:0:
201,335,55422,1,2,0:0:0:0:
132,347,55541,5,10,1:0:0:0:
121,316,55660,1,2,0:0:0:0:
76,262,55779,5,2,0:0:0:0:
97,237,55898,1,2,0:0:0:0:
121,171,56017,5,2,1:0:0:0:
153,176,56136,2,0,L|223:188,1,53.9999983520508,2|0,0:0|0:0,0:0:0:0:
327,172,56374,2,0,B|285:197|285:197|304:308,1,135.000005149842,2|0,0:0|0:0,0:0:0:0:
453,287,56731,2,0,P|414:277|382:274,1,67.5000025749208,2|0,0:0|0:0,0:0:0:0:
347,351,56969,1,0,1:0:0:0:
217,320,57207,5,2,0:0:0:0:
211,288,57326,1,2,0:0:0:0:
253,231,57446,5,10,1:0:0:0:
259,199,57565,1,2,0:0:0:0:
217,142,57684,5,2,0:0:0:0:
211,110,57803,1,2,0:0:0:0:
253,53,57922,5,2,1:0:0:0:
259,21,58041,2,0,L|312:11,1,53.9999983520508,2|0,0:0|0:0,0:0:0:0:
366,115,58279,2,0,B|389:144|389:144|285:126,1,135.000005149842,2|0,0:0|0:0,0:0:0:0:
467,97,58636,2,0,L|479:167,1,67.5000025749208,2|0,0:0|0:0,0:0:0:0:
512,242,58874,1,4,1:2:0:0:
402,325,59112,6,0,P|368:317|335:313,1,67.5000025749208,2|0,0:0|0:0,0:0:0:0:
283,218,59350,2,0,P|317:210|349:206,1,67.5000025749208,10|0,1:0|0:0,0:0:0:0:
240,363,59588,2,0,P|236:329|228:296,1,67.5000025749208,2|0,0:0|0:0,0:0:0:0:
76,333,59826,6,0,P|109:336|142:344,1,67.5000025749208,2|0,1:0|0:0,0:0:0:0:
155,185,60065,2,0,P|147:217|143:251,1,67.5000025749208,2|0,0:0|0:0,0:0:0:0:
43,224,60303,2,0,P|39:190|31:157,1,67.5000025749208,10|0,1:0|0:0,0:0:0:0:
119,40,60541,2,0,P|115:73|107:106,1,67.5000025749208,2|0,0:0|0:0,0:0:0:0:
219,37,60779,5,4,1:0:0:0:
272,18,60898,1,0,1:0:0:0:
327,32,61017,1,2,1:0:0:0:
368,75,61136,1,0,1:0:0:0:
379,132,61255,1,2,1:0:0:0:
356,187,61374,1,0,1:0:0:0:
309,220,61493,1,2,1:0:0:0:
250,225,61612,1,0,1:0:0:0:
200,196,61731,2,0,L|211:132,3,53.9999983520508,10|8|10|8,1:2|1:2|1:2|1:2,0:0:0:0:
194,327,62207,5,10,3:0:0:0:
262,315,62326,1,8,3:0:0:0:
330,303,62445,1,8,3:0:0:0:
398,290,62564,1,8,3:0:0:0:
467,279,62684,6,0,P|443:189|325:182,1,216,6|0,1:0|0:0,0:0:0:0:
227,248,63160,2,0,B|261:218|261:218|243:115,1,135.000005149842,10|0,1:0|0:0,0:0:0:0:
100,63,63517,1,2,0:0:0:0:
100,63,63636,6,0,P|132:74|170:75,1,67.5000025749208,2|0,1:0|0:0,0:0:0:0:
34,169,63874,2,0,P|28:134|9:101,1,67.5000025749208,2|0,0:0|0:0,0:0:0:0:
159,173,64112,2,0,P|132:195|112:228,1,67.5000025749208,10|0,1:0|0:0,0:0:0:0:
236,384,64350,2,0,P|178:312|90:357,1,202.500007724762,2|0,0:0|0:0,0:0:0:0:
299,268,64826,6,0,B|297:183|240:209|245:113,1,166.499999364853,2|10,0:0|0:0,0:0:0:0:
504,250,65303,6,0,B|433:237|433:237|388:262|392:327,1,166.499999364853,2|0,0:0|1:0,0:0:0:0:
324,59,65779,6,0,B|363:65|363:65|390:143|390:143|437:152,2,166.499999364853,6|8|6,1:0|3:1|1:2,0:0:0:0:
210,32,66493,6,0,P|200:84|115:76,1,144,0|0,1:0|0:0,0:0:0:0:
1,64,66850,1,0,0:0:0:0:
1,64,66969,2,0,P|37:105|44:192,1,135.000005149842,10|0,1:0|0:0,0:0:0:0:
29,287,67326,1,2,0:0:0:0:
29,287,67446,6,0,P|61:275|99:274,1,67.5000025749208,2|0,1:0|0:0,0:0:0:0:
232,346,67684,2,0,P|205:323|185:290,1,67.5000025749208,2|0,0:0|0:0,0:0:0:0:
181,140,67922,2,0,P|174:173|156:207,1,67.5000025749208,10|0,1:0|0:0,0:0:0:0:
258,86,68160,6,0,B|306:71|362:89|334:122|396:144|460:118,1,202.500007724762,2|0,0:0|0:0,0:0:0:0:
423,226,68636,2,0,P|457:255|506:247,1,76.5900007888527,2|0,0:0|0:0,0:0:0:0:
333,273,68874,2,0,P|324:317|356:355,1,76.5900007888527,10|0,1:0|0:0,0:0:0:0:
239,236,69112,6,0,P|132:249|115:355,1,229.770002366558,2|0,0:0|0:0,0:0:0:0:
63,184,69588,2,0,P|31:168|-6:165,1,67.5000025749208,2|0,0:0|0:0,0:0:0:0:
82,90,69826,2,0,P|113:74|151:71,1,67.5000025749208,10|0,1:0|0:0,0:0:0:0:
220,141,70065,1,2,3:0:0:0:
220,141,70184,1,0,3:0:0:0:
220,141,70303,1,4,1:0:0:0:
313,57,70541,5,2,0:0:0:0:
345,63,70660,1,2,0:0:0:0:
414,51,70779,5,10,1:0:0:0:
425,82,70898,1,2,0:0:0:0:
470,136,71017,5,2,0:0:0:0:
449,161,71136,1,2,0:0:0:0:
425,227,71255,5,2,1:0:0:0:
393,222,71374,2,0,L|339:212,1,53.9999983520508,2|0,0:0|0:0,0:0:0:0:
220,141,71612,2,0,B|229:196|229:196|240:210|240:210|252:281,1,135.000005149842,2|0,0:0|0:0,0:0:0:0:
376,359,71969,2,0,P|337:349|305:346,1,67.5000025749208,2|0,0:0|0:0,0:0:0:0:
214,359,72207,1,0,1:0:0:0:
90,338,72446,5,2,0:0:0:0:
84,306,72565,1,2,0:0:0:0:
129,252,72684,5,10,1:0:0:0:
139,221,72803,1,2,0:0:0:0:
205,197,72922,5,2,0:0:0:0:
229,175,73041,1,2,0:0:0:0:
298,187,73160,5,2,1:0:0:0:
330,180,73279,2,0,L|400:167,1,53.9999983520508,2|0,0:0|0:0,0:0:0:0:
319,83,73517,2,0,L|177:58,1,135.000005149842,2|0,0:0|0:0,0:0:0:0:
84,13,73874,2,0,L|96:83,1,67.5000025749208,2|0,1:0|0:0,0:0:0:0:
14,159,74112,6,0,B|90:152|62:203|147:195,1,135.000005149842,6|2,1:0|0:0,0:0:0:0:
266,156,74469,1,0,0:0:0:0:
266,156,74588,2,0,P|224:212|220:297,1,135.000005149842,10|2,1:0|0:0,0:0:0:0:
359,342,74946,1,0,0:0:0:0:
359,342,75065,6,0,P|336:317|320:287,1,67.5000025749208,10|0,1:0|0:0,0:0:0:0:
391,217,75303,2,0,P|377:185|372:152,1,67.5000025749208,8|2,1:0|0:0,0:0:0:0:
463,110,75541,2,0,P|461:76|467:43,1,67.5000025749208,8|0,1:0|0:0,0:0:0:0:
373,14,75779,6,0,P|329:63|263:53,1,135.000005149842,14|2,1:2|1:0,0:0:0:0:
170,13,76136,2,0,L|176:52,2,33.7500012874604,8|8|10,1:0|1:0|1:0,0:0:0:0:
100,43,76374,1,10,1:0:0:0:
95,66,76493,1,2,1:0:0:0:
91,90,76612,1,0,1:0:0:0:
87,113,76731,1,10,3:0:0:0:
83,137,76850,1,8,3:0:0:0:
79,161,76969,6,0,P|118:226|192:210,1,161.999995056153,6|0,3:0|0:0,0:0:0:0:
289,75,77326,6,0,P|252:141|303:197,1,161.999995056153,6|0,3:0|0:0,0:0:0:0:
468,213,77684,6,0,P|371:241|437:333,1,242.999992584229,6|0,3:0|0:0,0:0:0:0:
284,305,78160,6,0,P|251:295|217:293,1,67.5000025749208,2|0,0:0|0:0,0:0:0:0:
161,198,78398,2,0,P|194:188|228:186,1,67.5000025749208,10|0,1:0|0:0,0:0:0:0:
111,354,78636,2,0,P|121:321|123:287,1,67.5000025749208,2|0,0:0|0:0,0:0:0:0:
47,145,78874,2,0,P|49:178|59:210,1,67.5000025749208,2|0,1:0|0:0,0:0:0:0:
190,89,79112,2,0,P|156:86|124:76,1,67.5000025749208,2|0,0:0|0:0,0:0:0:0:
254,16,79350,2,0,P|286:6|319:3,1,67.5000025749208,10|0,1:0|0:0,0:0:0:0:
418,115,79588,6,0,B|365:135|348:184|348:184|346:130|306:94,1,202.500007724762,2|0,0:0|0:0,0:0:0:0:
188,160,80065,2,0,P|220:170|253:173,1,67.5000025749208,2|0,0:0|0:0,0:0:0:0:
145,287,80303,2,0,P|137:254|123:224,1,67.5000025749208,10|0,1:0|0:0,0:0:0:0:
276,260,80541,2,0,P|251:282|232:309,1,67.5000025749208,2|0,0:0|0:0,0:0:0:0:
429,319,80779,6,0,B|408:240|371:275|351:188,1,148.500001416206,2|2,1:0|0:0,0:0:0:0:
378,180,81136,1,0,0:0:0:0:
407,180,81255,1,10,1:0:0:0:
427,58,81493,1,14,0:0:0:0:
402,74,81612,1,0,0:0:0:0:
373,74,81731,6,0,L|302:61,1,67.5000025749208,2|0,1:0|0:0,0:0:0:0:
207,162,81969,2,0,L|278:149,1,67.5000025749208,2|0,1:0|0:0,0:0:0:0:
156,55,82207,5,2,1:0:0:0:
136,61,82326,1,0,1:0:0:0:
119,74,82445,1,2,1:0:0:0:
106,90,82564,1,0,1:0:0:0:
99,110,82684,5,2,1:0:0:0:
119,126,82803,1,0,1:0:0:0:
135,147,82922,1,0,1:0:0:0:
144,174,83041,1,2,1:0:0:0:
145,199,83160,5,0,1:0:0:0:
117,213,83279,1,0,1:0:0:0:
84,220,83398,1,2,1:0:0:0:
48,218,83517,1,0,1:0:0:0:
17,205,83636,5,10,1:0:0:0:
54,173,83755,1,10,1:0:0:0:
103,163,83874,1,10,1:0:0:0:
150,177,83993,1,10,1:0:0:0:
185,212,84112,5,10,1:3:0:0:
221,256,84231,1,8,1:3:0:0:
277,281,84350,1,10,3:0:0:0:
339,272,84469,1,8,3:0:0:0:
385,235,84588,6,0,P|346:170|270:183,1,161.999995056153,14|0,3:0|0:0,0:0:0:0:
198,389,84946,6,0,P|234:323|185:264,1,161.999995056153,6|0,3:0|0:0,0:0:0:0:
0,238,85303,6,0,P|75:236|39:113,1,242.999992584229,6|0,3:0|0:0,0:0:0:0:
188,166,85779,6,0,P|218:162|246:151,1,60.7500002317429,2|0,0:0|0:0,0:0:0:0:
315,0,86017,2,0,P|303:27|297:57,1,60.7500002317429,10|0,1:0|0:0,0:0:0:0:
395,192,86255,2,0,P|377:168|354:147,1,60.7500002317429,2|0,0:0|0:0,0:0:0:0:
266,310,86493,2,0,P|323:289|383:281,1,121.500000463486,2|0,1:0|0:0,0:0:0:0:
416,322,86850,2,0,P|385:318|357:307,1,60.7500002317429,2|8,0:0|1:0,0:0:0:0:
216,176,87207,6,0,P|253:181|298:215,1,67.5000025749208,6|0,1:2|0:0,0:0:0:0:
99,329,87446,1,0,1:0:0:0:
181,372,87684,5,2,1:0:0:0:
191,320,87803,1,0,1:0:0:0:
175,271,87922,1,2,3:0:0:0:
136,236,88041,1,0,3:0:0:0:
119,187,88160,1,10,3:0:0:0:
131,136,88279,1,8,3:0:0:0:
166,98,88398,5,12,3:2:0:0:
333,272,88755,5,12,3:2:0:0:
99,329,89112,5,12,3:1:0:0:
