osu file format v14

[General]
AudioFilename: audio.mp3
AudioLeadIn: 0
PreviewTime: 46967
Countdown: 0
SampleSet: Soft
StackLeniency: 0.3
Mode: 0
LetterboxInBreaks: 0
WidescreenStoryboard: 1

[Editor]
DistanceSpacing: 1.1
BeatDivisor: 4
GridSize: 16
TimelineZoom: 2.1

[Metadata]
Title:PaPaPa (TV Size)
TitleUnicode:パパパ (TV Size)
Artist:Saito Shuka
ArtistUnicode:斉藤朱夏
Creator:NotABox
Version:Normal
Source:俺を好きなのはお前だけかよ
Tags:ORESUKI Ore wo Suki nano wa Omae dake ka yo Are you the only one who loves me? Sumireko Sanshokuin anime japanese op opening Kei Hayashi jpop j-pop pop Ralkinson
BeatmapID:2721475
BeatmapSetID:1070148

[Difficulty]
HPDrainRate:4
CircleSize:3
OverallDifficulty:4
ApproachRate:5
SliderMultiplier:2.2
SliderTickRate:1

[Events]
//Background and Video events
0,0,"pansybgsmol.jpg",0,0
//Break Periods
//Storyboard Layer 0 (Background)
//Storyboard Layer 1 (Fail)
//Storyboard Layer 2 (Pass)
//Storyboard Layer 3 (Foreground)
//Storyboard Layer 4 (Overlay)
//Storyboard Sound Samples

[TimingPoints]
-173,476.190476190476,4,2,1,60,1,0
3398,-142.857142857143,4,2,1,70,0,0
11255,-142.857142857143,4,2,1,60,0,0
26493,-142.857142857143,4,2,1,65,0,0
28398,-142.857142857143,4,2,1,70,0,0
30303,-142.857142857143,4,2,1,80,0,0
37922,-142.857142857143,4,2,1,60,0,0
41731,-142.857142857143,4,2,1,65,0,0
42445,-142.857142857143,4,2,1,55,0,0
42684,-142.857142857143,4,2,1,55,0,0
44588,-142.857142857143,4,2,1,60,0,0
45065,-142.857142857143,4,2,1,70,0,0
47207,-142.857142857143,4,2,1,75,0,1
55303,-142.857142857143,4,2,1,60,0,1
58871,-142.857142857143,4,2,1,70,0,1
60541,-142.857142857143,4,2,1,70,0,0
61731,-142.857142857143,4,2,1,75,0,0
62207,-142.857142857143,4,2,1,80,0,0
62684,-142.857142857143,4,2,1,75,0,1
70303,-142.857142857143,4,2,1,60,0,1
74112,-142.857142857143,4,2,1,70,0,0
76017,-142.857142857143,4,2,1,70,0,0
76255,-142.857142857143,4,2,1,75,0,0
76969,-142.857142857143,4,2,1,80,0,1
77088,-142.857142857143,4,2,1,80,0,0
77326,-142.857142857143,4,2,1,80,0,1
77446,-142.857142857143,4,2,1,80,0,0
77684,-142.857142857143,4,2,1,80,0,1
78160,-142.857142857143,4,2,1,70,0,0
83636,-142.857142857143,4,2,1,75,0,0
84112,-142.857142857143,4,2,1,80,0,0
84588,-142.857142857143,4,2,1,80,0,1
84707,-142.857142857143,4,2,1,80,0,0
84946,-142.857142857143,4,2,1,80,0,1
85065,-142.857142857143,4,2,1,80,0,0
85303,-142.857142857143,4,2,1,75,0,1
85779,-142.857142857143,4,2,1,70,0,0
88398,-142.857142857143,4,2,1,80,0,0
88755,-142.857142857143,4,2,1,75,0,0
89112,-142.857142857143,4,2,1,80,0,0

[Colours]
Combo1 : 241,118,238
Combo2 : 255,255,96
Combo3 : 122,227,239

[HitObjects]
228,134,2446,5,12,1:0:0:0:
228,134,3398,6,0,B|285:105|343:134|328:162|386:191|443:162,1,230.99999295044,6|10,1:0|1:0,0:0:0:0:
404,85,4350,1,2,0:0:0:0:
404,85,4588,2,0,B|430:63|430:63|514:70,2,115.49999647522,2|2|2,1:0|0:0|0:0,0:0:0:0:
366,253,5779,5,2,0:0:0:0:
366,253,6017,2,0,L|289:259,1,76.9999976501466,10|2,1:0|0:0,0:0:0:0:
205,269,6493,2,0,P|120:264|73:334,1,153.999995300293,2|8,1:0|1:0,0:0:0:0:
158,338,7207,6,0,B|152:270|152:270|140:255|140:255|134:187,1,153.999995300293,2|2,0:0|0:0,0:0:0:0:
166,109,7922,1,10,1:0:0:0:
292,222,8398,2,0,L|467:237,1,153.999995300293,2|0,1:0|1:0,0:0:0:0:
504,174,9112,5,14,1:0:0:0:
428,28,9588,1,10,1:0:0:0:
428,28,9826,2,0,L|351:35,1,76.9999976501466,2|10,1:0|3:0,0:0:0:0:
275,68,10303,1,10,1:0:0:0:
275,68,10541,2,0,L|198:61,2,76.9999976501466,0|8|10,1:0|1:0|1:0,0:0:0:0:
302,148,11255,6,0,B|343:157|382:140|367:128|406:111|448:121,1,153.999995300293,14|2,1:2|1:0,0:0:0:0:
426,202,11969,1,2,0:0:0:0:
333,345,12446,1,2,0:0:0:0:
333,345,12684,2,0,L|256:352,1,76.9999976501466,2|2,1:0|0:0,0:0:0:0:
206,284,13160,6,0,L|129:277,2,76.9999976501466,2|2|2,1:0|0:0|1:0,0:0:0:0:
244,208,13874,2,0,B|270:158|270:158|231:68,1,153.999995300293,2|2,0:0|0:0,0:0:0:0:
70,33,14826,1,2,0:0:0:0:
70,32,15065,6,0,P|55:68|52:106,1,76.9999976501466,2|2,1:0|0:0,0:0:0:0:
106,179,15541,1,2,1:0:0:0:
106,179,15779,2,0,P|153:228|248:211,1,153.999995300293,2|2,0:0|0:0,0:0:0:0:
188,150,16493,1,2,1:0:0:0:
309,32,16969,6,0,L|317:108,1,76.9999976501466,2|2,1:0|0:0,0:0:0:0:
365,185,17446,1,2,1:0:0:0:
365,185,17684,2,0,B|407:195|448:177|433:165|473:147|516:157,1,153.999995300293,2|2,0:0|0:0,0:0:0:0:
412,294,18636,1,2,0:0:0:0:
412,294,18874,6,0,L|420:370,2,76.9999976501466,2|2|2,1:0|0:0|1:0,0:0:0:0:
441,211,19588,2,0,B|389:205|389:205|352:226|352:226|294:221,1,153.999995300293,2|2,0:0|0:0,0:0:0:0:
229,277,20303,1,2,1:0:0:0:
67,228,20779,6,0,L|59:152,1,76.9999976501466,2|2,1:0|0:0,0:0:0:0:
8,87,21255,1,2,1:0:0:0:
8,87,21493,2,0,P|67:132|142:122,1,153.999995300293,2|2,0:0|0:0,0:0:0:0:
267,4,22446,1,2,0:0:0:0:
267,4,22684,6,0,L|343:12,1,76.9999976501466,2|2,1:0|0:0,0:0:0:0:
366,93,23160,2,0,L|442:85,1,76.9999976501466,2|2,1:0|0:0,0:0:0:0:
505,149,23636,1,2,1:0:0:0:
505,149,23874,2,0,L|512:225,2,76.9999976501466,2|2|2,0:0|1:0|0:0,0:0:0:0:
442,84,24588,6,0,B|391:79|391:79|378:86|378:86|328:80,2,115.49999647522,2|2|2,1:0|0:0|0:0,0:0:0:0:
289,159,25779,2,0,L|178:168,1,76.9999976501466,0|0,0:0|1:0,0:0:0:0:
162,234,26255,1,10,1:0:0:0:
162,234,26493,6,0,P|159:272|174:307,1,76.9999976501466,6|2,1:0|0:0,0:0:0:0:
254,333,26969,2,0,P|288:351|326:351,1,76.9999976501466,2|2,1:0|0:0,0:0:0:0:
389,294,27446,1,2,1:0:0:0:
389,294,27684,1,2,0:0:0:0:
335,226,27922,1,2,1:0:0:0:
348,57,28398,6,0,B|308:53|308:53|280:69|280:69|236:65,2,115.49999647522,2|2|2,1:0|1:0|1:0,0:0:0:0:
413,118,29350,1,8,1:3:0:0:
413,118,29588,1,8,1:3:0:0:
380,197,29826,2,0,L|387:274,1,76.9999976501466,8|8,3:0|3:0,0:0:0:0:
346,348,30303,5,6,1:2:0:0:
207,252,30779,2,0,L|127:245,1,76.9999976501466,10|2,1:0|0:0,0:0:0:0:
63,194,31255,2,0,B|85:169|85:169|78:86,2,115.49999647522,2|2|2,1:0|0:0|0:0,0:0:0:0:
34,364,32446,5,2,0:0:0:0:
34,364,32684,2,0,P|65:343|108:340,1,76.9999976501466,10|2,1:0|0:0,3:0:0:0:
185,361,33160,2,0,B|197:319|178:281|168:292|150:253|161:212,1,153.999995300293,2|8,1:0|1:0,0:0:0:0:
288,101,34112,6,0,L|364:95,1,76.9999976501466,2|2,1:0|0:0,0:0:0:0:
444,62,34588,2,0,P|450:99|441:136,1,76.9999976501466,10|2,1:0|0:0,0:0:0:0:
369,183,35065,2,0,B|362:250|362:250|371:267|371:267|363:333,1,153.999995300293,2|10,1:0|1:0,0:0:0:0:
236,222,36017,6,0,B|215:204|215:204|127:212,2,115.49999647522,2|2|2,1:0|0:0|0:0,0:0:0:0:
98,133,37207,1,12,1:0:0:0:
98,133,37446,2,0,L|21:126,1,76.9999976501466,8|8,1:0|3:0,0:0:0:0:
44,44,37922,6,0,L|121:37,1,76.9999976501466,6|2,1:0|0:0,0:0:0:0:
193,79,38398,1,2,1:0:0:0:
343,0,38874,2,0,B|393:4|393:4|404:13|404:13|455:17,2,115.49999647522,2|2|2,1:0|0:0|0:0,0:0:0:0:
283,59,39826,6,0,L|289:136,1,76.9999976501466,2|2,1:0|0:0,0:0:0:0:
347,205,40303,1,2,1:0:0:0:
347,205,40541,2,0,P|288:160|212:167,1,153.999995300293,2|2,0:0|0:0,0:0:0:0:
50,142,41493,5,6,0:2:0:0:
50,142,41731,2,0,B|53:101|53:101|73:77|73:77|77:33,2,115.49999647522,6|2|2,1:0|1:0|3:0,0:0:0:0:
100,210,42684,2,0,L|94:287,1,76.9999976501466,8|2,3:0|1:0,0:0:0:0:
34,347,43160,1,2,3:0:0:0:
197,376,43636,6,0,L|274:370,1,76.9999976501466,6|8,1:0|1:0,0:0:0:0:
339,316,44112,2,0,L|416:322,1,76.9999976501466,8|8,1:0|3:0,0:0:0:0:
475,262,44588,1,8,3:1:0:0:
475,262,44826,1,8,3:1:0:0:
428,190,45065,2,0,B|421:153|421:153|446:124|446:124|439:86|439:86,1,115.49999647522,0|8,1:0|3:0,0:0:0:0:
438,85,45779,6,0,B|387:80|387:80|374:87|374:87|324:82,2,115.49999647522,8|8|8,3:1|3:1|3:1,0:0:0:0:
307,303,47207,6,0,B|265:315|227:296|238:286|199:268|158:279,1,153.999995300293,6|0,1:0|0:0,0:0:0:0:
91,333,47922,2,0,P|76:297|76:259,1,76.9999976501466,10|0,1:0|0:0,0:0:0:0:
135,199,48398,2,0,L|127:122,1,76.9999976501466,2|2,1:0|0:0,0:0:0:0:
74,61,48874,1,10,1:0:0:0:
74,61,49112,6,0,P|133:106|208:96,1,153.999995300293,2|2,0:0|0:0,0:0:0:0:
258,29,49826,1,10,0:0:0:0:
258,29,50065,2,0,B|310:23|310:23|347:44|347:44|405:39,1,153.999995300293,2|2,0:0|0:0,0:0:0:0:
279,151,51017,6,0,B|211:144|211:144|193:153|193:153|127:147,1,153.999995300293,6|0,0:2|3:1,0:0:0:0:
55,191,51731,2,0,L|63:286,1,76.9999976501466,10|0,1:0|0:0,0:0:0:0:
102,342,52207,1,2,1:0:0:0:
235,235,52684,1,10,1:0:0:0:
235,235,52922,6,0,B|274:224|313:242|302:252|340:271|382:259,1,153.999995300293,2|2,0:0|0:0,0:0:0:0:
444,200,53636,1,10,1:0:0:0:
444,200,53874,2,0,B|408:156|408:156|431:60,1,153.999995300293,2|2,0:0|0:0,0:3:0:0:
369,2,54588,1,10,1:0:0:0:
369,2,54826,1,2,3:0:0:0:
292,37,55065,5,4,1:0:0:0:
292,37,55303,2,0,L|215:30,1,76.9999976501466,2|10,0:0|1:0,0:0:0:0:
149,83,55779,1,2,0:0:0:0:
149,83,56017,2,0,P|101:51|34:60,2,115.49999647522,2|2|2,1:0|0:0|0:0,0:0:0:0:
134,251,57207,6,0,L|140:327,2,76.9999976501466,2|10|2,0:0|1:0|0:0,0:0:0:0:
81,184,57922,2,0,B|106:162|106:162|188:170,2,115.49999647522,2|2|2,1:0|0:0|0:0,0:0:0:0:
25,247,58874,5,4,1:2:0:0:
25,247,59112,1,2,0:0:0:0:
52,327,59350,2,0,L|128:321,1,76.9999976501466,10|2,1:0|0:0,0:0:0:0:
187,258,59826,2,0,P|226:255|261:268,2,76.9999976501466,2|2|10,1:0|0:0|1:0,0:0:0:0:
213,339,60541,5,6,0:0:0:0:
364,259,61017,1,2,1:0:0:0:
364,259,61255,2,0,L|440:265,1,76.9999976501466,2|2,1:0|1:0,0:0:0:0:
511,215,61731,1,10,1:2:0:0:
511,215,61969,1,10,1:2:0:0:
472,137,62207,1,10,3:0:0:0:
472,137,62446,1,8,3:0:0:0:
502,49,62684,6,0,B|450:43|450:43|413:64|413:64|355:59,1,153.999995300293,6|10,1:0|1:0,0:0:0:0:
193,112,63636,2,0,P|195:175|209:199,1,76.9999976501466,2|2,1:0|0:0,0:0:0:0:
278,144,64112,1,10,1:0:0:0:
278,144,64350,6,0,B|319:133|357:152|346:162|385:180|426:169,1,153.999995300293,2|2,0:0|0:0,0:0:0:0:
496,119,65065,1,10,0:0:0:0:
496,119,65303,2,8,P|510:154|509:192,1,76.9999976501466,2|0,0:0|1:0,0:0:0:0:
451,254,65779,1,6,1:0:0:0:
451,254,66017,1,8,3:1:0:0:
479,333,66255,6,0,B|445:303|445:303|334:314,1,153.999995300293,6|2,1:2|0:0,0:0:0:0:
252,326,66969,1,10,1:0:0:0:
148,194,67446,2,0,L|72:186,1,76.9999976501466,2|2,1:0|0:0,0:0:0:0:
6,239,67922,1,10,1:0:0:0:
6,239,68160,6,0,P|51:180|41:105,1,153.999995300293,2|2,0:0|0:0,0:0:0:0:
72,27,68874,1,10,1:0:0:0:
72,27,69112,2,0,B|113:16|151:35|140:45|179:63|220:52,1,153.999995300293,2|2,0:0|0:0,0:0:0:0:
291,5,69826,1,10,1:0:0:0:
291,5,70065,1,2,3:0:0:0:
342,72,70303,5,4,1:0:0:0:
271,225,70779,2,0,L|195:218,1,76.9999976501466,10|2,1:0|0:0,0:0:0:0:
132,160,71255,2,0,B|107:137|107:137|25:146,2,115.49999647522,2|2|2,1:0|0:0|0:0,0:0:0:0:
293,226,72446,5,2,0:0:0:0:
293,226,72684,2,0,P|328:211|366:210,1,76.9999976501466,10|2,1:0|0:0,0:0:0:0:
427,271,73160,2,0,B|432:322|432:322|425:336|425:336|430:385,2,115.49999647522,2|2|2,1:0|0:0|1:0,0:0:0:0:
366,209,74112,5,6,1:0:0:0:
235,317,74588,2,0,L|158:310,1,76.9999976501466,10|2,1:0|0:0,0:0:0:0:
75,282,75065,2,0,B|66:319|66:319|81:354,2,76.9999976501466,10|8|8,1:0|1:0|1:0,0:0:0:0:
140,226,75779,1,14,1:2:0:0:
140,226,76017,6,0,L|133:149,1,76.9999976501466,2|10,1:0|1:0,0:0:0:0:
69,97,76493,1,2,1:0:0:0:
69,97,76731,1,10,3:0:0:0:
109,22,76969,2,0,B|159:25|159:25|172:18|172:18|226:22,2,115.49999647522,6|6|6,3:0|3:0|3:0,0:0:0:0:
265,100,78160,5,2,0:0:0:0:
265,100,78398,2,0,L|341:93,1,76.9999976501466,10|2,1:0|0:0,0:0:0:0:
412,141,78874,2,0,L|419:217,1,76.9999976501466,2|2,1:0|0:0,0:0:0:0:
492,270,79350,1,10,1:0:0:0:
492,270,79588,6,0,B|451:281|413:262|424:252|385:234|344:245,1,153.999995300293,2|2,0:0|0:0,0:0:0:0:
369,326,80303,1,10,1:0:0:0:
207,374,80779,2,0,L|111:365,1,76.9999976501466,2|2,1:0|0:0,0:0:0:0:
63,317,81255,1,10,1:0:0:0:
63,317,81493,6,0,B|94:270|94:270|63:178,1,153.999995300293,14|2,0:0|1:0,0:0:0:0:
13,109,82207,2,0,P|49:94|87:96,1,76.9999976501466,2|2,1:0|1:0,0:0:0:0:
168,74,82684,2,0,P|200:94|221:127,1,76.9999976501466,2|0,1:0|1:0,0:0:0:0:
285,180,83160,2,0,P|286:218|271:253,1,76.9999976501466,0|2,1:0|1:0,0:0:0:0:
192,280,83636,5,10,1:0:0:0:
192,280,83874,1,10,1:0:0:0:
120,231,84112,1,10,1:3:0:0:
120,231,84350,1,10,3:0:0:0:
41,261,84588,2,0,B|36:299|36:299|52:327|52:327|48:370,2,115.49999647522,14|6|6,3:0|3:0|3:0,0:0:0:0:
165,145,85779,5,2,0:0:0:0:
165,145,86017,2,0,P|202:139|239:150,1,76.9999976501466,10|2,1:0|0:0,0:0:0:0:
291,219,86493,2,0,B|259:172|259:172|291:80,1,153.999995300293,2|8,1:0|1:0,0:0:0:0:
362,34,87207,5,6,1:2:0:0:
505,134,87684,1,2,1:0:0:0:
505,134,87922,2,0,L|498:211,1,76.9999976501466,2|10,3:0|3:0,0:0:0:0:
424,252,88398,2,0,B|427:302|427:302|420:315|420:315|424:369,2,115.49999647522,12|12|12,3:2|3:2|3:1,0:0:0:0:
