osu file format v14

[General]
AudioFilename: audio.mp3
AudioLeadIn: 0
PreviewTime: 46967
Countdown: 0
SampleSet: Soft
StackLeniency: 0.4
Mode: 0
LetterboxInBreaks: 0
WidescreenStoryboard: 1

[Editor]
DistanceSpacing: 0.4
BeatDivisor: 4
GridSize: 16
TimelineZoom: 2.2

[Metadata]
Title:PaPaPa (TV Size)
TitleUnicode:パパパ (TV Size)
Artist:Saito Shuka
ArtistUnicode:斉藤朱夏
Creator:NotABox
Version:Hard
Source:俺を好きなのはお前だけかよ
Tags:ORESUKI Ore wo Suki nano wa Omae dake ka yo Are you the only one who loves me? Sumireko Sanshokuin anime japanese op opening Kei Hayashi jpop j-pop pop Ralkinson
BeatmapID:2791829
BeatmapSetID:1070148

[Difficulty]
HPDrainRate:4
CircleSize:3.8
OverallDifficulty:6.5
ApproachRate:8
SliderMultiplier:2.2
SliderTickRate:1

[Events]
//Background and Video events
0,0,"pansybgsmol.jpg",0,0
//Break Periods
//Storyboard Layer 0 (Background)
//Storyboard Layer 1 (Fail)
//Storyboard Layer 2 (Pass)
//Storyboard Layer 3 (Foreground)
//Storyboard Layer 4 (Overlay)
//Storyboard Sound Samples

[TimingPoints]
-173,476.190476190476,4,2,1,60,1,0
779,-142.857142857143,4,2,1,50,0,0
2446,-111.111111111111,4,2,1,60,0,0
3398,-100,4,2,1,70,0,0
11255,-142.857142857142,4,2,1,60,0,0
26493,-124.999999999999,4,2,1,65,0,0
28398,-111.111111111111,4,2,1,70,0,0
30303,-142.857142857143,4,2,1,80,0,0
37922,-125,4,2,1,60,0,0
41731,-111.111111111111,4,2,1,65,0,0
42446,-111.111111111111,4,2,1,55,0,0
43636,-100,4,2,1,55,0,0
44588,-100,4,2,1,60,0,0
44668,-100,4,2,1,40,0,0
44826,-100,4,2,1,60,0,0
44906,-100,4,2,1,40,0,0
45065,-100,4,2,1,70,0,0
45779,-83.3333333333333,4,2,1,70,0,0
46017,-83.3333333333333,4,2,1,5,0,0
46136,-83.3333333333333,4,2,1,70,0,0
46374,-83.3333333333333,4,2,1,5,0,0
46493,-83.3333333333333,4,2,1,70,0,0
47207,-76.9230769230769,4,2,1,75,0,1
47684,-90.9090909090908,4,2,1,75,0,1
55303,-99.9999999999999,4,2,1,60,0,1
58874,-111.111111111111,4,2,1,70,0,1
60779,-111.111111111111,4,2,1,70,0,0
61731,-111.111111111111,4,2,1,75,0,0
62207,-111.111111111111,4,2,1,80,0,0
62684,-90.9090909090909,4,2,1,75,0,1
63160,-90.9090909090909,4,2,1,75,0,1
70303,-99.9999999999999,4,2,1,60,0,1
74112,-90.9090909090909,4,2,1,70,0,0
76017,-90.9090909090908,4,2,1,70,0,0
76136,-90.9090909090908,4,2,1,75,0,0
76969,-90.9090909090909,4,2,1,80,0,1
77088,-90.9090909090909,4,2,1,80,0,0
77326,-90.9090909090909,4,2,1,80,0,1
77446,-90.9090909090909,4,2,1,80,0,0
77684,-90.9090909090909,4,2,1,80,0,1
78041,-111.111111111111,4,2,1,70,0,0
83636,-99.9999999999999,4,2,1,75,0,0
84112,-99.9999999999999,4,2,1,80,0,0
84588,-100,4,2,1,80,0,1
84707,-100,4,2,1,80,0,0
84946,-100,4,2,1,80,0,1
85065,-100,4,2,1,80,0,0
85303,-83.3333333333333,4,2,1,75,0,1
85660,-90.9090909090909,4,2,1,70,0,0
88398,-90.9090909090909,4,2,1,80,0,0
88752,-90.9090909090909,4,2,1,75,0,0
89112,-90.9090909090909,4,2,1,80,0,0

[Colours]
Combo1 : 241,118,238
Combo2 : 255,255,96
Combo3 : 122,227,239

[HitObjects]
73,216,779,6,0,L|66:139,2,76.9999976501466,2|2|2,0:0|0:0|0:0,0:0:0:0:
150,161,1493,1,2,0:0:0:0:
169,163,1612,2,0,L|207:166,1,38.4999988250733,2|2,0:0|0:0,0:0:0:0:
226,166,1850,2,0,P|250:138|251:100,1,76.9999976501466,2|2,0:0|0:0,0:0:0:0:
242,83,2207,1,0,1:0:0:0:
316,216,2446,6,0,B|380:210|380:210|396:218|396:218|460:213,1,148.49999546814,12|0,1:0|1:0,0:0:0:0:
486,211,2922,2,0,B|469:191|469:191|475:119,1,98.9999969787599,0|0,1:0|3:0,0:0:0:0:
410,42,3398,6,0,B|366:30|326:49|339:68|298:87|256:75,1,165,6|0,1:0|0:0,0:0:0:0:
235,64,3874,1,2,0:0:0:0:
386,117,4112,1,10,1:0:0:0:
299,191,4350,1,2,0:0:0:0:
368,238,4588,6,0,P|369:309|338:337,1,110,2|0,1:0|0:0,0:0:0:0:
322,335,4946,2,0,B|299:316|299:316|218:323,1,110,2|0,1:0|0:0,0:0:0:0:
197,323,5303,6,0,B|127:269|54:316|54:316|65:351|100:360,1,220,2|2,1:0|0:0,0:0:0:0:
205,226,6017,1,10,1:0:0:0:
119,195,6255,1,2,0:0:0:0:
33,232,6493,2,0,P|26:178|50:129,1,110,2|0,1:0|0:0,0:0:0:0:
49,101,6850,1,2,0:0:0:0:
47,74,6969,1,8,1:0:0:0:
150,35,7207,6,0,B|222:40|222:40|238:52|238:52|309:59,1,165,2|0,0:0|0:0,0:0:0:0:
332,63,7684,1,2,0:0:0:0:
183,121,7922,1,10,1:0:0:0:
278,201,8160,1,2,0:0:0:0:
234,269,8398,6,0,P|242:343|270:371,1,110,2|0,1:0|0:0,0:0:0:0:
286,364,8755,2,0,B|305:341|305:341|386:334,1,110,2|0,1:0|0:0,0:0:0:0:
407,332,9112,5,14,1:0:0:0:
341,241,9350,1,0,1:0:0:0:
491,158,9588,1,10,1:0:0:0:
491,158,9707,1,8,1:0:0:0:
491,158,9826,2,0,L|427:152,1,55,2|0,1:0|0:0,0:0:0:0:
341,105,10065,1,10,3:0:0:0:
271,200,10303,5,10,1:0:0:0:
271,200,10422,1,8,1:0:0:0:
271,200,10541,2,0,L|216:204,2,55,0|2|8,1:0|1:0|1:0,0:0:0:0:
134,154,11017,1,10,1:0:0:0:
134,154,11136,1,10,1:0:0:0:
134,153,11255,6,0,P|121:189|125:233,1,76.9999976501466,14|2,1:2|0:0,0:0:0:0:
192,292,11731,1,2,1:0:0:0:
270,243,11969,2,0,B|309:228|348:243|338:262|377:277|416:262,1,153.999995300293,2|2,0:0|0:0,0:0:0:0:
471,196,12684,1,2,1:0:0:0:
501,277,12922,1,2,0:0:0:0:
433,333,13160,6,0,P|416:299|415:261,1,76.9999976501466,2|2,1:0|0:0,0:0:0:0:
337,240,13636,1,2,1:0:0:0:
297,315,13874,2,0,P|309:242|245:198,1,153.999995300293,2|2,0:0|0:0,0:0:0:0:
215,343,14826,5,2,0:0:0:0:
215,343,15065,2,0,P|253:343|288:329,1,76.9999976501466,2|2,1:0|0:0,0:0:0:0:
321,242,15541,1,2,1:0:0:0:
234,257,15779,2,0,B|205:222|205:222|215:101,1,153.999995300293,2|2,0:0|0:0,0:0:0:0:
127,161,16493,1,2,1:0:0:0:
197,76,16731,1,2,0:0:0:0:
64,42,16969,6,0,B|49:59|49:59|54:119,1,76.9999976501466,2|2,1:0|0:0,0:0:0:0:
92,194,17446,1,2,1:0:0:0:
149,123,17684,2,0,B|198:90|273:109|273:109|260:134,1,153.999995300293,2|2,0:0|0:0,0:0:0:0:
255,145,18279,1,0,0:0:0:0:
248,158,18398,1,0,1:0:0:0:
199,241,18636,1,2,0:0:0:0:
183,239,18755,1,0,0:0:0:0:
168,238,18874,6,0,L|80:230,1,76.9999976501466,2|2,1:0|0:0,0:0:0:0:
19,286,19350,2,0,L|23:333,1,38.4999988250733,2|0,1:0|0:0,0:0:0:0:
23,343,19588,2,0,P|58:326|96:325,1,76.9999976501466,2|0,0:0|1:0,0:0:0:0:
174,363,20065,1,2,0:0:0:0:
232,295,20303,1,2,1:0:0:0:
336,348,20541,5,2,0:0:0:0:
336,348,20660,1,0,0:0:0:0:
336,348,20779,2,0,P|297:346|263:330,1,76.9999976501466,2|2,1:0|0:0,0:0:0:0:
324,251,21255,1,2,1:0:0:0:
416,269,21493,2,0,B|436:245|436:245|429:161,1,115.49999647522,2|2,0:0|0:0,0:0:0:0:
411,152,21969,2,0,L|417:75,1,76.9999976501466,2|0,0:0|1:0,0:0:0:0:
329,20,22446,1,2,0:0:0:0:
313,22,22565,1,0,0:0:0:0:
298,23,22684,6,0,L|210:31,1,76.9999976501466,2|2,1:0|0:0,0:0:0:0:
147,83,23160,2,0,L|70:76,1,76.9999976501466,2|2,1:0|0:0,0:0:0:0:
218,153,23636,1,2,1:0:0:0:
218,153,23874,1,2,0:0:0:0:
194,240,24112,2,0,P|159:255|121:254,1,76.9999976501466,2|2,1:0|0:0,3:0:0:0:
14,151,24588,6,0,P|52:149|86:165,1,76.9999976501466,2|2,1:0|0:0,3:0:0:0:
97,182,24946,2,0,L|90:268,1,76.9999976501466,2|2,0:0|0:0,0:0:0:0:
89,278,25303,1,2,0:0:0:0:
170,339,25541,2,0,B|207:348|207:348|243:332,1,76.9999976501466,0|0,1:0|0:0,0:0:0:0:
196,229,26017,1,0,1:0:0:0:
284,152,26255,1,10,1:0:0:0:
284,152,26374,1,8,1:0:0:0:
284,151,26493,6,0,P|327:146|368:160,1,88,6|2,1:0|0:0,0:0:0:0:
460,126,26969,2,0,P|488:158|501:200,1,88,2|2,1:0|0:0,0:0:0:0:
461,300,27446,1,2,1:0:0:0:
380,280,27684,1,2,0:0:0:0:
332,351,27922,1,2,1:0:0:0:
332,351,28160,1,2,0:0:0:0:
219,300,28398,6,0,B|201:279|201:279|208:206,1,98.9999969787599,2|10,1:0|1:0,0:0:0:0:
228,194,28755,2,0,B|245:173|245:173|238:100,1,98.9999969787599,2|2,1:0|1:0,0:0:0:0:
234,76,29112,1,2,1:0:0:0:
143,32,29350,1,8,1:3:0:0:
74,99,29588,1,8,1:3:0:0:
71,123,29707,1,0,1:0:0:0:
69,147,29826,2,0,L|63:210,1,49.4999984893799,8|8,3:0|3:0,0:0:0:0:
84,225,30065,2,0,L|89:288,1,49.4999984893799,8|8,3:0|3:0,0:0:0:0:
72,314,30303,6,0,P|115:296|198:354,1,153.999995300293,6|10,1:2|1:0,0:0:0:0:
280,366,31017,1,2,0:0:0:0:
280,366,31255,2,0,P|309:308|286:247,1,115.49999647522,2|2,1:0|0:0,0:0:0:0:
284,246,31731,1,8,1:0:0:0:
206,210,31969,6,0,B|240:239|240:239|348:229,1,153.999995300293,2|2,0:0|0:0,0:0:0:0:
425,177,32684,1,10,1:0:0:0:
400,95,32922,1,2,0:0:0:0:
470,36,33160,2,0,B|443:58|443:58|361:50,1,115.49999647522,2|2,1:0|0:0,0:0:0:0:
344,44,33636,2,0,P|290:26|249:39,1,76.9999976501466,8|2,1:0|0:0,0:0:0:0:
216,98,34112,6,0,L|138:103,1,76.9999976501466,2|2,1:0|0:0,0:0:0:0:
100,184,34588,2,0,L|177:189,1,76.9999976501466,10|2,1:0|0:0,0:0:0:0:
264,224,35065,1,2,1:0:0:0:
264,224,35303,1,2,0:0:0:0:
194,274,35541,2,0,P|182:311|184:349,1,76.9999976501466,10|2,1:0|0:0,0:0:0:0:
91,326,36017,6,0,P|92:287|81:250,1,76.9999976501466,2|2,1:0|0:0,0:0:0:0:
69,237,36374,2,0,L|75:157,1,76.9999976501466,2|2,0:0|0:0,0:0:0:0:
79,141,36731,1,2,0:0:0:0:
166,171,36969,5,0,1:0:0:0:
224,91,37207,1,12,1:0:0:0:
275,212,37446,1,8,1:0:0:0:
294,225,37565,1,8,1:0:0:0:
318,233,37684,1,8,3:0:0:0:
342,235,37803,1,8,3:0:0:0:
366,230,37922,6,0,B|383:209|383:209|376:140,1,88,6|2,1:0|0:0,0:0:0:0:
482,173,38398,2,0,B|464:152|464:152|471:83,1,88,2|2,1:0|0:0,0:0:0:0:
405,11,38874,2,0,P|357:53|293:46,1,132,2|2,1:0|0:0,0:0:0:0:
273,37,39350,2,0,L|161:46,1,88,0|2,1:0|0:0,0:0:0:0:
257,121,39826,5,2,1:0:0:0:
146,168,40065,1,2,0:0:0:0:
274,236,40303,1,2,1:0:0:0:
122,315,40541,6,0,B|110:288|110:288|185:269|234:302,1,132,2|2,0:0|0:0,0:0:0:0:
227,304,41017,2,0,B|248:322|248:322|308:316,1,88,2|0,0:0|1:0,0:0:0:0:
392,254,41493,1,6,0:2:0:0:
468,363,41731,6,0,P|460:314|481:271,1,98.9999969787599,6|10,1:0|1:3,0:0:0:0:
504,262,42088,2,0,L|512:163,1,98.9999969787599,2|10,1:0|3:0,0:0:0:0:
493,147,42446,2,0,B|430:138|386:177|386:177|353:143|371:85,1,197.99999395752,2|2,3:0|1:0,0:0:0:0:
468,35,43160,1,2,3:0:0:0:
468,35,43279,1,0,3:0:0:0:
468,35,43398,2,0,L|418:39,1,49.4999984893799,8|0,3:0|0:0,0:0:0:0:
343,12,43636,5,6,1:0:0:0:
279,124,43874,1,8,1:0:0:0:
243,135,43993,1,8,1:0:0:0:
205,135,44112,1,8,1:0:0:0:
170,122,44231,1,8,1:0:0:0:
140,98,44350,1,8,3:0:0:0:
42,171,44588,6,0,L|45:208,5,36.6666666666667,8|8|8|8|8|8,3:1|1:0|1:0|3:1|1:0|1:0,0:0:0:0:
46,222,45065,5,0,1:0:0:0:
29,272,45184,1,0,1:0:0:0:
42,324,45303,1,8,3:0:0:0:
85,357,45422,1,8,3:0:0:0:
85,357,45779,6,0,B|112:335|112:335|208:343,1,131.99999597168,8|0,3:1|0:0,0:0:0:0:
314,304,46136,6,0,B|287:326|287:326|191:317,1,131.99999597168,8|0,3:1|0:0,0:0:0:0:
133,244,46493,5,8,3:1:0:0:
133,244,47207,6,0,B|94:275|46:258|17:192|67:119|174:137|210:194,1,285.99998690796,6|0,1:0|0:0,0:0:0:0:
244,303,47922,2,0,P|302:310|354:281,1,121.000003692627,10|0,1:0|0:0,0:0:0:0:
355,261,48279,1,2,0:0:0:0:
355,261,48398,2,0,B|335:235|335:235|342:147,1,121.000003692627,2|2,1:0|0:0,0:0:0:0:
255,66,48874,1,10,1:0:0:0:
395,30,49112,6,0,L|275:40,1,121.000003692627,2|0,0:0|1:0,0:0:0:0:
187,115,49588,1,2,0:0:0:0:
111,19,49826,1,10,0:0:0:0:
40,162,50065,6,0,B|26:197|39:220|39:220|65:205|62:167,1,121.000003692627,2|0,0:0|1:0,0:0:0:0:
177,84,50541,2,0,B|179:46|153:31|153:31|140:54|154:89,1,121.000003692627,2|8,0:0|1:0,0:0:0:0:
253,218,51017,6,0,B|316:242|375:207|356:177|415:141|479:167,1,242.000007385254,6|0,0:2|0:0,0:0:0:0:
294,133,51731,2,0,B|266:98|266:98|284:23,1,121.000003692627,10|0,1:0|0:0,0:0:0:0:
363,75,52207,1,2,1:0:0:0:
178,102,52446,1,2,0:0:0:0:
147,99,52565,1,0,0:0:0:0:
117,96,52684,1,10,1:0:0:0:
26,201,52922,6,0,P|82:190|97:303,1,181.500005538941,2|0,0:0|0:0,0:0:0:0:
88,305,53398,1,2,0:0:0:0:
207,222,53636,1,10,1:0:0:0:
282,337,53875,2,0,P|343:340|394:297,1,121.000003692627,2|0,0:0|1:0,0:0:0:0:
420,195,54350,1,2,0:0:0:0:
457,361,54588,1,10,1:0:0:0:
319,261,54827,1,2,3:0:0:0:
316,231,54946,1,0,3:0:0:0:
313,200,55065,1,4,1:0:0:0:
463,274,55303,5,2,0:0:0:0:
463,274,55422,1,2,0:0:0:0:
463,274,55541,2,0,L|468:210,1,55,10|2,1:0|0:0,0:0:0:0:
491,182,55779,2,0,L|485:118,1,55,2|2,0:0|0:0,0:0:0:0:
467,99,56017,5,2,1:0:0:0:
467,99,56136,2,0,B|419:94|419:94|407:101|407:101|359:97,2,110,2|2|0,0:0|0:0|0:0,0:0:0:0:
505,101,56731,1,2,0:0:0:0:
387,18,56969,5,0,1:0:0:0:
304,158,57207,1,2,0:0:0:0:
304,158,57326,1,2,0:0:0:0:
304,158,57445,2,0,L|240:152,1,55,10|2,1:0|0:0,0:0:0:0:
220,127,57684,2,0,L|156:132,1,55,2|2,0:0|0:0,0:0:0:0:
126,136,57921,5,2,1:0:0:0:
126,136,58041,2,0,B|147:163|147:163|140:238,2,110,2|2|0,0:0|0:0|0:0,0:0:0:0:
102,105,58636,2,0,P|51:112|-3:66,1,110,2|4,0:0|1:2,0:0:0:0:
51,201,59112,5,2,0:0:0:0:
137,255,59350,2,0,L|235:247,1,98.9999969787599,10|2,1:0|0:0,0:0:0:0:
266,357,59826,2,0,P|244:312|247:263,1,98.9999969787599,2|2,1:0|0:0,0:0:0:0:
387,319,60303,2,0,P|408:274|405:225,1,98.9999969787599,10|2,1:0|0:0,0:0:0:0:
297,171,60779,5,4,1:0:0:0:
374,71,61017,2,0,L|437:76,1,49.4999984893799,2|0,1:0|1:0,0:0:0:0:
490,117,61255,1,2,1:0:0:0:
274,20,61493,2,0,L|210:25,1,49.4999984893799,2|0,1:0|1:0,0:0:0:0:
158,66,61731,5,10,1:2:0:0:
155,90,61850,1,8,1:2:0:0:
153,115,61969,1,10,1:2:0:0:
151,139,62088,1,8,1:2:0:0:
149,164,62207,2,0,L|143:227,1,49.4999984893799,10|8,3:0|3:0,0:0:0:0:
65,223,62446,2,0,L|69:273,1,49.4999984893799,8|8,3:0|3:0,0:0:0:0:
162,334,62684,6,0,B|206:299|206:299|330:310,1,181.500005538941,6|0,1:0|0:0,0:0:0:0:
362,315,63160,2,0,P|335:261|340:202,1,121.000003692627,10|0,1:0|0:0,0:0:0:0:
434,242,63636,1,2,1:0:0:0:
322,190,63874,1,2,0:0:0:0:
422,79,64112,1,10,1:0:0:0:
249,137,64350,6,0,L|128:127,1,121.000003692627,2|0,0:0|1:0,0:0:0:0:
39,205,64826,1,2,0:0:0:0:
137,258,65065,1,10,0:0:0:0:
165,357,65303,2,0,P|152:298|177:245,1,121.000003692627,2|0,0:0|1:0,0:0:0:0:
63,188,65779,5,6,1:0:0:0:
17,376,66017,1,8,3:1:0:0:
176,229,66255,2,0,B|236:198|296:229|281:259|342:289|402:259,1,242.000007385254,6|0,1:2|0:0,0:0:0:0:
354,179,66969,2,0,B|325:146|325:146|345:72,1,121.000003692627,10|0,1:0|1:0,0:0:0:0:
357,46,67326,1,2,0:0:0:0:
357,46,67446,2,0,P|308:79|249:77,1,121.000003692627,2|2,1:0|0:0,0:0:0:0:
113,30,67922,1,10,1:0:0:0:
180,164,68160,6,0,L|191:291,1,121.000003692627,2|0,0:0|1:0,0:0:0:0:
290,349,68636,1,2,0:0:0:0:
338,218,68874,1,10,1:0:0:0:
164,155,69112,2,0,B|111:149|111:149|99:140|99:140|46:137,1,121.000003692627,2|0,0:0|1:0,0:0:0:0:
243,95,69588,1,2,0:0:0:0:
201,269,69826,1,10,1:0:0:0:
330,205,70065,1,2,3:0:0:0:
360,202,70184,1,0,3:0:0:0:
391,199,70303,1,4,1:0:0:0:
306,314,70541,5,2,0:0:0:0:
306,314,70660,1,2,0:0:0:0:
306,314,70779,2,0,L|242:309,1,55,10|2,1:0|0:0,0:0:0:0:
232,329,71017,2,0,L|168:335,1,55,2|2,0:0|0:0,0:0:0:0:
154,329,71255,5,2,1:0:0:0:
154,329,71374,2,0,B|126:350|126:350|50:343,2,110,2|2|0,0:0|0:0|0:0,0:0:0:0:
174,310,71969,1,2,0:0:0:0:
79,228,72207,5,0,1:0:0:0:
210,173,72446,1,2,0:0:0:0:
210,173,72565,1,2,0:0:0:0:
210,173,72684,2,0,L|205:109,1,55,10|2,1:0|0:0,0:0:0:0:
225,99,72922,2,0,L|231:35,1,55,2|2,0:0|0:0,0:0:0:0:
225,21,73160,5,2,1:0:0:0:
225,21,73279,2,0,P|270:52|324:47,1,110,2|2,0:0|0:0,0:0:0:0:
344,28,73636,1,8,1:0:0:0:
450,90,73874,1,2,1:0:0:0:
385,179,74112,6,0,P|376:239|385:299,1,121.000003692627,6|2,1:0|0:0,0:0:0:0:
476,225,74588,2,0,P|484:284|475:344,1,121.000003692627,10|2,1:0|0:0,0:0:0:0:
394,169,75065,1,10,1:0:0:0:
293,191,75303,1,8,1:0:0:0:
222,262,75541,1,8,1:0:0:0:
198,354,75779,5,14,1:2:0:0:
137,252,76017,1,2,1:0:0:0:
135,221,76136,1,8,1:0:0:0:
132,191,76255,2,0,L|126:127,1,60.5000018463135,10|10,1:0|1:0,0:0:0:0:
210,146,76493,2,0,L|215:85,1,60.5000018463135,2|0,1:0|1:0,0:0:0:0:
157,29,76731,1,10,3:0:0:0:
44,164,76969,5,6,3:0:0:0:
44,164,77326,5,6,3:0:0:0:
44,164,77684,6,0,B|124:156|124:156|144:167|144:167|225:160,1,181.500005538941,6|0,3:0|0:0,0:0:0:0:
246,159,78160,1,2,0:0:0:0:
323,207,78398,2,0,P|327:265|309:312,1,98.9999969787599,10|2,1:0|0:0,0:0:0:0:
239,343,78874,5,2,1:0:0:0:
190,269,79112,1,2,0:0:0:0:
101,252,79350,1,10,1:0:0:0:
24,290,79588,2,0,P|74:241|62:160,1,148.49999546814,2|0,0:0|0:0,0:0:0:0:
46,153,80065,1,2,0:0:0:0:
133,97,80303,2,0,L|260:108,1,98.9999969787599,10|2,1:0|0:0,0:0:0:0:
309,60,80779,1,2,1:0:0:0:
403,45,81017,1,2,0:0:0:0:
465,114,81255,1,10,1:0:0:0:
438,209,81493,6,0,B|447:320|447:320|413:291,1,148.49999546814,14|0,0:0|0:0,0:0:0:0:
399,280,81969,2,0,P|343:279|293:316,1,98.9999969787599,2|2,1:0|1:0,0:0:0:0:
369,357,82446,1,2,1:0:0:0:
237,268,82684,1,2,1:0:0:0:
212,265,82803,1,0,1:0:0:0:
188,263,82922,2,0,L|124:257,1,49.4999984893799,0|2,1:0|1:0,0:0:0:0:
53,212,83160,1,0,1:0:0:0:
100,124,83398,2,0,L|149:119,1,49.4999984893799,2|0,1:0|1:0,0:0:0:0:
232,92,83636,5,10,1:0:0:0:
229,118,83755,1,10,1:0:0:0:
227,145,83874,2,0,P|228:173|237:198,1,55,10|10,1:0|1:0,0:0:0:0:
309,160,84112,1,10,1:3:0:0:
351,178,84231,1,8,1:3:0:0:
396,170,84350,1,10,3:0:0:0:
430,140,84469,1,8,3:0:0:0:
445,99,84588,5,14,3:0:0:0:
445,99,84946,5,6,3:0:0:0:
445,99,85303,6,0,B|372:105|372:105|331:138|331:138|258:144,1,197.99999395752,6|0,3:0|0:0,0:0:0:0:
229,147,85779,1,2,0:0:0:0:
149,200,86017,2,0,P|135:143|154:86,1,121.000003692627,10|2,1:0|0:0,0:0:0:0:
250,57,86493,2,0,L|122:45,1,121.000003692627,2|0,1:0|0:0,0:0:0:0:
99,44,86850,1,2,0:0:0:0:
69,41,86969,1,8,1:0:0:0:
13,131,87207,6,0,B|43:168|43:168|22:238,1,121.000003692627,6|0,1:2|1:0,0:0:0:0:
90,306,87684,2,0,L|169:299,1,60.5000018463135,2|0,1:0|1:0,0:0:0:0:
213,254,87922,1,2,3:0:0:0:
243,257,88041,1,0,3:0:0:0:
273,259,88160,2,0,L|361:266,1,60.5000018463135,10|8,3:0|3:0,0:0:0:0:
391,316,88398,5,12,3:2:0:0:
231,178,88755,5,12,3:2:0:0:
430,108,89112,5,12,3:1:0:0:
