osu file format v14

[General]
AudioFilename: audio.mp3
AudioLeadIn: 0
PreviewTime: 46967
Countdown: 0
SampleSet: Soft
StackLeniency: 0.3
Mode: 0
LetterboxInBreaks: 0
WidescreenStoryboard: 1

[Editor]
DistanceSpacing: 0.4
BeatDivisor: 4
GridSize: 8
TimelineZoom: 2.1

[Metadata]
Title:PaPaPa (TV Size)
TitleUnicode:パパパ (TV Size)
Artist:Saito Shuka
ArtistUnicode:斉藤朱夏
Creator:NotABox
Version:Expert
Source:俺を好きなのはお前だけかよ
Tags:ORESUKI Ore wo Suki nano wa Omae dake ka yo Are you the only one who loves me? Sumireko Sanshokuin anime japanese op opening Kei Hayashi jpop j-pop pop Ralkinson
BeatmapID:2240055
BeatmapSetID:1070148

[Difficulty]
HPDrainRate:6
CircleSize:3.8
OverallDifficulty:8
ApproachRate:9.2
SliderMultiplier:2.2
SliderTickRate:1

[Events]
//Background and Video events
0,0,"pansybgsmol.jpg",0,0
//Break Periods
//Storyboard Layer 0 (Background)
//Storyboard Layer 1 (Fail)
//Storyboard Layer 2 (Pass)
//Storyboard Layer 3 (Foreground)
//Storyboard Layer 4 (Overlay)
//Storyboard Sound Samples

[TimingPoints]
-173,476.190476190476,4,2,1,60,1,0
779,-100,4,2,1,50,0,0
2446,-52.6315789473684,4,2,1,60,0,0
2684,-52.6315789473684,4,2,1,5,0,0
2803,-60.6060606060606,4,2,1,60,0,0
3041,-60.6060606060606,4,2,1,5,0,0
3160,-60.6060606060606,4,2,1,60,0,0
3398,-71.4285714285714,4,2,1,70,0,0
3755,-71.4285714285714,4,2,1,5,0,0
3874,-83.3333333333333,4,2,1,70,0,0
7207,-71.4285714285714,4,2,1,70,0,0
7565,-71.4285714285714,4,2,1,5,0,0
7684,-83.3333333333333,4,2,1,70,0,0
9112,-111.111111111111,4,2,1,70,0,0
11255,-99.9999999999999,4,2,1,60,0,0
16136,-99.9999999999999,4,2,1,5,0,0
16255,-99.9999999999999,4,2,1,60,0,0
18041,-99.9999999999999,4,2,1,5,0,0
18160,-99.9999999999999,4,2,1,60,0,0
18874,-90.9090909090909,4,2,1,60,0,0
19946,-90.9090909090909,4,2,1,5,0,0
20065,-90.9090909090909,4,2,1,60,0,0
26493,-90.9090909090909,4,2,1,65,0,0
28398,-83.3333333333333,4,2,1,70,0,0
30303,-111.111111111111,4,2,1,80,0,0
32326,-111.111111111111,4,2,1,5,0,0
32446,-111.111111111111,4,2,1,80,0,0
37922,-76.9230769230769,4,2,1,60,0,0
41731,-76.9230769230769,4,2,1,65,0,0
42446,-76.9230769230769,4,2,1,55,0,0
42803,-76.9230769230769,4,2,1,5,0,0
42922,-76.9230769230769,4,2,1,55,0,0
43636,-71.4285714285714,4,2,1,55,0,0
44588,-71.4285714285714,4,2,1,60,0,0
44668,-71.4285714285714,4,2,1,40,0,0
44826,-71.4285714285714,4,2,1,60,0,0
44906,-71.4285714285714,4,2,1,40,0,0
45065,-71.4285714285714,4,2,1,70,0,0
45779,-52.6315789473684,4,2,1,70,0,0
46017,-52.6315789473684,4,2,1,5,0,0
46136,-52.6315789473684,4,2,1,70,0,0
46374,-52.6315789473684,4,2,1,5,0,0
46493,-52.6315789473684,4,2,1,70,0,0
46731,-52.6315789473684,4,2,1,5,0,0
47207,-62.5,4,2,1,75,0,1
47565,-62.5,4,2,1,5,0,1
47684,-66.6666666666667,4,2,1,75,0,1
51374,-66.6666666666667,4,2,1,5,0,1
51493,-66.6666666666667,4,2,1,75,0,1
53279,-66.6666666666667,4,2,1,5,0,1
53398,-66.6666666666667,4,2,1,75,0,1
54231,-66.6666666666667,4,2,1,5,0,1
54350,-66.6666666666667,4,2,1,75,0,1
55303,-66.6666666666667,4,2,1,60,0,1
58871,-66.6666666666667,4,2,1,70,0,1
58874,-66.6666666666667,4,2,1,70,0,1
60779,-66.6666666666667,4,2,1,70,0,0
61731,-66.6666666666667,4,2,1,75,0,0
62207,-66.6666666666667,4,2,1,80,0,0
62684,-62.5,4,2,1,75,0,1
63041,-62.5,4,2,1,5,0,1
63160,-66.6666666666667,4,2,1,75,0,1
66612,-66.6666666666667,4,2,1,5,0,1
66731,-66.6666666666667,4,2,1,75,0,1
68517,-66.6666666666667,4,2,1,5,0,1
68636,-66.6666666666667,4,2,1,75,0,1
69469,-66.6666666666667,4,2,1,5,0,1
69588,-66.6666666666667,4,2,1,75,0,1
70303,-66.6666666666667,4,2,1,60,0,1
74112,-66.6666666666667,4,2,1,70,0,0
75303,-71.4285714285714,4,2,1,70,0,0
75541,-76.9230769230769,4,2,1,70,0,0
75779,-83.3333333333333,4,2,1,70,0,0
76136,-66.6666666666667,4,2,1,75,0,0
76969,-66.6666666666667,4,2,1,80,0,1
77088,-66.6666666666667,4,2,1,80,0,0
77326,-66.6666666666667,4,2,1,80,0,1
77446,-66.6666666666667,4,2,1,80,0,0
77684,-71.4285714285714,4,2,1,80,0,1
78041,-83.3333333333333,4,2,1,5,0,0
78160,-83.3333333333333,4,2,1,70,0,0
79946,-83.3333333333333,4,2,1,5,0,0
80065,-83.3333333333333,4,2,1,70,0,0
83636,-83.3333333333333,4,2,1,75,0,0
84112,-83.3333333333333,4,2,1,80,0,0
84172,-83.3333333333333,4,2,1,80,0,0
84588,-52.6315789473684,4,2,1,80,0,1
84826,-52.6315789473684,4,2,1,5,0,0
84946,-52.6315789473684,4,2,1,80,0,1
85184,-52.6315789473684,4,2,1,5,0,0
85303,-52.6315789473684,4,2,1,75,0,1
85541,-52.6315789473684,4,2,1,70,0,1
85660,-83.3333333333333,4,2,1,70,0,0
88398,-52.6315789473684,4,2,1,80,0,0
88636,-52.6315789473684,4,2,1,5,0,0
88755,-52.6315789473684,4,2,1,75,0,0
88993,-52.6315789473684,4,2,1,5,0,0
89112,-333.333333333333,4,2,1,80,0,0
89588,-333.333333333333,4,2,1,5,0,0

[Colours]
Combo1 : 241,118,238
Combo2 : 255,255,96
Combo3 : 122,227,239

[HitObjects]
159,136,779,5,2,0:0:0:0:
159,136,1017,1,2,0:0:0:0:
159,136,1255,1,2,0:0:0:0:
305,196,1493,6,0,L|241:191,1,55,2|2,0:0|0:0,0:0:0:0:
218,189,1731,1,2,0:0:0:0:
366,260,1850,2,0,P|391:212|383:158,1,110,2|2,0:0|0:0,0:0:0:0:
305,196,2207,1,0,1:0:0:0:
292,50,2446,5,12,1:0:0:0:
305,196,2565,2,0,L|295:91,1,104.499997209549,8|0,1:0|0:0,0:0:0:0:
194,119,2803,5,0,1:0:0:0:
182,250,2922,2,0,L|190:160,1,90.7500008654595,0|0,1:0|0:0,0:0:0:0:
274,335,3160,5,2,3:0:0:0:
274,335,3279,1,2,0:0:0:0:
390,76,3398,6,0,P|301:123|312:241,1,230.99999295044,6|0,1:0|0:0,0:0:0:0:
442,184,3874,6,0,P|411:171|378:171,1,65.9999979858399,2|0,0:0|0:0,0:0:0:0:
320,85,4112,2,0,P|295:107|282:136,1,65.9999979858399,10|0,1:0|0:0,0:0:0:0:
177,154,4350,2,0,P|186:185|208:210,1,65.9999979858399,2|0,0:0|0:0,0:0:0:0:
310,276,4588,6,0,P|260:234|196:237,1,131.99999597168,2|0,1:0|0:0,0:0:0:0:
119,353,4946,2,0,P|183:355|232:314,1,131.99999597168,2|0,1:0|0:0,0:0:0:0:
177,154,5303,6,0,B|146:191|146:191|154:287,1,131.99999597168,2|0,1:0|1:0,0:0:0:0:
30,83,5779,1,2,0:0:0:0:
30,83,5898,1,2,0:0:0:0:
30,83,6017,2,0,L|95:88,1,65.9999979858399,10|0,1:0|0:0,0:0:0:0:
187,143,6255,2,0,L|252:138,1,65.9999979858399,2|0,0:0|0:0,0:0:0:0:
275,19,6493,6,0,P|242:74|253:138,1,131.99999597168,2|0,1:0|0:0,0:0:0:0:
417,166,6850,2,0,P|385:109|324:87,1,131.99999597168,2|0,1:0|0:0,0:0:0:0:
146,146,7207,6,0,B|207:176|259:134|246:120|300:78|362:108,1,230.99999295044,2|0,1:3|0:3,0:3:0:0:
187,71,7684,2,0,P|178:39|182:6,1,65.9999979858399,2|0,1:0|0:0,0:0:0:0:
322,184,7922,2,0,P|326:216|317:248,1,65.9999979858399,10|0,1:0|0:0,0:0:0:0:
193,235,8160,2,0,P|166:252|134:258,1,65.9999979858399,2|0,0:0|0:0,0:0:0:0:
19,210,8398,6,0,P|68:168|133:173,1,131.99999597168,2|0,1:0|0:0,0:0:0:0:
247,294,8755,2,0,P|182:299|133:258,1,131.99999597168,2|0,1:0|0:0,0:0:0:0:
383,125,9112,6,0,B|405:168|405:168|390:215,1,98.9999969787599,14|0,1:0|1:0,0:0:0:0:
262,179,9588,6,0,L|327:174,1,49.4999984893799,10|8,1:0|1:0,0:0:0:0:
492,159,9826,1,2,1:0:0:0:
207,279,10065,6,0,L|272:284,1,49.4999984893799,10|8,3:0|3:0,0:0:0:0:
437,297,10303,1,10,1:0:0:0:
394,275,10422,1,8,1:0:0:0:
349,292,10541,1,0,1:0:0:0:
332,337,10660,1,2,1:0:0:0:
355,379,10779,1,8,1:0:0:0:
309,184,11017,5,10,1:0:0:0:
262,179,11136,1,10,1:0:0:0:
180,246,11255,6,0,B|148:270|148:270|78:264,1,110,14|2,1:2|0:0,0:0:0:0:
144,168,11731,1,2,1:0:0:0:
144,168,11969,2,0,B|202:137|255:177|240:190|293:230|352:200,1,220,2|2,0:0|0:0,0:0:0:0:
312,124,12684,2,0,L|305:14,1,110,2|2,1:0|0:0,0:0:0:0:
205,69,13160,6,0,L|198:179,1,110,2|2,1:0|0:0,0:0:0:0:
277,247,13636,1,2,1:0:0:0:
277,247,13874,2,0,P|321:216|376:217,1,110,2|0,0:0|1:0,0:0:0:0:
304,335,14350,2,0,P|249:336|204:305,1,110,2|0,0:0|1:0,0:0:0:0:
101,320,14826,1,0,0:0:0:0:
73,322,14945,1,0,0:0:0:0:
46,324,15065,6,0,L|55:212,1,110,2|2,1:0|0:0,0:0:0:0:
134,144,15541,1,2,1:0:0:0:
203,222,15779,2,0,B|247:236|288:214|273:201|314:179|358:194,1,165
383,207,16255,1,0,0:0:0:0:
506,167,16493,2,0,L|510:221,1,55,2|0,1:0|0:0,0:0:0:0:
409,126,16731,2,0,L|413:71,1,55,2|0,0:0|0:0,0:0:0:0:
494,42,16969,6,0,B|453:45|453:45|427:31|427:31|386:34,2,110,2|2|2,1:0|0:0|1:0,0:0:0:0:
310,0,17684,2,0,B|296:32|305:63|305:63|255:20|198:43,1,165,2|0,0:0|0:0,0:0:0:0:
196,54,18160,5,2,0:0:0:0:
198,87,18279,1,2,0:0:0:0:
201,120,18398,1,2,1:0:0:0:
118,79,18636,5,2,0:0:0:0:
116,112,18755,1,2,0:0:0:0:
113,145,18874,2,0,B|83:119|83:119|-11:127,1,121.000003692627,2|2,1:0|0:0,0:0:0:0:
144,241,19350,1,2,1:0:0:0:
144,241,19588,2,0,B|191:245|191:245|207:69,1,181.500005538941
207,81,20065,1,2,0:0:0:0:
310,31,20303,2,0,P|340:28|369:36,1,60.5000018463135,2|0,1:0|0:0,0:0:0:0:
389,48,20541,2,0,P|419:50|448:42,1,60.5000018463135,2|0,0:0|0:0,0:0:0:0:
466,26,20780,6,0,L|477:150,1,121.000003692627,2|2,1:0|0:0,0:0:0:0:
487,257,21255,1,2,1:0:0:0:
487,257,21493,2,0,P|438:223|378:226,1,121.000003692627,2|0,0:0|1:0,0:0:0:0:
351,224,21850,1,2,0:0:0:0:
323,222,21969,1,2,0:0:0:0:
249,310,22207,1,2,1:0:0:0:
276,308,22326,1,2,0:0:0:0:
304,306,22446,2,0,L|364:301,1,60.5000018463135
184,246,22684,6,0,P|159:299|171:365,1,121.000003692627,2|2,1:0|0:0,0:0:0:0:
381,284,23160,2,0,P|390:225|364:170,1,121.000003692627,2|2,1:0|0:0,0:0:0:0:
174,228,23636,2,0,L|294:237,2,121.000003692627,2|2|2,1:0|0:0|1:0,0:0:0:0:
394,299,24350,1,2,0:0:0:0:
283,153,24588,6,0,P|263:98|288:44,1,121.000003692627,2|2,1:0|0:0,0:0:0:0:
294,237,24946,2,0,P|263:236|227:219,1,60.5000018463135,2|0,0:0|1:0,0:0:0:0:
366,190,25184,1,2,0:0:0:0:
366,190,25303,2,0,P|371:277|280:324,1,181.500005538941,2|0,0:0|0:0,0:0:0:0:
156,242,25779,2,0,L|216:247,1,60.5000018463135,2|0,0:0|0:0,0:0:0:0:
283,153,26017,2,0,L|343:148,1,60.5000018463135,2|0,1:0|0:0,0:0:0:0:
124,220,26255,1,10,1:0:0:0:
164,223,26374,1,8,1:0:0:0:
205,226,26493,5,6,1:0:0:0:
51,241,26731,1,2,0:0:0:0:
225,224,26969,5,2,1:0:0:0:
27,243,27207,1,2,0:0:0:0:
246,222,27446,5,2,1:0:0:0:
3,198,27684,1,2,0:0:0:0:
222,220,27922,5,2,1:0:0:0:
24,200,28160,1,2,0:0:0:0:
198,217,28398,6,0,L|193:151,1,65.9999979858399,2|0,1:0|0:0,0:0:0:0:
357,74,28636,1,10,1:0:0:0:
357,74,28755,2,0,L|352:139,1,65.9999979858399,2|8,1:0|3:0,0:0:0:0:
236,298,28993,1,2,1:0:0:0:
236,298,29112,2,0,B|205:310|205:310|173:302,1,65.9999979858399,2|0,1:0|1:0,0:0:0:0:
114,107,29350,5,8,1:3:0:0:
152,75,29469,1,0,1:0:0:0:
199,66,29588,1,8,1:3:0:0:
247,81,29707,1,0,1:0:0:0:
282,116,29826,5,8,3:0:0:0:
312,145,29946,1,8,3:0:0:0:
351,159,30065,1,8,3:0:0:0:
392,150,30184,1,8,3:0:0:0:
423,126,30303,6,0,P|440:81|435:32,1,98.9999969787599,6|2,1:2|0:0,0:0:0:0:
265,221,30779,2,0,P|246:175|252:126,1,98.9999969787599,10|2,1:0|0:0,0:0:0:0:
387,335,31255,6,0,L|495:345,1,98.9999969787599,2|0,1:0|0:0,0:0:0:0:
346,258,31612,2,0,L|454:247,1,98.9999969787599,2|0,0:0|0:0,0:0:0:0:
265,221,31969,6,0,P|302:282|285:352,1,148.49999546814,2|0,0:0|0:0,0:0:0:0:
266,368,32446,1,2,0:0:0:0:
187,195,32684,2,0,P|235:191|279:214,1,98.9999969787599,10|2,1:0|0:0,0:0:0:0:
109,269,33160,6,0,P|82:228|79:179,1,98.9999969787599,2|0,1:0|0:0,0:0:0:0:
213,299,33517,1,2,0:0:0:0:
213,299,33636,2,0,P|191:342|150:369,1,98.9999969787599,8|2,1:0|0:0,0:0:0:0:
173,200,34112,6,0,B|219:184|219:184|263:207,1,98.9999969787599,2|2,1:0|0:0,0:0:0:0:
117,279,34588,2,0,B|73:302|73:302|26:286,1,98.9999969787599,10|2,1:0|0:0,0:0:0:0:
62,186,35065,1,2,1:0:0:0:
226,284,35303,1,2,0:0:0:0:
226,284,35422,1,2,0:0:0:0:
226,284,35541,1,10,1:0:0:0:
161,85,35779,1,2,0:0:0:0:
73,203,36017,6,0,L|122:198,1,49.4999984893799,2|0,1:0|0:0,0:0:0:0:
282,126,36255,1,2,0:0:0:0:
282,126,36374,2,0,L|233:121,1,49.4999984893799,2|8,0:0|1:0,0:0:0:0:
159,280,36612,1,2,0:0:0:0:
159,280,36731,2,0,P|202:305|251:304,1,98.9999969787599,2|0,0:0|1:0,0:0:0:0:
118,363,37207,1,12,1:0:0:0:
224,223,37446,5,8,1:0:0:0:
257,200,37565,1,8,1:0:0:0:
313,197,37684,1,8,3:0:0:0:
366,246,37803,1,8,3:0:0:0:
362,322,37922,6,0,P|343:260|387:186,1,142.99999345398,6|2,1:0|0:0,0:0:0:0:
241,299,38398,2,0,B|203:330|146:310|146:310|149:282|176:265,1,142.99999345398,2|2,1:0|0:0,0:0:0:0:
371,299,38874,2,0,B|433:304|433:304|449:296|449:296|512:301,1,142.99999345398,2|2,1:0|0:0,0:0:0:0:
414,225,39231,1,2,0:0:0:0:
414,225,39350,2,0,P|400:191|402:152,1,71.4999967269899,0|0,1:0|0:0,0:0:0:0:
459,93,39588,5,2,0:0:0:0:
325,219,39826,1,2,1:0:0:0:
243,38,40065,1,2,0:0:0:0:
482,181,40303,1,2,1:0:0:0:
263,286,40541,2,0,B|232:245|232:245|240:153,1,142.99999345398,2|0,0:0|1:0,0:0:0:0:
326,76,40898,1,2,0:0:0:0:
326,76,41017,2,0,P|253:122|190:109,1,142.99999345398,2|0,0:0|1:0,0:0:0:0:
82,68,41493,5,6,0:2:0:0:
82,68,41612,1,0,0:0:0:0:
82,68,41731,2,0,L|89:139,1,71.4999967269899,6|0,1:0|0:0,0:0:0:0:
196,254,41969,5,10,1:3:0:0:
196,254,42088,2,0,L|203:182,1,71.4999967269899,2|0,1:0|1:0,0:0:0:0:
315,24,42326,5,10,3:0:0:0:
315,24,42446,2,0,P|337:118|246:91,1,214.49999018097,2|0,3:0|0:0,0:0:0:0:
252,106,42922,6,0,P|289:102|331:118,1,71.4999967269899,2|0,1:0|1:0,0:0:0:0:
381,311,43160,1,2,3:0:0:0:
328,313,43279,1,0,3:0:0:0:
284,285,43398,1,8,3:0:0:0:
264,236,43517,1,0,0:0:0:0:
276,185,43636,6,0,B|259:209|259:209|211:213,1,76.9999976501466,6|0,1:0|0:0,0:0:0:0:
58,161,43874,1,8,1:0:0:0:
101,141,43993,1,8,1:0:0:0:
149,145,44112,1,8,1:0:0:0:
189,170,44231,1,8,1:0:0:0:
211,212,44350,1,8,3:0:0:0:
46,80,44588,6,0,L|42:28,2,51.3333317667644,8|8|8,3:1|1:0|1:0,0:0:0:0:
114,232,44826,2,0,L|111:283,2,51.3333317667644,8|8|8,3:1|1:0|1:0,0:0:0:0:
231,101,45065,5,0,1:0:0:0:
302,121,45184,1,0,1:0:0:0:
339,186,45303,1,8,3:0:0:0:
321,259,45422,1,8,3:0:0:0:
321,259,45779,6,0,P|353:165|452:150,1,208.999994419098,8|0,3:1|0:0,0:0:0:0:
480,315,46136,6,0,B|424:293|374:324|388:336|337:367|282:345,1,208.999994419098,8|0,3:1|0:0,0:0:0:0:
275,77,46493,6,0,P|336:158|322:259,1,208.999994419098,8|0,3:1|0:0,0:0:0:0:
321,259,47207,6,0,B|303:194|363:128|433:147|433:147|377:143|348:195,1,264,6|0,1:0|0:0,0:0:0:0:
432,236,47684,5,2,1:0:0:0:
432,236,47803,1,2,0:0:0:0:
333,153,47922,2,0,B|298:123|298:123|154:136,1,165.000006294251,10|0,1:0|0:0,0:0:0:0:
95,110,48279,5,2,0:0:0:0:
95,110,48398,2,0,P|92:151|107:190,1,82.5000031471254,2|0,1:0|0:0,0:0:0:0:
270,254,48636,2,0,P|235:232|194:225,1,82.5000031471254,2|0,0:0|0:0,0:0:0:0:
61,326,48874,2,0,P|97:308|123:276,1,82.5000031471254,10|0,1:0|0:0,0:0:0:0:
149,51,49112,6,0,P|95:110|106:189,1,165.000006294251,6|0,0:0|1:0,0:0:0:0:
262,140,49469,1,2,0:0:0:0:
262,140,49588,2,0,L|179:135,1,82.5000031471254,2|0,0:0|0:0,0:0:0:0:
247,246,49826,2,0,L|329:241,1,82.5000031471254,10|0,0:0|0:0,0:0:0:0:
382,84,50065,6,0,B|372:191|372:191|349:211|349:211|339:318,1,247.500009441376,6|0,0:0|0:0,0:0:0:0:
285,149,50541,1,2,1:0:0:0:
285,149,50660,1,2,0:0:0:0:
431,257,50779,2,0,P|396:284|350:290,1,82.5000031471254,8|0,1:0|0:0,0:0:0:0:
394,118,51017,6,0,B|461:150|456:221|432:255|432:255|475:236|475:173,1,247.500009441376,6|0,0:2|0:0,0:0:0:0:
415,35,51493,2,0,P|375:33|337:50,1,82.5000031471254,0|0,1:0|0:0,0:0:0:0:
281,183,51731,2,0,P|319:200|360:197,1,82.5000031471254,10|0,1:0|0:0,0:0:0:0:
489,94,51969,5,2,0:0:0:0:
489,94,52088,1,2,0:0:0:0:
489,94,52207,2,0,L|485:176,1,82.5000031471254,2|0,1:0|0:0,0:0:0:0:
332,120,52446,1,2,0:0:0:0:
330,79,52565,1,2,0:0:0:0:
327,38,52684,1,10,1:0:0:0:
156,253,52922,6,0,P|256:284|246:179,1,247.500009441376,6|0,0:0|0:0,0:0:0:0:
77,240,53398,2,0,P|116:255|157:253,1,82.5000031471254,2|0,1:0|0:0,0:0:0:0:
273,94,53636,2,0,P|232:90|193:105,1,82.5000031471254,10|0,1:0|0:0,0:0:0:0:
87,260,53874,6,0,B|154:294|214:248|197:234|257:188|324:223,1,247.500009441376,6|0,0:0|0:0,0:0:0:0:
176,362,54350,2,0,P|161:323|164:282,1,82.5000031471254,2|0,1:0|0:0,0:0:0:0:
306,140,54588,2,0,P|320:178|317:219,1,82.5000031471254,10|0,1:0|0:0,0:0:0:0:
119,128,54826,1,2,3:0:0:0:
119,128,54946,1,0,3:0:0:0:
119,128,55065,5,4,1:0:0:0:
213,172,55303,5,2,0:0:0:0:
204,69,55422,1,2,0:0:0:0:
119,128,55541,5,10,1:0:0:0:
204,177,55660,1,2,0:0:0:0:
213,75,55779,5,2,0:0:0:0:
119,118,55898,1,2,0:0:0:0:
197,184,56017,5,2,1:0:0:0:
197,184,56136,2,0,P|235:201|281:199,1,82.5000031471254,2|0,0:0|0:0,0:0:0:0:
386,60,56374,2,0,P|306:56|252:115,1,165.000006294251,2|0,1:0|0:0,0:0:0:0:
363,214,56731,2,0,P|358:172|333:133,1,82.5000031471254,2|0,1:0|0:0,0:0:0:0:
279,295,56969,5,0,1:0:0:0:
185,339,57207,5,2,0:0:0:0:
194,236,57326,1,2,0:0:0:0:
279,295,57446,5,10,1:0:0:0:
194,344,57565,1,2,0:0:0:0:
185,242,57684,5,2,0:0:0:0:
279,285,57803,1,2,0:0:0:0:
209,351,57922,5,2,1:0:0:0:
209,351,58041,2,0,P|171:368|125:366,1,82.5000031471254,2|0,0:0|0:0,0:0:0:0:
98,141,58279,2,0,B|146:176|146:176|155:282,1,165.000006294251,2|0,1:0|0:0,0:0:0:0:
171,87,58636,2,0,L|179:-8,1,82.5000031471254,2|0,1:0|0:0,0:0:0:0:
53,231,58874,1,4,1:2:0:0:
230,306,59112,6,0,P|266:286|287:252,1,82.5000031471254,2|0,0:0|0:0,0:0:0:0:
135,205,59350,2,0,P|133:245|152:281,1,82.5000031471254,10|0,1:0|0:0,0:0:0:0:
268,173,59588,2,0,P|234:152|193:150,1,82.5000031471254,2|0,0:0|0:0,0:0:0:0:
412,249,59826,6,0,P|452:245|486:223,1,82.5000031471254,2|0,1:0|0:0,0:0:0:0:
369,117,60065,2,0,P|351:153|353:194,1,82.5000031471254,2|0,0:0|0:0,0:0:0:0:
504,146,60303,2,0,P|480:112|444:94,1,82.5000031471254,10|0,1:0|0:0,0:0:0:0:
277,118,60541,6,0,B|315:102|315:102|355:112,1,82.5000031471254,2|0,0:0|0:0,0:0:0:0:
231,212,60779,5,4,1:0:0:0:
198,187,60898,1,0,1:0:0:0:
177,151,61017,1,2,1:0:0:0:
172,111,61136,1,0,1:0:0:0:
184,71,61255,5,2,1:0:0:0:
130,54,61374,1,0,1:0:0:0:
78,76,61493,1,2,1:0:0:0:
53,127,61612,1,0,1:0:0:0:
68,182,61731,5,10,1:2:0:0:
138,159,61850,1,8,1:2:0:0:
207,188,61969,1,10,1:2:0:0:
242,253,62088,1,8,1:2:0:0:
228,327,62207,5,10,3:0:0:0:
139,289,62326,1,8,3:0:0:0:
148,194,62446,1,8,3:0:0:0:
241,173,62565,1,8,3:0:0:0:
290,255,62684,6,0,B|219:179|241:66|361:81|366:148|349:182|323:194,1,264,6|0,1:0|0:0,0:0:0:0:
221,59,63160,6,0,B|255:29|255:29|383:41,1,165.000006294251,10|0,1:0|0:0,0:0:0:0:
159,128,63517,1,2,0:0:0:0:
159,128,63636,2,0,P|136:93|132:53,1,82.5000031471254,2|0,1:0|0:0,0:0:0:0:
155,220,63874,2,0,P|136:257|103:280,1,82.5000031471254,2|0,0:0|0:0,0:0:0:0:
236,177,64112,2,0,P|277:174|314:191,1,82.5000031471254,10|0,1:0|0:0,0:0:0:0:
473,248,64350,6,0,P|361:239|371:127,1,247.500009441376,6|0,0:0|0:0,0:0:0:0:
429,62,64826,2,0,P|393:42|349:44,1,82.5000031471254,2|0,1:0|0:0,0:0:0:0:
238,212,65065,2,0,P|278:212|314:192,1,82.5000031471254,10|0,0:0|0:0,0:0:0:0:
156,149,65303,6,0,B|132:227|132:227|169:301,1,165.000006294251,6|0,0:0|1:0,0:0:0:0:
378,106,65660,1,2,0:0:0:0:
378,106,65779,2,0,B|339:90|339:90|300:99,1,82.5000031471254,6|0,1:0|0:0,0:0:0:0:
349,281,66017,2,0,B|388:290|388:290|426:274,1,82.5000031471254,8|0,3:1|0:0,0:0:0:0:
240,159,66255,6,0,B|202:115|215:49|261:24|261:24|205:11|170:40,1,247.500009441376,6|0,1:0|0:0,0:0:0:0:
300,99,66731,1,0,1:0:0:0:
116,227,66969,2,0,B|188:233|188:233|204:246|204:246|276:252,1,165.000006294251,10|0,1:0|0:0,0:0:0:0:
426,219,67326,1,2,0:0:0:0:
426,219,67446,2,0,P|440:181|435:140,1,82.5000031471254,2|0,1:0|0:0,0:0:0:0:
231,80,67684,2,0,P|226:121|240:159,1,82.5000031471254,2|0,0:0|0:0,0:0:0:0:
356,306,67922,2,0,B|377:340|377:340|392:302,1,82.5000031471254,10|0,1:0|0:0,0:0:0:0:
319,214,68160,6,0,B|260:234|252:310|252:310|230:237|169:226,1,247.500009441376,6|0,0:0|0:0,0:0:0:0:
95,272,68636,2,0,B|79:234|79:234|89:194,1,82.5000031471254,2|0,1:0|0:0,0:0:0:0:
233,82,68874,2,0,B|250:120|250:120|240:160,1,82.5000031471254,10|0,1:0|0:0,0:0:0:0:
185,7,69112,6,0,B|247:-24|309:7|294:38|356:69|419:38,1,247.500009441376,6|0,0:0|0:0,0:0:0:0:
416,39,69588,2,0,L|412:121,1,82.5000031471254,2|0,1:0|0:0,0:0:0:0:
271,209,69826,2,0,L|267:127,1,82.5000031471254,10|0,1:0|0:0,0:0:0:0:
431,278,70065,1,2,3:0:0:0:
431,278,70184,1,0,3:0:0:0:
431,278,70303,5,4,1:0:0:0:
475,184,70541,5,2,0:0:0:0:
372,193,70660,1,2,0:0:0:0:
431,278,70779,5,10,1:0:0:0:
480,193,70898,1,2,0:0:0:0:
378,184,71017,5,2,0:0:0:0:
421,278,71136,1,2,0:0:0:0:
487,208,71255,5,2,1:0:0:0:
487,208,71374,2,0,P|490:167|475:128,1,82.5000031471254,2|0,0:0|0:0,0:0:0:0:
291,170,71612,1,0,1:0:0:0:
291,170,71731,2,0,P|276:208|279:249,1,82.5000031471254,10|0,1:0|0:0,0:0:0:0:
375,354,71969,2,0,B|340:324|340:324|212:336,1,165.000006294251,2|0,1:0|1:0,0:0:0:0:
177,241,72446,5,2,0:0:0:0:
280,250,72565,1,2,0:0:0:0:
221,335,72684,5,10,1:0:0:0:
172,250,72803,1,2,0:0:0:0:
274,241,72922,5,2,0:0:0:0:
231,335,73041,1,2,0:0:0:0:
169,261,73160,5,2,1:0:0:0:
169,261,73279,2,0,P|148:183|208:115,1,165.000006294251,2|2,0:0|1:0,0:0:0:0:
312,213,73636,2,0,P|272:216|234:200,1,82.5000031471254,8|0,1:0|0:0,0:3:0:0:
495,163,73874,2,0,P|488:204|463:236,1,82.5000031471254,2|0,1:0|0:0,0:0:0:0:
435,27,74112,6,0,P|385:89|407:165,1,165.000006294251,6|2,1:0|0:0,0:0:0:0:
381,304,74469,1,0,0:0:0:0:
381,304,74588,2,0,P|430:241|408:165,1,165.000006294251,10|2,1:0|0:0,0:0:0:0:
263,205,74946,1,0,0:0:0:0:
263,205,75065,6,0,P|300:224|344:223,1,82.5000031471254,10|0,1:0|0:0,0:0:0:0:
173,189,75303,2,0,P|174:229|195:265,1,76.9999976501466,8|2,1:0|0:0,0:0:0:0:
150,107,75541,2,0,P|118:122|94:149,1,71.4999967269899,8|0,1:0|0:0,0:0:0:0:
170,342,75779,6,0,B|201:349|201:349|232:336,1,65.9999979858399,14|0,1:2|0:0,0:0:0:0:
78,249,76017,1,2,1:0:0:0:
290,189,76136,2,0,L|337:193,2,41.2500015735627,8|8|10,1:0|1:0|1:0,0:0:0:0:
189,182,76374,5,10,1:0:0:0:
211,47,76493,1,2,1:0:0:0:
276,171,76612,1,0,1:0:0:0:
150,107,76731,1,10,3:0:0:0:
286,84,76850,1,8,3:0:0:0:
242,250,76969,5,6,3:0:0:0:
242,250,77326,5,6,3:0:0:0:
242,250,77684,6,0,B|300:322|392:295|392:295|395:258|369:236,1,230.99999295044,6|0,3:0|0:0,0:0:0:0:
165,206,78160,6,0,P|154:237|157:275,1,65.9999979858399,2|0,0:0|0:0,0:0:0:0:
310,172,78398,1,10,1:0:0:0:
310,172,78517,1,2,0:0:0:0:
310,172,78636,2,2,P|311:139|300:108,1,65.9999979858399,2|0,0:0|0:0,0:0:0:0:
98,166,78874,6,0,L|177:172,1,65.9999979858399,2|0,1:0|0:0,0:0:0:0:
377,91,79112,2,0,L|297:97,1,65.9999979858399,2|0,0:0|0:0,0:0:0:0:
418,288,79350,2,0,L|497:294,1,65.9999979858399,10|0,1:0|0:0,0:0:0:0:
394,104,79588,6,0,P|321:165|335:259,1,197.99999395752,2|0,0:0|0:0,0:0:0:0:
466,210,80065,2,0,P|435:197|402:196,1,65.9999979858399,2|0,0:0|0:0,0:0:0:0:
339,104,80303,2,0,P|315:127|299:156,1,65.9999979858399,10|0,1:0|0:0,0:0:0:0:
189,172,80541,2,0,P|199:204|219:230,1,65.9999979858399,2|0,0:0|0:0,0:0:0:0:
418,288,80779,5,2,1:0:0:0:
303,87,81017,1,2,0:0:0:0:
303,87,81136,1,2,0:0:0:0:
303,87,81255,2,0,L|296:166,1,65.9999979858399,10|0,1:0|0:0,0:0:0:0:
280,3,81493,6,0,B|313:-4|313:-4|342:9,1,65.9999979858399,14|0,0:0|0:0,0:0:0:0:
323,250,81731,2,0,B|288:257|257:243,1,65.9999979858399,2|0,1:0|0:0,0:0:0:0:
107,159,81969,2,0,B|137:145|172:152,1,65.9999979858399,2|0,1:0|0:0,0:0:0:0:
160,275,82207,5,2,1:0:0:0:
129,286,82326,1,0,1:0:0:0:
118,257,82446,1,2,1:0:0:0:
147,245,82565,1,0,1:0:0:0:
166,287,82684,5,2,1:0:0:0:
117,294,82803,1,0,1:0:0:0:
110,247,82922,1,0,1:0:0:0:
157,240,83041,1,2,1:0:0:0:
177,306,83160,5,0,1:0:0:0:
99,304,83279,1,0,1:0:0:0:
100,228,83398,1,2,1:0:0:0:
175,228,83517,1,0,1:0:0:0:
187,337,83636,5,10,1:0:0:0:
67,313,83755,1,10,1:0:0:0:
90,200,83874,1,10,1:0:0:0:
203,223,83993,1,10,1:0:0:0:
67,313,84112,6,0,L|34:317,6,32.99999899292,10|8|8|8|10|8|8,1:3|1:3|1:3|1:3|3:0|3:0|3:0,0:0:0:0:
66,312,84588,6,0,B|158:320|158:320|176:340|176:340|266:349,1,208.999994419098,14|0,3:0|0:0,0:0:0:0:
276,78,84946,6,0,P|208:152|234:249,1,208.999994419098,6|0,3:0|0:0,0:0:0:0:
490,241,85303,6,0,B|446:187|446:187|307:175,1,208.999994419098,6|0,3:0|1:0,0:0:0:0:
407,334,85660,1,0,0:0:0:0:
407,334,85779,2,0,L|401:268,1,65.9999979858399,2|0,0:0|0:0,0:0:0:0:
366,79,86017,1,10,1:0:0:0:
366,79,86136,1,2,0:0:0:0:
366,79,86255,2,0,L|360:144,1,65.9999979858399,2|0,0:0|0:0,0:0:0:0:
258,213,86493,6,0,P|303:173|376:174,1,131.99999597168,2|0,1:0|0:0,0:0:0:0:
247,300,86850,2,0,P|229:242|261:176,1,131.99999597168,2|0,1:0|0:0,0:0:0:0:
154,336,87207,6,0,L|220:330,1,65.9999979858399,6|0,1:2|0:0,0:0:0:0:
382,248,87446,2,0,L|316:242,1,65.9999979858399,0|0,1:0|1:0,0:0:0:0:
207,150,87684,5,2,1:0:0:0:
182,158,87803,1,0,1:0:0:0:
160,190,87922,1,2,3:0:0:0:
156,235,88041,1,0,3:0:0:0:
178,280,88160,1,10,3:0:0:0:
253,300,88279,1,8,3:0:0:0:
316,242,88398,6,0,P|225:281|230:379,1,208.999994419098,12|0,3:2|0:0,0:0:0:0:
192,187,88755,6,0,P|242:276|229:378,1,208.999994419098,12|0,3:2|0:0,0:0:0:0:
278,117,89112,6,0,L|284:51,1,65.9999979858399,12|0,3:1|0:0,0:0:0:0:
