osu file format v14

[General]
AudioFilename: audio.mp3
AudioLeadIn: 0
PreviewTime: 46967
Countdown: 0
SampleSet: Soft
StackLeniency: 0.3
Mode: 0
LetterboxInBreaks: 0
WidescreenStoryboard: 1

[Editor]
DistanceSpacing: 0.9
BeatDivisor: 4
GridSize: 16
TimelineZoom: 2.1

[Metadata]
Title:PaPaPa (TV Size)
TitleUnicode:パパパ (TV Size)
Artist:Saito Shuka
ArtistUnicode:斉藤朱夏
Creator:NotABox
Version:Easy
Source:俺を好きなのはお前だけかよ
Tags:ORESUKI Ore wo Suki nano wa Omae dake ka yo Are you the only one who loves me? Sumireko Sanshokuin anime japanese op opening Kei Hayashi jpop j-pop pop Ralkinson
BeatmapID:2795660
BeatmapSetID:1070148

[Difficulty]
HPDrainRate:3
CircleSize:2.8
OverallDifficulty:3
ApproachRate:4
SliderMultiplier:1.5
SliderTickRate:1

[Events]
//Background and Video events
0,0,"pansybgsmol.jpg",0,0
//Break Periods
//Storyboard Layer 0 (Background)
//Storyboard Layer 1 (Fail)
//Storyboard Layer 2 (Pass)
//Storyboard Layer 3 (Foreground)
//Storyboard Layer 4 (Overlay)
//Storyboard Sound Samples

[TimingPoints]
-173,476.190476190476,4,2,1,60,1,0
3398,-142.857142857143,4,2,1,70,0,0
11255,-142.857142857143,4,2,1,60,0,0
26493,-142.857142857143,4,2,1,65,0,0
28398,-142.857142857143,4,2,1,70,0,0
30303,-142.857142857143,4,2,1,80,0,0
37922,-142.857142857143,4,2,1,60,0,0
41731,-142.857142857143,4,2,1,65,0,0
42446,-142.857142857143,4,2,1,55,0,0
44588,-142.857142857143,4,2,1,60,0,0
45065,-142.857142857143,4,2,1,70,0,0
47207,-142.857142857143,4,2,1,75,0,1
55541,-142.857142857143,4,2,1,60,0,1
58871,-142.857142857143,4,2,1,70,0,1
60779,-142.857142857143,4,2,1,70,0,0
61731,-142.857142857143,4,2,1,75,0,0
62207,-142.857142857143,4,2,1,80,0,0
62684,-142.857142857143,4,2,1,75,0,1
70303,-142.857142857143,4,2,1,60,0,1
74112,-142.857142857143,4,2,1,70,0,0
76017,-142.857142857143,4,2,1,70,0,0
76493,-142.857142857143,4,2,1,75,0,0
76969,-142.857142857143,4,2,1,80,0,1
77088,-142.857142857143,4,2,1,80,0,0
77326,-142.857142857143,4,2,1,80,0,1
77446,-142.857142857143,4,2,1,80,0,0
77684,-142.857142857143,4,2,1,80,0,1
78398,-142.857142857143,4,2,1,70,0,0
83636,-142.857142857143,4,2,1,75,0,0
84112,-142.857142857143,4,2,1,80,0,0
84588,-142.857142857143,4,2,1,80,0,1
84707,-142.857142857143,4,2,1,80,0,0
84946,-142.857142857143,4,2,1,80,0,1
85065,-142.857142857143,4,2,1,80,0,0
85303,-142.857142857143,4,2,1,75,0,1
86017,-142.857142857143,4,2,1,70,0,0
88398,-142.857142857143,4,2,1,80,0,0
88755,-142.857142857143,4,2,1,75,0,0
89112,-142.857142857143,4,2,1,80,0,0

[Colours]
Combo1 : 241,118,238
Combo2 : 255,255,96
Combo3 : 122,227,239

[HitObjects]
54,59,2446,5,12,1:0:0:0:
54,59,3398,6,0,B|95:47|134:66|123:80|161:98|203:87,1,157.499995193482,6|10,1:0|1:0,0:0:0:0:
275,25,4588,1,2,1:0:0:0:
335,98,5065,1,8,1:0:0:0:
264,159,5541,6,0,B|239:181|239:181|245:253,1,104.999996795654,0|10,1:0|1:0,0:0:0:0:
181,322,6493,2,0,P|137:296|86:302,1,104.999996795654,2|8,1:0|1:0,0:0:0:0:
56,338,7207,6,0,B|61:277|61:277|43:246|43:246|49:185,1,157.499995193482,2|10,0:0|1:0,0:0:0:0:
77,95,8398,2,0,L|181:85,1,104.999996795654,2|0,1:0|1:0,0:0:0:0:
228,79,9112,6,0,P|299:67|322:135,1,157.499995193482,14|2,1:0|1:0,0:0:0:0:
235,172,10303,1,10,1:0:0:0:
243,265,10779,1,8,1:0:0:0:
336,288,11255,6,0,B|362:259|362:259|444:252|444:252|471:223,2,157.499995193482,14|2|2,1:2|0:0|1:0,0:0:0:0:
289,370,13160,2,0,P|238:377|192:353,1,104.999996795654,2|2,1:0|1:0,0:0:0:0:
196,306,13874,2,0,L|205:194,1,104.999996795654,2|2,0:0|0:0,0:0:0:0:
297,94,15065,6,0,P|371:87|413:149,1,157.499995193482,2|2,1:0|0:0,0:0:0:0:
326,185,16255,2,0,B|280:188|280:188|268:182|268:182|222:186,1,104.999996795654,2|2,0:0|0:0,0:0:0:0:
184,214,16969,6,0,L|72:204,1,104.999996795654,2|2,1:0|1:0,3:0:0:0:
41,175,17684,2,0,P|62:128|57:77,1,104.999996795654,2|2,0:0|0:0,0:0:0:0:
183,12,18874,6,0,L|302:22,1,104.999996795654,2|2,1:0|1:0,0:0:0:0:
334,24,19588,2,0,P|409:11|467:61,1,157.499995193482,2|2,0:0|1:0,0:0:0:0:
409,135,20779,6,0,B|387:159|387:159|394:231,1,104.999996795654,2|2,1:0|1:0,0:0:0:0:
397,278,21493,2,0,P|357:310|306:310,1,104.999996795654,2|2,0:0|0:0,0:0:0:0:
219,197,22684,6,0,B|194:175|194:175|122:182,1,104.999996795654,2|2,1:0|1:0,0:0:0:0:
29,195,23636,1,2,1:0:0:0:
13,289,24112,1,2,1:0:0:0:
97,333,24588,6,0,B|139:340|176:318|163:305|201:283|243:291,1,157.499995193482,2|2,1:0|0:0,0:0:0:0:
363,366,26017,1,0,1:0:0:0:
417,289,26493,6,0,L|405:161,1,104.999996795654,6|2,1:0|1:0,0:0:0:0:
459,105,27446,2,0,P|463:55|439:5,1,104.999996795654,2|2,1:0|1:0,0:0:0:0:
369,69,28398,2,0,B|308:63|308:63|277:81|277:81|216:75,2,157.499995193482,2|2|8,1:0|1:0|3:0,0:0:0:0:
459,105,30303,5,6,1:2:0:0:
506,186,30779,1,10,1:0:0:0:
485,278,31255,2,0,L|380:287,1,104.999996795654,2|8,1:0|1:0,0:0:0:0:
333,292,31969,6,0,B|298:262|298:262|186:272,1,157.499995193482,2|10,0:0|1:0,0:0:0:0:
101,310,33160,1,2,1:0:0:0:
45,240,33636,1,8,1:0:0:0:
87,155,34112,6,0,L|96:50,1,104.999996795654,2|10,1:0|1:0,0:0:0:0:
189,33,35065,1,2,1:0:0:0:
281,15,35541,1,10,1:0:0:0:
356,71,36017,2,0,B|365:175|365:175|392:194|434:179,1,157.499995193482,2|2,1:0|0:0,0:0:0:0:
462,178,36969,2,0,B|484:203|484:203|477:275,1,104.999996795654,0|8,1:0|1:0,0:0:0:0:
420,350,37922,5,6,1:0:0:0:
334,309,38398,1,2,1:0:0:0:
247,270,38874,2,0,B|205:258|166:277|177:291|139:309|97:298,1,157.499995193482,2|2,1:0|0:0,0:0:0:0:
59,269,39826,2,0,L|70:141,1,104.999996795654,2|2,1:0|1:0,0:0:0:0:
127,90,40779,1,0,1:0:0:0:
216,119,41255,1,0,1:0:0:0:
272,43,41731,6,0,P|304:34|368:73,1,104.999996795654,6|0,1:0|1:0,0:0:0:0:
373,112,42446,2,0,B|351:137|351:137|358:209,1,104.999996795654,2|2,3:0|1:0,0:0:0:0:
363,255,43160,1,2,3:0:0:0:
292,318,43636,6,0,B|242:333|242:333|196:309,1,104.999996795654,6|8,1:0|1:0,0:0:0:0:
120,250,44589,1,8,3:1:0:0:
151,161,45065,1,0,1:0:0:0:
32,83,45779,6,0,B|29:50|29:50|33:41|33:41|30:6,2,78.7499975967408,8|8|8,3:1|3:1|3:1,0:0:0:0:
9,222,47207,6,0,B|51:234|90:215|79:201|117:183|159:194,1,157.499995193482,6|10,1:0|1:0,0:0:0:0:
218,267,48398,2,0,L|322:276,1,104.999996795654,2|10,1:0|1:0,0:0:0:0:
369,281,49112,6,0,P|393:235|384:185,1,104.999996795654,2|2,0:0|0:0,0:0:0:0:
321,115,50065,1,2,0:0:0:0:
370,35,50541,1,2,0:0:0:0:
455,54,51017,6,0,B|482:103|482:103|442:195,1,157.499995193482,6|10,0:2|1:0,0:0:0:0:
389,275,52207,2,0,P|339:284|294:259,1,104.999996795654,2|10,1:0|1:0,0:0:0:0:
247,262,52922,6,0,L|135:271,1,104.999996795654,2|2,0:0|0:0,0:0:0:0:
48,280,53874,2,0,B|33:230|33:230|57:184,1,104.999996795654,2|2,0:0|0:0,0:0:0:0:
82,142,54588,1,10,1:0:0:0:
35,59,55065,5,4,1:0:0:0:
110,2,55541,2,0,L|221:11,1,104.999996795654,10|2,1:0|1:0,0:0:0:0:
277,80,56493,1,8,1:0:0:0:
366,50,56969,5,0,1:0:0:0:
429,120,57446,2,0,P|434:161|410:236,1,104.999996795654,10|2,1:0|1:0,0:0:0:0:
332,261,58398,1,8,1:0:0:0:
254,206,58874,6,0,B|212:194|173:213|184:227|146:245|104:234,1,157.499995193482,4|2,1:2|0:0,0:0:0:0:
62,211,59826,2,0,B|35:231|35:231|30:303,1,104.999996795654,2|10,1:0|1:0,0:0:0:0:
98,369,60779,5,4,1:0:0:0:
176,316,61255,1,2,1:0:0:0:
255,366,61731,2,0,P|306:368|353:341,1,104.999996795654,10|10,1:2|3:0,0:0:0:0:
285,275,62684,6,0,B|263:250|263:250|270:178,1,104.999996795654,6|10,1:0|1:0,0:0:0:0:
279,84,63636,2,0,P|256:15|185:29,1,157.499995193482,2|2,1:0|0:0,0:0:0:0:
194,122,64826,5,2,0:0:0:0:
108,161,65303,1,2,0:0:0:0:
123,253,65779,1,6,1:0:0:0:
215,267,66255,6,0,B|284:260|284:260|299:248|299:248|369:242,1,157.499995193482,6|10,1:2|1:0,0:0:0:0:
461,233,67446,2,0,P|466:181|438:138,1,104.999996795654,2|10,1:0|1:0,0:0:0:0:
393,133,68160,6,0,L|265:121,1,104.999996795654,2|2,0:0|0:0,0:0:0:0:
209,71,69112,2,0,P|143:58|77:131,1,157.499995193482,2|10,0:0|1:0,0:0:0:0:
125,198,70303,5,4,1:0:0:0:
64,273,70779,1,10,1:0:0:0:
146,318,71255,2,0,L|273:306,1,104.999996795654,2|8,1:0|1:0,0:0:0:0:
332,260,72207,5,0,1:0:0:0:
412,319,72684,1,10,1:0:0:0:
467,242,73160,2,0,P|472:201|448:126,1,104.999996795654,2|8,1:0|1:0,0:0:0:0:
365,112,74112,6,0,B|340:135|340:135|268:127,1,104.999996795654,6|10,1:0|1:0,0:0:0:0:
201,61,75065,2,0,P|128:73|125:155,1,157.499995193482,10|14,1:0|1:2,0:0:0:0:
159,169,76017,5,2,1:0:0:0:
94,237,76493,1,2,1:0:0:0:
156,307,76969,2,0,B|153:340|153:340|147:348|147:348|144:383,2,78.7499975967408,6|6|6,3:0|3:0|3:0,0:0:0:0:
254,205,78398,5,10,1:0:0:0:
336,253,78874,2,0,L|447:243,1,104.999996795654,2|10,1:0|1:0,0:0:0:0:
487,240,79588,6,0,B|457:205|457:205|467:93,1,157.499995193482,2|10,0:0|1:0,0:0:0:0:
400,26,80779,2,0,P|355:19|301:46,1,104.999996795654,2|10,1:0|1:0,0:0:0:0:
307,91,81493,6,0,B|313:159|313:159|324:174|324:174|331:243,1,157.499995193482,14|2,0:0|1:0,0:0:0:0:
271,317,82684,2,0,P|227:289|175:295,1,104.999996795654,2|0,1:0|1:0,0:0:0:0:
115,368,83636,5,10,1:0:0:0:
42,316,84112,1,10,1:3:0:0:
100,241,84588,2,0,B|102:207|102:207|108:199|108:199|111:164,2,78.7499975967408,14|6|6,3:0|3:0|3:0,0:0:0:0:
205,335,86017,5,10,1:0:0:0:
270,267,86493,2,0,B|294:243|294:243|366:251,1,104.999996795654,2|8,1:0|1:0,0:0:0:0:
412,256,87207,6,0,L|402:144,1,104.999996795654,6|2,1:2|1:0,0:0:0:0:
396,104,87922,1,2,3:0:0:0:
302,92,88398,2,0,B|268:89|268:89|260:83|260:83|225:80,2,78.7499975967408,12|12|12,3:2|3:2|3:1,0:1:0:0:
