osu file format v14

[General]
AudioFilename: audio.mp3
AudioLeadIn: 0
PreviewTime: 46967
Countdown: 0
SampleSet: Soft
StackLeniency: 0.5
Mode: 0
LetterboxInBreaks: 0
WidescreenStoryboard: 1

[Editor]
DistanceSpacing: 0.5
BeatDivisor: 4
GridSize: 16
TimelineZoom: 2.2

[Metadata]
Title:PaPaPa (TV Size)
TitleUnicode:パパパ (TV Size)
Artist:Saito Shuka
ArtistUnicode:斉藤朱夏
Creator:NotABox
Version:Advanced
Source:俺を好きなのはお前だけかよ
Tags:ORESUKI Ore wo Suki nano wa Omae dake ka yo Are you the only one who loves me? Sumireko Sanshokuin anime japanese op opening Kei Hayashi jpop j-pop pop Ralkinson
BeatmapID:2721474
BeatmapSetID:1070148

[Difficulty]
HPDrainRate:3.5
CircleSize:3.6
OverallDifficulty:6
ApproachRate:7
SliderMultiplier:2.2
SliderTickRate:1

[Events]
//Background and Video events
0,0,"pansybgsmol.jpg",0,0
//Break Periods
//Storyboard Layer 0 (Background)
//Storyboard Layer 1 (Fail)
//Storyboard Layer 2 (Pass)
//Storyboard Layer 3 (Foreground)
//Storyboard Layer 4 (Overlay)
//Storyboard Sound Samples

[TimingPoints]
-173,476.190476190476,4,2,1,60,1,0
3398,-142.857142857143,4,2,1,70,0,0
11255,-166.666666666666,4,2,1,60,0,0
26493,-166.666666666666,4,2,1,65,0,0
28398,-166.666666666666,4,2,1,70,0,0
30303,-166.666666666667,4,2,1,80,0,0
37922,-166.666666666667,4,2,1,60,0,0
41731,-142.857142857143,4,2,1,65,0,0
42326,-142.857142857143,4,2,1,65,0,0
42564,-142.857142857143,4,2,1,55,0,0
43636,-125,4,2,1,55,0,0
44588,-125,4,2,1,60,0,0
45065,-125,4,2,1,70,0,0
45779,-99.9999999999999,4,2,1,70,0,0
47207,-90.9090909090909,4,2,1,75,0,1
47684,-111.111111111111,4,2,1,75,0,1
55303,-111.111111111111,4,2,1,60,0,1
58874,-111.111111111111,4,2,1,70,0,1
60541,-111.111111111111,4,2,1,70,0,0
61731,-111.111111111111,4,2,1,75,0,0
62207,-111.111111111111,4,2,1,80,0,0
62684,-90.9090909090909,4,2,1,75,0,1
63160,-111.111111111111,4,2,1,75,0,1
70303,-111.111111111111,4,2,1,60,0,1
74112,-111.111111111111,4,2,1,70,0,0
76017,-111.111111111111,4,2,1,70,0,0
76255,-111.111111111111,4,2,1,75,0,0
76969,-100,4,2,1,80,0,1
77088,-100,4,2,1,80,0,0
77326,-100,4,2,1,80,0,1
77446,-100,4,2,1,80,0,0
77684,-100,4,2,1,80,0,1
78160,-125,4,2,1,70,0,0
83636,-111.111111111111,4,2,1,75,0,0
84112,-111.111111111111,4,2,1,80,0,0
84588,-100,4,2,1,80,0,1
84707,-52.6315789473684,4,2,1,80,0,0
84946,-52.6315789473684,4,2,1,80,0,1
85065,-52.6315789473684,4,2,1,80,0,0
85303,-52.6315789473684,4,2,1,75,0,1
85779,-125,4,2,1,70,0,0
88398,-52.6315789473684,4,2,1,80,0,0
88755,-52.6315789473684,4,2,1,75,0,0
89112,-52.6315789473684,4,2,1,80,0,0

[Colours]
Combo1 : 241,118,238
Combo2 : 255,255,96
Combo3 : 122,227,239

[HitObjects]
188,215,2446,5,12,1:0:0:0:
188,215,3398,6,0,B|194:148|194:148|185:132|185:132|190:64,1,153.999995300293,6|2,1:0|0:0,0:0:0:0:
278,108,4112,2,0,P|313:94|351:97,1,76.9999976501466,10|2,1:0|0:0,0:0:0:0:
429,149,4588,2,0,B|452:114|452:114|429:44,2,115.49999647522,2|2|2,1:0|0:0|0:0,0:0:0:0:
362,217,5541,5,0,1:0:0:0:
379,311,5779,1,2,0:0:0:0:
297,353,6017,2,0,L|220:347,1,76.9999976501466,10|2,1:0|0:0,0:0:0:0:
160,281,6493,2,0,B|130:273|101:286|101:286|73:298|43:291,1,115.49999647522,2|2,1:0|0:0,0:0:0:0:
29,284,6969,1,8,1:0:0:0:
67,204,7207,6,0,P|122:153|197:157,1,153.999995300293,2|2,0:0|0:0,0:0:0:0:
272,215,7922,2,0,P|287:180|288:142,1,76.9999976501466,10|2,1:0|0:0,0:0:0:0:
245,62,8398,2,0,B|229:44|229:44|341:53,1,115.49999647522,2|2,1:0|0:0,0:0:0:0:
337,53,8874,1,0,1:0:0:0:
289,143,9112,6,0,B|293:199|293:199|319:231|319:231|324:287,1,153.999995300293,14|10,1:0|1:0,3:0:0:0:
326,306,9707,1,8,1:0:0:0:
328,325,9826,1,2,1:0:0:0:
234,268,10065,1,10,3:0:0:0:
215,267,10184,1,8,3:0:0:0:
196,265,10303,2,0,L|140:260,4,38.4999988250733,10|8|0|2|8,1:0|1:0|1:0|1:0|1:0,0:0:0:0:
132,340,11017,1,10,1:0:0:0:
113,341,11136,1,10,1:0:0:0:
94,343,11255,6,0,P|53:347|18:335,1,65.9999979858399,14|2,1:2|0:0,0:0:0:0:
65,262,11731,1,2,1:0:0:0:
65,262,11969,2,0,L|76:128,1,131.99999597168,2|2,0:0|0:0,0:0:0:0:
54,53,12684,2,0,P|86:50|117:59,1,65.9999979858399,2|2,1:0|0:0,0:0:0:0:
160,133,13160,5,2,1:0:0:0:
160,133,13398,2,0,P|192:135|223:126,1,65.9999979858399,2|2,0:0|1:0,0:0:0:0:
273,61,13874,2,0,B|244:103|244:103|284:188,1,131.99999597168,2|2,0:0|0:0,0:0:0:0:
407,105,14826,1,2,0:0:0:0:
407,105,15065,6,0,L|311:113,1,65.9999979858399,2|2,1:0|0:0,0:0:0:0:
278,176,15541,1,2,1:0:0:0:
278,176,15779,2,0,B|244:184|212:170|212:170|181:157|148:164,1,131.99999597168,2|2,0:0|0:0,0:0:0:0:
71,137,16493,2,0,P|67:183|84:223,1,65.9999979858399,2|2,1:0|0:0,0:0:0:0:
143,248,16969,6,0,L|208:253,2,65.9999979858399,2|2|2,1:0|0:0|1:0,0:0:0:0:
69,284,17684,2,0,B|98:249|98:249|89:153,1,131.99999597168,2|2,0:0|0:0,0:0:0:0:
143,328,18636,1,2,0:0:0:0:
143,328,18874,6,0,L|208:333,1,65.9999979858399,2|2,1:0|0:0,0:0:0:0:
280,382,19350,1,2,1:0:0:0:
280,382,19588,2,0,P|294:330|246:253,1,131.99999597168,2|2,0:0|0:0,0:0:0:0:
204,202,20303,2,0,P|232:185|268:182,1,65.9999979858399,2|2,1:0|0:0,0:0:0:0:
338,220,20779,6,0,L|403:214,1,65.9999979858399,2|2,1:0|0:0,0:0:0:0:
477,247,21255,1,2,1:0:0:0:
477,247,21493,2,0,B|441:210|441:210|465:120,1,131.99999597168,2|2,0:0|0:0,0:0:0:0:
403,214,22446,1,2,0:0:0:0:
403,214,22684,6,0,L|338:220,1,65.9999979858399,2|2,1:0|0:0,0:0:0:0:
254,247,23160,2,0,L|259:181,1,65.9999979858399,2|2,1:0|0:0,0:0:0:0:
240,105,23636,1,2,1:0:0:0:
240,105,23874,1,2,0:0:0:0:
177,159,24112,2,0,P|145:162|113:154,1,65.9999979858399,2|2,1:0|0:0,0:0:0:0:
60,95,24588,6,0,B|56:51|56:51|48:42|48:42|44:-2,2,98.9999969787599,2|2|2,1:0|0:0|0:0,0:0:0:0:
113,154,25541,2,0,L|106:233,1,65.9999979858399,0|0,1:0|0:0,0:0:0:0:
55,295,26017,1,0,1:0:0:0:
128,345,26255,1,10,1:0:0:0:
144,343,26374,1,8,1:0:0:0:
160,342,26493,6,0,L|225:336,1,65.9999979858399,6|2,1:0|0:0,0:0:0:0:
308,373,26969,2,0,P|315:341|309:306,1,65.9999979858399,2|2,1:0|0:0,0:0:0:0:
243,250,27446,1,2,1:0:0:0:
243,250,27684,1,2,0:0:0:0:
319,201,27922,2,0,L|384:206,1,65.9999979858399,2|2,1:0|0:0,0:0:0:0:
473,237,28398,6,0,L|464:143,1,65.9999979858399,2|10,1:0|1:0,0:0:0:0:
473,156,28755,2,0,L|464:62,1,65.9999979858399,2|2,1:0|1:0,0:0:0:0:
457,77,29112,1,2,1:0:0:0:
381,126,29350,2,0,L|315:120,1,65.9999979858399,8|8,1:3|1:3,0:0:0:0:
298,120,29707,1,0,1:0:0:0:
300,137,29826,2,0,L|303:170,3,32.99999899292,8|8|8|8,3:0|3:0|3:0|3:0,0:0:0:0:
305,187,30303,5,6,1:2:0:0:
212,127,30779,2,0,P|180:118|148:122,1,65.9999979858399,10|2,1:0|0:0,0:0:0:0:
82,176,31255,2,0,B|59:132|59:132|74:85,2,98.9999969787599,2|2|2,1:0|0:0|0:0,0:0:0:0:
159,201,32207,6,0,L|238:207,1,65.9999979858399,0|2,1:0|0:0,0:0:0:0:
296,170,32684,2,0,P|306:201|303:234,1,65.9999979858399,10|2,1:0|0:0,0:0:0:0:
253,297,33160,2,0,B|276:316|276:316|345:310,1,98.9999969787599,2|2,1:0|0:0,0:0:0:0:
360,306,33636,2,0,P|390:292|432:295,1,65.9999979858399,8|2,1:0|0:0,0:0:0:0:
496,333,34112,6,0,B|509:303|509:303|501:272,1,65.9999979858399,2|2,1:0|0:0,0:0:0:0:
444,209,34588,2,0,L|449:143,1,65.9999979858399,10|2,1:0|0:0,0:0:0:0:
394,84,35065,1,2,1:0:0:0:
394,84,35303,1,2,0:0:0:0:
318,123,35541,2,0,L|242:128,1,65.9999979858399,10|2,1:0|0:0,0:0:0:0:
166,133,36017,6,0,B|170:89|170:89|177:79|177:79|181:35,2,98.9999969787599,2|2|2,1:0|0:0|0:0,0:0:0:0:
123,206,36969,2,0,P|153:217|186:216,1,65.9999979858399,0|12,1:0|1:0,0:0:0:0:
249,159,37446,1,8,1:0:0:0:
265,157,37565,1,8,1:0:0:0:
281,156,37684,1,8,3:0:0:0:
298,154,37803,1,8,3:0:0:0:
314,153,37922,6,0,L|305:248,1,65.9999979858399,6|2,1:0|0:0,0:0:0:0:
397,196,38398,2,0,L|405:291,1,65.9999979858399,2|2,1:0|0:0,0:0:0:0:
359,348,38874,2,0,P|309:307|246:316,1,131.99999597168,2|0,1:0|1:0,0:0:0:0:
192,383,39588,1,2,0:0:0:0:
113,339,39826,6,0,B|105:307|105:307|118:277,1,65.9999979858399,2|2,1:0|0:0,0:0:0:0:
156,194,40303,1,2,1:0:0:0:
70,160,40541,2,0,B|65:115|65:115|57:105|57:105|53:62,1,98.9999969787599,2|2,0:0|0:0,0:0:0:0:
51,44,41017,2,0,P|81:33|114:33,1,65.9999979858399,2|0,0:0|1:0,0:0:0:0:
178,86,41493,1,6,0:2:0:0:
260,0,41731,5,6,1:0:0:0:
319,135,41969,2,0,P|357:140|392:125,1,76.9999976501466,10|0,1:3|1:0,0:0:0:0:
402,109,42326,2,0,B|420:124|420:124|424:178,1,76.9999976501466,10|0,3:0|0:0,0:0:0:0:
424,197,42684,1,8,3:0:0:0:
381,272,42922,1,2,1:0:0:0:
380,292,43041,1,0,1:0:0:0:
378,311,43160,2,0,L|375:360,2,38.4999988250733,2|0|8,3:0|3:0|3:0,0:0:0:0:
303,181,43636,5,6,1:0:0:0:
237,298,43874,2,0,L|193:302,1,44,8|8,1:0|1:0,0:0:0:0:
161,278,44112,2,0,L|117:275,2,44,8|8|8,1:0|1:0|3:0,0:0:0:0:
223,209,44588,5,8,3:1:0:0:
176,129,44826,1,8,3:1:0:0:
86,150,45065,1,0,1:0:0:0:
83,173,45184,1,0,1:0:0:0:
81,198,45303,1,8,3:0:0:0:
78,222,45422,1,8,3:0:0:0:
54,69,45779,6,0,B|97:54|141:69|127:83|170:98|214:83,2,165,8|8|8,3:1|3:1|3:1,0:0:0:0:
182,1,47207,6,0,P|292:6|296:116,1,242.000007385254,6|0,1:0|0:0,0:0:0:0:
213,83,47922,6,0,B|199:130|199:130|221:174,1,98.9999969787599,10|0,1:0|0:0,0:0:0:0:
233,196,48279,1,2,0:0:0:0:
245,217,48398,2,0,L|118:205,1,98.9999969787599,2|2,1:0|0:0,0:0:0:0:
53,273,48874,1,10,1:0:0:0:
104,361,49112,6,0,B|141:316|141:316|284:304,1,197.99999395752,2|2,0:0|0:0,0:0:0:0:
379,337,49826,1,10,0:0:0:0:
463,299,50065,2,0,P|469:250|451:204,1,98.9999969787599,2|0,0:0|1:0,0:0:0:0:
369,147,50541,2,0,P|350:193|357:242,1,98.9999969787599,2|8,0:0|1:0,0:0:0:0:
512,79,51017,6,0,B|438:85|438:85|391:59|391:59|318:66,1,197.99999395752,6|0,0:2|0:0,0:0:0:0:
259,181,51731,2,0,P|187:193|129:150,1,148.49999546814,10|2,1:0|0:0,0:0:0:0:
151,138,52207,2,0,B|173:119|173:119|179:49,1,98.9999969787599,2|2,1:0|0:0,0:0:0:0:
181,23,52565,1,0,0:0:0:0:
184,1,52684,1,10,1:0:0:0:
36,84,52922,6,0,B|10:135|36:185|48:173|73:223|48:273,1,197.99999395752,2|2,0:0|0:0,0:0:0:0:
10,382,53636,1,10,1:0:0:0:
113,327,53874,2,0,B|143:289|199:297|199:297|238:345|313:330,1,197.99999395752,2|2,0:0|0:0,0:0:0:0:
201,212,54588,1,10,1:0:0:0:
242,119,54826,2,0,L|305:113,1,49.4999984893799,2|0,3:0|3:0,0:0:0:0:
315,112,55065,1,4,1:0:0:0:
404,55,55303,5,2,0:0:0:0:
428,57,55422,1,2,0:0:0:0:
452,59,55541,2,0,L|501:63,2,49.4999984893799,10|2|2,1:0|0:0|0:0,0:0:0:0:
438,135,56017,1,2,1:0:0:0:
440,159,56136,2,0,P|468:198|470:247,1,98.9999969787599,2|2,0:0|0:0,0:0:0:0:
458,269,56493,2,0,L|359:277,1,98.9999969787599,8|2,1:0|0:0,0:0:0:0:
282,345,56969,5,0,1:0:0:0:
186,312,57207,1,2,0:0:0:0:
162,310,57326,1,2,0:0:0:0:
138,308,57445,2,0,L|88:303,2,49.4999984893799,10|2|2,1:0|0:0|0:0,0:0:0:0:
156,227,57922,1,2,1:0:0:0:
154,203,58041,2,0,B|133:172|133:172|154:112,1,98.9999969787599,2|2,0:0|0:0,0:0:0:0:
165,91,58398,2,0,L|276:100,1,98.9999969787599,8|2,1:0|0:0,0:0:0:0:
389,154,58874,5,4,1:2:0:0:
421,65,59112,2,0,P|463:42|512:43,2,98.9999969787599,2|10|2,0:0|1:0|0:0,0:0:0:0:
489,137,59826,2,0,B|508:160|508:160|502:228,1,98.9999969787599,2|2,1:0|0:0,0:0:0:0:
386,193,60303,1,10,1:0:0:0:
311,273,60541,6,0,B|260:298|209:273|222:260|171:235|121:260,1,197.99999395752,6|2,0:1|1:0,0:0:0:0:
50,326,61255,2,0,P|26:274|35:221,1,98.9999969787599,2|2,1:0|1:0,0:0:0:0:
100,169,61731,1,10,1:2:0:0:
34,103,61969,1,10,1:2:0:0:
32,79,62088,1,8,1:2:0:0:
30,55,62207,1,10,3:0:0:0:
28,30,62326,1,8,3:0:0:0:
25,4,62446,2,0,L|74:8,1,49.4999984893799,8|8,3:0|3:0,0:0:0:0:
104,10,62684,6,0,B|170:15|170:15|212:-7|212:-7|278:-1,1,181.500005538941,6|0,1:0|0:0,0:0:0:0:
303,2,63160,1,10,1:0:0:0:
165,99,63636,2,0,P|163:152|186:201,1,98.9999969787599,2|2,1:0|0:0,0:0:0:0:
263,132,64112,1,10,1:0:0:0:
292,236,64350,6,0,P|198:227|151:307,1,197.99999395752,2|2,0:0|0:0,0:0:0:0:
217,377,65065,1,10,0:0:0:0:
308,331,65303,2,0,L|406:340,1,98.9999969787599,2|0,0:0|1:0,0:0:0:0:
292,236,65779,5,6,1:0:0:0:
220,365,66017,1,8,3:1:0:0:
105,260,66255,2,0,B|63:223|63:223|204:211,1,197.99999395752,6|0,1:2|0:0,0:0:0:0:
280,139,66969,2,0,P|328:133|375:149,1,98.9999969787599,10|0,1:0|0:0,0:0:0:0:
393,164,67326,1,2,0:0:0:0:
404,186,67446,2,0,L|412:87,1,98.9999969787599,2|2,1:0|0:0,0:0:0:0:
315,16,67922,1,10,1:0:0:0:
215,81,68160,6,0,B|162:101|113:72|127:60|78:30|26:51,1,197.99999395752,2|2,0:0|0:0,0:0:0:0:
180,1,68874,1,10,1:0:0:0:
60,131,69112,2,0,B|13:187|13:187|44:308,1,197.99999395752,2|2,0:0|0:0,0:0:0:0:
130,358,69826,1,10,1:0:0:0:
206,290,70065,2,0,L|200:226,1,49.4999984893799,2|0,3:0|3:0,0:0:0:0:
199,217,70304,1,4,1:0:0:0:
254,144,70541,5,2,0:0:0:0:
256,120,70660,1,2,0:0:0:0:
258,96,70779,2,0,L|262:46,2,49.4999984893799,10|2|2,1:0|0:0|0:0,0:0:0:0:
340,112,71255,1,2,1:0:0:0:
364,110,71374,2,0,P|405:84|454:83,1,98.9999969787599,2|2,0:0|0:0,0:0:0:0:
476,94,71731,2,0,L|485:205,1,98.9999969787599,8|2,1:0|0:0,0:0:0:0:
507,293,72207,5,0,1:0:0:0:
421,332,72446,1,2,0:0:0:0:
397,330,72565,1,2,0:0:0:0:
373,328,72684,2,0,L|323:324,2,49.4999984893799,10|2|2,1:0|0:0|0:0,0:0:0:0:
391,247,73160,1,2,1:0:0:0:
371,231,73279,2,0,B|348:212|348:212|280:218,1,98.9999969787599,2|2,0:0|0:0,0:0:0:0:
254,220,73636,2,0,L|263:108,1,98.9999969787599,8|2,1:0|1:0,0:0:0:0:
373,61,74112,6,0,B|320:40|271:69|285:81|236:111|184:90,1,197.99999395752,6|10,1:0|1:0,0:0:0:0:
136,8,74826,1,2,0:0:0:0:
63,97,75065,2,0,B|66:140|66:140|74:149|74:149|77:192,2,98.9999969787599,10|8|8,1:0|1:0|1:0,0:0:0:0:
2,255,75779,1,14,1:2:0:0:
108,201,76017,5,2,1:0:0:0:
162,307,76255,1,10,1:0:0:0:
232,173,76493,1,2,1:0:0:0:
230,149,76612,1,0,1:0:0:0:
228,125,76731,1,10,3:0:0:0:
226,100,76850,1,8,3:0:0:0:
224,75,76969,6,0,B|295:80|295:80|312:93|312:93|383:99,2,165,6|6|6,3:0|3:0|3:0,0:0:0:0:
355,14,78160,5,2,0:0:0:0:
355,14,78398,2,0,L|466:5,1,88,10|2,1:0|0:0,0:0:0:0:
504,76,78874,2,0,P|495:118|502:172,1,88,2|2,1:0|0:0,0:0:0:0:
440,231,79350,1,10,1:0:0:0:
483,320,79588,6,0,B|438:301|394:328|406:339|362:365|315:347,1,176,2|2,0:0|0:0,0:0:0:0:
343,258,80303,2,0,B|353:214|353:214|335:174,1,88,10|2,1:0|0:0,0:0:0:0:
240,140,80779,1,2,1:0:0:0:
240,140,81017,2,0,L|144:149,1,88,2|10,0:0|1:0,0:0:0:0:
48,94,81493,6,0,P|114:150|110:245,1,176,14|2,0:0|1:0,0:0:0:0:
60,317,82207,2,0,B|100:335|100:335|144:325,1,88,2|2,1:0|1:0,0:0:0:0:
219,248,82684,2,0,L|331:257,1,88,2|0,1:0|1:0,0:0:0:0:
329,257,83041,1,2,1:0:0:0:
351,259,83160,1,0,1:0:0:0:
409,177,83398,1,2,1:0:0:0:
322,86,83636,6,0,P|272:85|227:105,1,98.9999969787599,10|10,1:0|1:0,0:0:0:0:
172,184,84112,1,10,1:3:0:0:
193,195,84231,1,8,1:3:0:0:
217,202,84350,1,10,3:0:0:0:
241,202,84469,1,8,3:0:0:0:
265,197,84588,6,0,B|326:191|326:191|360:163|360:163|421:158,2,165,14|6|6,3:0|3:0|3:0,3:0:0:0:
405,252,85779,5,2,0:0:0:0:
405,252,86017,2,0,P|405:323|396:347,1,88,10|2,1:0|0:0,0:0:0:0:
297,295,86493,2,0,B|240:289|240:289|225:296|225:296|168:291,1,132,2|2,1:0|0:0,0:0:0:0:
145,290,86969,1,8,1:0:0:0:
206,209,87207,6,0,B|232:168|232:168|206:88,1,132,6|0,1:2|1:0,0:0:0:0:
200,67,87684,2,0,L|247:63,1,44,2|0,1:0|1:0,0:0:0:0:
265,60,87922,1,2,3:0:0:0:
286,59,88041,1,0,3:0:0:0:
308,57,88160,1,10,3:0:0:0:
330,55,88279,1,8,3:0:0:0:
352,53,88398,5,12,3:2:0:0:
342,148,88755,5,12,3:2:0:0:
334,244,89112,5,12,3:1:0:0:
