osu file format v14

[General]
AudioFilename: audio.mp3
AudioLeadIn: 0
PreviewTime: 46823
Countdown: 0
SampleSet: Soft
StackLeniency: 0.7
Mode: 2
LetterboxInBreaks: 0
WidescreenStoryboard: 1

[Editor]
DistanceSpacing: 1
BeatDivisor: 4
GridSize: 8
TimelineZoom: 2.28

[Metadata]
Title:PaPaPa (TV Size)
TitleUnicode:パパパ (TV Size)
Artist:Saito Shuka
ArtistUnicode:斉藤朱夏
Creator:Kagari
Version:Platter
Source:俺を好きなのはお前だけかよ
Tags:ORESUKI Ore wo Suki nano wa Omae dake ka yo Are you the only one who loves me? Sumireko Sanshokuin anime japanese op opening Kei Hayashi jpop j-pop pop Saitou ハヤシケイ 堀江晶太 kemu
BeatmapID:2239730
BeatmapSetID:1069693

[Difficulty]
HPDrainRate:5
CircleSize:3.6
OverallDifficulty:8
ApproachRate:8
SliderMultiplier:3.57999990463257
SliderTickRate:2

[Events]
//Background and Video events
0,0,"pansy.jpg",0,0
Video,0,"papapa.avi"
//Break Periods
//Storyboard Layer 0 (Background)
//Storyboard Layer 1 (Fail)
//Storyboard Layer 2 (Pass)
//Storyboard Layer 3 (Foreground)
//Storyboard Layer 4 (Overlay)
//Storyboard Sound Samples

[TimingPoints]
-557,476.190476190476,4,2,1,55,1,0
3014,-100,4,2,1,70,0,0
10871,-100,4,2,1,60,0,0
29919,-100,4,2,1,65,0,0
37538,-100,4,2,1,70,0,0
46823,-100,4,2,1,75,0,1
61823,-100,4,2,1,75,0,0
62300,-100,4,2,1,75,0,1
77300,-100,4,2,1,75,0,0

[Colours]
Combo1 : 255,255,0
Combo2 : 155,72,183
Combo3 : 189,183,221

[HitObjects]
192,144,395,5,0,0:0:0:0:
320,144,633,1,0,0:0:0:0:
192,200,871,1,0,0:0:0:0:
320,208,1109,1,0,0:0:0:0:
256,208,1228,1,0,0:0:0:0:
192,208,1347,1,0,0:0:0:0:
256,240,1466,1,0,0:0:0:0:
384,216,1704,1,0,0:0:0:0:
384,144,1823,1,2,0:0:0:0:
160,280,2062,6,0,P|144:200|184:112,1,178.999995231629,8|0,0:0|0:0,0:0:0:0:
224,88,2419,1,0,0:0:0:0:
288,72,2538,1,0,0:0:0:0:
408,64,2776,1,0,0:0:0:0:
88,352,3014,6,0,P|24:208|112:40,1,357.999990463257,6|2,0:0|0:0,0:0:0:0:
232,80,3728,1,8,0:0:0:0:
112,120,3966,1,0,0:0:0:0:
336,248,4204,2,0,P|328:160|256:112,1,178.999995231629,2|0,0:0|0:0,0:0:0:0:
144,112,4681,1,8,0:0:0:0:
368,248,4919,6,0,P|360:176|280:112,1,178.999995231629,0|2,0:0|0:0,0:0:0:0:
160,64,5395,1,0,0:0:0:0:
280,56,5633,1,8,0:0:0:0:
160,128,5871,1,0,0:0:0:0:
384,224,6109,2,0,P|344:136|272:104,1,178.999995231629,2|0,0:0|0:0,0:0:0:0:
152,104,6585,1,8,0:0:0:0:
376,264,6823,6,0,L|472:112,2,178.999995231629,0|2|0,0:0|0:0|0:0,0:0:0:0:
256,72,7538,1,8,0:0:0:0:
368,72,7776,1,0,0:0:0:0:
152,232,8014,2,0,P|160:144|232:96,1,178.999995231629,2|0,0:0|0:0,0:0:0:0:
352,80,8490,1,8,0:0:0:0:
16,280,8728,6,0,P|16:208|80:128,1,178.999995231629,6|2,0:0|0:0,0:0:0:0:
200,120,9204,1,2,0:0:0:0:
80,200,9442,1,10,0:0:0:0:
80,248,9681,1,2,0:0:0:0:
304,272,9919,5,2,0:0:0:0:
304,224,10038,1,8,0:0:0:0:
248,192,10157,1,8,0:0:0:0:
192,176,10276,1,8,0:0:0:0:
136,160,10395,1,8,0:0:0:0:
80,136,10514,1,8,0:0:0:0:
80,96,10633,1,8,0:3:0:0:
384,64,10871,5,6,0:0:0:0:
264,96,11109,1,0,0:0:0:0:
384,128,11347,1,2,0:0:0:0:
160,288,11585,2,0,L|80:128,2,178.999995231629,0|2|0,0:0|0:0|0:0,0:0:0:0:
384,240,12300,2,0,P|392:152|368:64,1,178.999995231629,2|0,0:0|0:0,0:0:0:0:
144,96,12776,5,2,0:0:0:0:
256,96,13014,1,0,0:0:0:0:
368,96,13252,1,2,0:0:0:0:
144,240,13490,2,0,P|120:152|152:72,1,178.999995231629,0|2,0:0|0:0,0:0:0:0:
368,240,13966,2,0,P|448:192|448:112,1,178.999995231629,0|2,0:0|0:0,0:0:0:0:
376,64,14442,1,0,0:0:0:0:
128,64,14681,5,2,0:0:0:0:
248,96,14919,1,0,0:0:0:0:
128,128,15157,1,2,0:0:0:0:
352,288,15395,2,0,L|432:128,2,178.999995231629,0|2|0,0:0|0:0|0:0,0:0:0:0:
128,240,16110,2,0,P|120:152|144:64,1,178.999995231629,2|0,0:0|0:0,0:0:0:0:
448,96,16585,5,2,0:0:0:0:
328,120,16823,1,0,0:0:0:0:
448,160,17061,1,2,0:0:0:0:
224,224,17300,2,0,P|176:168|168:64,1,178.999995231629,0|2,0:0|0:0,0:0:0:0:
384,240,17776,2,0,P|456:200|456:112,1,178.999995231629,0|2,0:0|0:0,0:0:0:0:
368,72,18252,1,0,0:0:0:0:
128,64,18490,5,2,0:0:0:0:
248,96,18728,1,0,0:0:0:0:
128,128,18966,1,2,0:0:0:0:
352,288,19204,2,0,L|432:128,2,178.999995231629,0|2|0,0:0|0:0|0:0,0:0:0:0:
128,240,19919,2,0,P|120:152|144:64,1,178.999995231629,2|0,0:0|0:0,0:0:0:0:
368,96,20395,5,2,0:0:0:0:
256,96,20633,1,0,0:0:0:0:
144,96,20871,1,2,0:0:0:0:
368,240,21109,2,0,P|392:152|360:72,1,178.999995231629,0|2,0:0|0:0,0:0:0:0:
136,248,21585,2,0,L|176:72,1,178.999995231629,0|2,0:0|0:0,0:0:0:0:
328,80,22061,1,0,0:0:0:0:
104,256,22300,6,0,P|64:184|80:88,1,178.999995231629,2|0,0:0|0:0,0:0:0:0:
208,64,22776,1,2,0:0:0:0:
80,72,23014,1,0,0:0:0:0:
304,216,23252,2,0,P|384:160|376:88,1,178.999995231629,2|0,0:0|0:0,0:0:0:0:
248,80,23728,1,2,0:0:0:0:
376,56,23966,1,0,0:0:0:0:
152,224,24204,6,0,P|72:176|56:96,1,178.999995231629,2|0,0:0|0:0,0:0:0:0:
72,56,24562,1,0,0:0:0:0:
112,64,24681,1,2,0:0:0:0:
328,200,24919,2,0,P|344:112|296:40,1,178.999995231629,0|2,0:0|0:0,0:0:0:0:
184,160,25395,1,0,0:0:0:0:
408,216,25633,2,0,P|464:144|432:72,1,178.999995231629,2|8,0:0|0:0,0:0:0:0:
104,152,26109,5,6,0:0:0:0:
232,168,26347,1,0,0:0:0:0:
104,232,26585,2,0,L|168:64,1,178.999995231629,2|0,0:0|0:0,0:0:0:0:
392,232,27062,2,0,P|448:144|448:72,1,178.999995231629,2|0,0:0|0:0,0:0:0:0:
320,72,27538,1,2,0:0:0:0:
448,72,27776,1,8,0:0:0:0:
144,248,28014,6,0,P|128:168|144:72,1,178.999995231629,6|2,0:0|0:0,0:0:0:0:
368,144,28490,1,8,0:0:0:0:
416,96,28609,1,8,0:0:0:0:
368,48,28728,1,8,0:0:0:0:
240,192,28966,5,8,0:3:0:0:
184,160,29085,1,8,0:3:0:0:
184,120,29204,1,8,0:3:0:0:
240,96,29323,1,8,0:3:0:0:
360,208,29442,1,8,0:0:0:0:
360,128,29681,1,8,0:0:0:0:
48,256,29919,6,0,P|48:176|112:104,1,178.999995231629,6|0,0:0|0:0,0:0:0:0:
240,96,30395,1,8,0:0:0:0:
112,96,30633,1,0,0:0:0:0:
336,232,30871,2,0,P|336:152|296:64,1,178.999995231629,2|0,0:0|0:0,0:0:0:0:
248,80,31228,1,2,0:0:0:0:
192,72,31347,1,8,0:0:0:0:
416,272,31585,6,0,P|464:176|448:104,1,178.999995231629,0|2,0:0|0:0,0:0:0:0:
320,112,32062,1,0,0:0:0:0:
448,56,32300,1,8,0:0:0:0:
320,192,32538,1,0,0:0:0:0:
96,232,32776,2,0,P|32:192|56:104,1,178.999995231629,2|0,0:0|0:0,0:0:0:0:
112,88,33133,1,2,0:0:0:0:
168,80,33252,1,8,0:0:0:0:
56,176,33490,1,0,0:0:0:0:
280,264,33728,6,0,P|328:208|320:104,1,178.999995231629,2|0,0:0|0:0,0:0:0:0:
192,80,34204,1,8,0:0:0:0:
320,144,34442,1,0,0:0:0:0:
96,208,34681,1,2,0:0:0:0:
96,136,34919,1,0,0:0:0:0:
224,88,35157,1,8,0:0:0:0:
96,72,35395,1,0,0:0:0:0:
400,64,35633,6,0,P|456:128|448:216,1,178.999995231629,2|0,0:0|0:0,0:0:0:0:
384,232,35990,1,0,0:0:0:0:
320,256,36109,1,8,0:0:0:0:
256,240,36228,1,0,0:0:0:0:
256,192,36347,1,0,0:0:0:0:
296,144,36466,1,0,0:0:0:0:
352,128,36585,5,2,0:0:0:0:
224,104,36823,1,8,0:0:0:0:
440,184,37062,2,2,L|496:112,1,89.4999976158143
440,80,37300,1,8,0:0:0:0:
112,248,37538,6,0,P|72:168|112:96,1,178.999995231629,6|0,0:0|0:0,0:0:0:0:
240,80,38014,1,8,0:0:0:0:
112,72,38252,1,0,0:0:0:0:
336,168,38490,5,2,0:0:0:0:
392,168,38609,1,0,0:0:0:0:
392,104,38728,1,0,0:0:0:0:
336,80,38847,1,0,0:0:0:0:
280,64,38966,1,8,0:0:0:0:
408,56,39204,1,0,0:0:0:0:
104,216,39442,5,2,0:0:0:0:
232,184,39681,1,0,0:0:0:0:
104,152,39919,1,8,0:0:0:0:
328,200,40157,2,0,L|400:144,1,89.4999976158143
432,88,40395,5,2,0:0:0:0:
384,72,40514,1,0,0:0:0:0:
320,64,40633,1,0,0:0:0:0:
272,104,40752,1,0,0:0:0:0:
320,136,40871,1,8,0:0:0:0:
440,88,41109,1,0,0:0:0:0:
88,128,41347,5,6,0:0:0:0:
200,168,41585,1,8,0:3:0:0:
128,224,41704,2,0,L|128:128,1,89.4999976158143,8|8,0:3|0:0,0:0:0:0:
192,144,41942,1,8,0:3:0:0:
312,200,42062,6,0,P|352:120|312:48,1,178.999995231629,0|8,0:0|0:3,0:0:0:0:
200,72,42538,1,8,0:3:0:0:
424,208,42776,2,8,L|472:128,2,89.4999976158143,8|8|8,0:3|0:3|0:3,0:3:0:0:
112,232,43252,6,0,P|40:200|48:112,1,178.999995231629,6|8,0:0|0:0,0:0:0:0:
120,48,43609,1,8,0:0:0:0:
192,80,43728,1,8,0:0:0:0:
192,144,43847,1,8,0:0:0:0:
120,160,43966,1,8,0:0:0:0:
352,240,44204,6,0,P|400:200|360:96,1,178.999995231629,8|8,0:0|0:0,0:0:0:0:
320,104,44522,1,8,0:0:0:0:
280,96,44601,1,8,0:0:0:0:
280,72,44681,1,8,0:3:0:0:
320,48,44800,1,8,0:3:0:0:
376,96,44919,1,8,0:3:0:0:
376,160,45038,1,4,0:3:0:0:
120,192,45395,5,10,0:0:0:0:
416,192,45752,1,10,0:0:0:0:
104,344,46109,2,0,P|16:192|64:24,1,357.999990463257,4|0,0:3|0:0,0:0:0:0:
392,320,46823,6,0,P|472:192|384:24,1,357.999990463257,6|0,0:0|0:0,0:0:0:0:
160,232,47538,2,0,L|208:56,1,178.999995231629,8|0,0:0|0:0,0:0:0:0:
432,120,48014,2,0,L|312:256,2,178.999995231629,2|0|8,0:0|0:0|0:0,0:0:0:0:
96,264,48728,6,0,P|40:192|72:120,1,178.999995231629,0|2,0:0|0:0,0:0:0:0:
200,96,49204,1,0,0:0:0:0:
72,80,49442,1,8,0:0:0:0:
400,232,49681,2,0,L|336:64,1,178.999995231629,0|2,0:0|0:0,0:0:0:0:
112,232,50157,2,0,P|64:152|96:80,1,178.999995231629,0|8,0:0|0:0,0:0:0:0:
400,216,50633,6,0,P|456:160|480:56,2,178.999995231629,0|2|0,0:0|0:0|0:0,0:0:0:0:
176,232,51347,2,0,L|224:56,1,178.999995231629,8|0,0:0|0:0,0:0:0:0:
448,96,51823,2,0,L|312:216,2,178.999995231629,2|0|8,0:0|0:0|0:0,0:0:0:0:
96,264,52538,6,0,P|24:200|32:120,1,178.999995231629,0|2,0:0|0:0,0:0:0:0:
160,96,53014,1,0,0:0:0:0:
32,80,53252,1,8,0:0:0:0:
344,240,53491,2,0,L|280:72,1,178.999995231629,0|2,0:0|0:0,0:0:0:0:
48,64,53966,1,0,0:0:0:0:
176,96,54204,1,8,0:0:0:0:
48,136,54442,1,8,0:0:0:0:
400,240,54681,6,0,P|464:200|488:104,1,178.999995231629,6|0,0:0|0:0,0:0:0:0:
432,112,55038,1,0,0:0:0:0:
368,112,55157,1,8,0:0:0:0:
496,56,55395,1,0,0:0:0:0:
272,152,55633,5,2,0:0:0:0:
344,144,55752,2,0,L|408:80,1,89.4999976158143
336,144,55990,2,0,L|272:80,1,89.4999976158143,0|8,0:0|0:0,0:0:0:0:
272,48,56228,2,0,L|336:112,1,89.4999976158143
112,240,56585,6,0,P|48:200|24:104,1,178.999995231629,2|0,0:0|0:0,0:0:0:0:
80,112,56942,1,0,0:0:0:0:
144,112,57061,1,8,0:0:0:0:
16,56,57299,1,0,0:0:0:0:
240,152,57538,5,2,0:0:0:0:
168,152,57657,2,0,L|104:88,1,89.4999976158143
176,152,57895,2,0,L|240:88,1,89.4999976158143,0|8,0:0|0:0,0:0:0:0:
240,56,58133,2,0,L|176:120,1,89.4999976158143
392,224,58490,6,0,P|432:144|392:72,1,178.999995231629,2|0,0:0|0:0,0:0:0:0:
168,232,58966,2,0,P|128:152|168:80,1,178.999995231629,8|0,0:0|0:0,0:0:0:0:
296,96,59442,1,2,0:0:0:0:
168,96,59681,1,0,0:0:0:0:
392,232,59919,2,0,P|456:192|488:96,1,178.999995231629,8|0,0:0|0:0,0:0:0:0:
272,128,60395,5,2,0:0:0:0:
400,104,60633,1,8,0:3:0:0:
272,80,60871,1,8,0:0:0:0:
400,56,61109,1,8,0:0:0:0:
176,216,61347,5,2,0:0:0:0:
104,192,61466,1,8,0:3:0:0:
104,144,61585,1,8,0:3:0:0:
176,120,61704,1,8,0:3:0:0:
296,200,61823,1,8,0:0:0:0:
352,168,61942,1,8,0:0:0:0:
408,128,62061,1,8,0:0:0:0:
104,256,62300,6,0,P|64:192|104:104,1,178.999995231629,6|0,0:0|0:0,0:0:0:0:
328,248,62776,2,0,P|344:160|304:80,1,178.999995231629,8|0,0:0|0:0,0:0:0:0:
80,120,63252,2,0,L|200:256,2,178.999995231629,2|0|8,0:0|0:0|0:0,0:0:0:0:
384,264,63966,6,0,P|416:208|384:104,1,178.999995231629,0|2,0:0|0:0,0:0:0:0:
256,96,64442,1,0,0:0:0:0:
384,80,64680,1,8,0:0:0:0:
160,240,64919,2,0,P|128:184|160:80,1,178.999995231629,0|2,0:0|0:0,0:0:0:0:
464,136,65395,1,8,0:0:0:0:
464,72,65633,1,8,0:3:0:0:
112,216,65871,6,0,P|48:168|16:72,2,178.999995231629,6|0|0,0:0|0:0|0:0,0:0:0:0:
336,232,66585,2,0,P|336:160|288:64,1,178.999995231629,8|0,0:0|0:0,0:0:0:0:
64,96,67061,2,0,L|200:216,2,178.999995231629,2|0|8,0:0|0:0|0:0,0:0:0:0:
416,264,67776,6,0,P|472:192|440:120,1,178.999995231629,0|2,0:0|0:0,0:0:0:0:
312,96,68252,1,0,0:0:0:0:
440,80,68490,1,8,0:0:0:0:
128,248,68729,2,0,L|192:80,1,178.999995231629,0|2,0:0|0:0,0:0:0:0:
416,72,69204,1,0,0:0:0:0:
288,96,69442,1,8,0:0:0:0:
416,136,69680,1,8,0:0:0:0:
104,248,69919,6,0,P|32:208|24:112,1,178.999995231629,6|0,0:0|0:0,0:0:0:0:
80,120,70276,1,0,0:0:0:0:
144,120,70395,1,8,0:0:0:0:
16,64,70633,1,0,0:0:0:0:
216,160,70871,5,2,0:0:0:0:
144,176,70990,2,0,L|104:96,1,89.4999976158143
176,168,71228,2,0,L|232:96,2,89.4999976158143,0|8|0,0:0|0:0|0:0,0:0:0:0:
104,224,71585,1,0,0:0:0:0:
408,248,71823,6,0,P|480:208|488:112,1,178.999995231629,2|0,0:0|0:0,0:0:0:0:
432,120,72180,1,0,0:0:0:0:
368,120,72299,1,8,0:0:0:0:
496,64,72537,1,0,0:0:0:0:
296,160,72775,5,2,0:0:0:0:
368,176,72895,2,0,L|408:96,1,89.4999976158143
336,176,73132,2,0,L|280:104,2,89.4999976158143,0|8|0,0:0|0:0|0:0,0:0:0:0:
408,232,73489,1,0,0:0:0:0:
88,232,73728,6,0,P|32:160|64:88,1,178.999995231629,6|0,0:0|0:0,0:0:0:0:
192,88,74204,1,8,0:0:0:0:
64,79,74442,1,0,0:0:0:0:
288,240,74681,2,0,P|360:176|344:104,1,178.999995231629,2|0,0:0|0:0,0:0:0:0:
120,160,75157,2,0,L|64:88,2,89.4999976158143,8|0|8,0:0|0:0|0:0,0:0:0:0:
424,192,75633,5,2,0:0:0:0:
488,192,75752,1,8,0:3:0:0:
488,128,75871,1,8,0:3:0:0:
424,128,75990,1,8,0:3:0:0:
360,120,76109,1,8,0:0:0:0:
424,80,76228,1,8,0:0:0:0:
488,56,76347,1,8,0:0:0:0:
184,184,76585,5,10,0:0:0:0:
368,184,76942,1,4,0:3:0:0:
112,352,77300,6,0,P|24:208|120:64,1,357.999990463257,6|2,0:0|0:0,0:0:0:0:
248,88,78014,1,8,0:0:0:0:
120,136,78252,1,0,0:0:0:0:
344,160,78490,1,2,0:0:0:0:
216,128,78728,1,0,0:0:0:0:
344,104,78966,1,8,0:0:0:0:
120,224,79204,6,0,P|136:144|216:96,1,178.999995231629,0|2,0:0|0:0,0:0:0:0:
344,80,79681,1,0,0:0:0:0:
216,88,79919,1,8,0:0:0:0:
344,144,80157,1,0,0:0:0:0:
128,224,80395,2,0,P|40:184|40:112,1,178.999995231629,2|0,0:0|0:0,0:0:0:0:
168,104,80871,1,8,0:0:0:0:
40,72,81109,1,0,0:0:0:0:
456,152,81347,5,2,0:0:0:0:
328,160,81585,1,8,0:0:0:0:
456,208,81823,2,0,P|488:152|456:48,1,178.999995231629,8|8,0:3|0:0,0:0:0:0:
248,200,82300,5,2,0:0:0:0:
200,160,82419,1,2,0:0:0:0:
248,128,82538,1,8,0:3:0:0:
304,192,82657,1,8,0:3:0:0:
368,168,82776,1,8,0:0:0:0:
368,120,82895,1,8,0:0:0:0:
304,112,83014,1,8,0:3:0:0:
88,192,83252,5,2,0:0:0:0:
24,192,83371,1,8,0:3:0:0:
24,128,83490,1,8,0:3:0:0:
88,128,83609,1,8,0:3:0:0:
152,120,83728,1,8,0:0:0:0:
88,80,83847,1,8,0:0:0:0:
24,56,83966,1,8,0:0:0:0:
328,192,84204,5,10,0:0:0:0:
144,184,84561,1,4,0:3:0:0:
408,352,84919,6,0,P|472:264|408:40,1,357.999990463257,6|2,0:0|0:0,0:0:0:0:
280,72,85633,1,8,0:0:0:0:
408,112,85871,1,0,0:0:0:0:
184,232,86109,2,0,P|152:168|208:88,1,178.999995231629,2|0,0:0|0:0,0:0:0:0:
272,64,86466,1,0,0:0:0:0:
336,48,86585,1,8,0:0:0:0:
32,240,86823,6,0,P|16:152|64:80,1,178.999995231629,6|2,0:0|0:0,0:0:0:0:
280,80,87300,1,2,0:0:0:0:
64,184,87538,2,8,L|8:112,1,89.4999976158143
64,144,87776,1,8,0:3:0:0:
368,192,88014,5,10,0:0:0:0:
184,192,88371,1,4,0:3:0:0:
480,136,88728,1,6,0:0:0:0:
