osu file format v14

[General]
AudioFilename: S.S.H.-L.L. Infinite Beating.ver.mp3
AudioLeadIn: 2000
PreviewTime: 173492
Countdown: 0
SampleSet: Soft
StackLeniency: 0.7
Mode: 0
LetterboxInBreaks: 0
WidescreenStoryboard: 0

[Editor]
Bookmarks: 79047,213492
DistanceSpacing: 0.6
BeatDivisor: 4
GridSize: 4
TimelineZoom: 3.199999

[Metadata]
Title:L.L. Infinite Beating.ver
TitleUnicode:L.L. Infinite Beating.ver
Artist:Saitama Saisyu Heiki
ArtistUnicode:埼玉最終兵器
Creator:sjoy
Version:MAX
Source:プロジェクトケルベルス
Tags:PROJECT CERBERUS Phase0.01 SSH s.s.h.
BeatmapID:877564
BeatmapSetID:403581

[Difficulty]
HPDrainRate:6
CircleSize:4.5
OverallDifficulty:9
ApproachRate:9.5
SliderMultiplier:1.8
SliderTickRate:2

[Events]
//Background and Video events
0,0,"BG.jpg",0,0
//Break Periods
//Storyboard Layer 0 (Background)
//Storyboard Layer 1 (Fail)
//Storyboard Layer 2 (Pass)
//Storyboard Layer 3 (Foreground)
//Storyboard Sound Samples

[TimingPoints]
-256,277.777777777778,4,2,0,80,1,0
716,-100,4,2,1,80,0,0
1549,-133.333333333333,4,2,1,50,0,0
5438,-133.333333333333,4,2,1,60,0,0
9744,-200,4,2,1,60,0,0
10021,-133.333333333333,4,1,2,50,0,0
10159,277.777777777778,4,1,2,50,1,0
10297,-133.333333333333,4,1,2,50,0,0
21270,-100,4,1,1,60,0,0
43492,-100,4,1,2,65,0,0
59186,-100,4,1,1,65,0,0
61270,-133.333333333333,4,1,2,50,0,0
74603,-133.333333333333,4,1,2,60,0,0
77936,-133.333333333333,4,1,2,70,0,0
79047,-100,4,1,1,70,0,0
81339,-100,4,2,1,70,0,0
81478,-100,4,1,1,70,0,0
85784,-100,4,2,1,70,0,0
85922,-100,4,1,1,70,0,0
88006,-100,4,2,1,70,0,0
88145,-100,4,1,1,70,0,0
89117,-100,4,2,1,70,0,0
89256,-100,4,1,1,70,0,0
90228,-100,4,2,1,70,0,0
90367,-100,4,1,1,70,0,0
91061,-100,4,2,1,70,0,0
91200,-100,4,1,1,70,0,0
92450,-100,4,2,1,70,0,0
92589,-100,4,1,1,70,0,0
94672,-100,4,2,1,70,0,0
94811,-100,4,1,1,70,0,0
101131,-100,4,1,1,5,0,0
101270,-100,4,1,1,70,0,0
114603,-100,4,2,1,80,0,0
119464,-100,4,1,2,40,0,0
120159,-100,4,1,2,50,0,0
124603,-100,4,1,2,60,0,0
125714,-100,4,1,2,70,0,0
127936,-100,4,1,2,80,0,0
129047,-100,4,1,2,65,0,0
133492,-100,4,1,2,65,0,0
135159,-100,4,1,2,50,0,0
136825,-100,4,1,2,80,0,0
137659,-100,4,1,2,60,0,0
144603,-100,4,1,2,40,0,0
145714,-100,4,1,2,70,0,0
146825,-100,4,1,2,60,0,0
150159,-100,4,1,2,70,0,0
151270,-100,4,1,2,50,0,0
151686,-86.9565217391304,4,1,2,60,0,0
152103,-76.9230769230769,4,1,2,70,0,0
152520,-68.9655172413793,4,1,2,80,0,0
152936,-62.5,4,1,2,90,0,0
153214,-100,4,1,2,60,0,0
154603,-200,4,1,2,60,0,0
155436,-100,4,1,2,60,0,0
164603,-100,4,1,1,70,0,0
168631,-100,4,1,1,60,0,0
172381,-100,4,1,1,50,0,0
173492,-90.9090909090909,4,1,1,70,0,1
180228,-90.9090909090909,4,2,1,70,0,1
180367,-90.9090909090909,4,1,1,70,0,1
180506,-90.9090909090909,4,2,1,70,0,1
180645,-90.9090909090909,4,1,1,70,0,1
190159,-90.9090909090909,4,1,1,70,0,0
191270,-133.333333333333,4,1,2,60,0,0
209047,-133.333333333333,4,2,1,60,0,0
210159,-100,4,2,1,50,0,0
212936,-100,4,1,1,70,0,0
215784,-100,4,2,1,70,0,0
215922,-100,4,1,1,70,0,0
220228,-100,4,2,1,70,0,0
220367,-100,4,1,1,70,0,0
222450,-100,4,2,1,70,0,0
222589,-100,4,1,1,70,0,0
223561,-100,4,2,1,70,0,0
223700,-100,4,1,1,70,0,0
224672,-100,4,2,1,70,0,0
224811,-100,4,1,1,70,0,0
225506,-100,4,2,1,70,0,0
225645,-100,4,1,1,70,0,0
229117,-100,4,2,1,70,0,0
229256,-100,4,1,1,70,0,0
254603,-100,4,2,1,70,0,0
258075,-100,4,1,1,60,0,0
260297,-100,4,2,1,60,0,0
260436,-100,4,1,1,60,0,0
260575,-100,4,2,1,60,0,0
260714,-100,4,1,1,60,0,0
273492,-100,4,1,1,70,0,0
287450,-100,4,2,1,70,0,0
287589,-100,4,1,1,70,0,0
287728,-100,4,2,1,70,0,0
287867,-100,4,1,1,70,0,0
291270,-100,4,1,1,75,0,1
309047,-100,4,1,1,75,0,0
313284,-100,4,2,1,75,0,0

[Colours]
Combo1 : 0,0,160
Combo2 : 140,255,100
Combo3 : 255,255,153
Combo4 : 172,251,253
Combo5 : 255,189,189
Combo6 : 213,0,0

[HitObjects]
64,112,299,5,2,0:0:0:0:
139,73,438,1,2,0:0:0:0:
225,97,577,1,2,0:0:0:0:
224,187,716,1,8,0:0:0:0:
134,163,855,6,0,L|140:57,1,90,2|0,0:0|0:0,0:0:0:0:
224,187,1132,2,0,L|226:278,1,90,4|0,0:0|0:0,0:0:0:0:
134,163,1410,1,0,0:0:0:0:
71,228,1549,2,0,L|74:313,1,67.5000025749208,2|0,0:0|0:0,0:0:0:0:
149,325,1827,5,0,0:0:0:0:
218,283,1966,2,0,L|215:198,1,67.5000025749208,2|0,0:0|0:0,0:0:0:0:
289,183,2244,1,0,0:0:0:0:
332,251,2382,2,0,L|335:340,1,67.5000025749208,2|0,0:0|0:0,0:0:0:0:
414,333,2660,1,0,0:0:0:0:
469,274,2799,6,0,L|435:187,1,67.5000025749208,2|0,0:0|0:0,0:0:0:0:
407,138,3077,1,0,0:0:0:0:
326,128,3216,1,2,0:0:0:0:
452,70,3355,1,2,0:0:0:0:
317,39,3494,2,0,P|268:59|177:57,1,135.000005149842,2|0,0:0|0:0,0:0:0:0:
106,45,3910,2,0,L|81:130,1,67.5000025749208
181,167,4188,38,0,P|211:177|267:167,1,67.5000025749208,2|0,0:0|0:0,0:0:0:0:
322,147,4466,1,0,0:0:0:0:
317,242,4605,2,0,P|286:253|231:242,1,67.5000025749208,2|0,0:0|0:0,0:0:0:0:
160,248,4882,2,0,L|149:331,1,67.5000025749208,2|0,0:0|0:0,0:0:0:0:
68,269,5160,2,0,L|57:186,1,67.5000025749208,2|0,0:0|0:0,0:0:0:0:
211,102,5438,6,0,L|303:88,1,67.5000025749208,4|0,0:0|0:0,0:0:0:0:
364,80,5716,1,8,0:0:0:0:
456,144,5855,1,8,0:0:0:0:
309,176,5994,2,0,L|243:188,1,67.5000025749208,2|0,0:0|0:0,0:0:0:0:
156,207,6271,1,0,0:0:0:0:
217,269,6410,2,0,L|283:257,1,67.5000025749208,2|0,0:0|0:0,0:0:0:0:
369,237,6688,1,0,0:0:0:0:
344,321,6827,2,0,L|278:333,1,67.5000025749208,2|0,0:0|0:0,0:0:0:0:
191,353,7105,1,0,0:0:0:0:
125,295,7244,1,0,0:0:0:0:
80,370,7382,5,0,0:0:0:0:
30,297,7521,1,4,0:0:0:0:
80,370,7660,1,2,0:0:0:0:
78,219,7799,1,2,0:0:0:0:
214,279,7938,2,0,P|285:272|348:228,1,135.000005149842,6|0,0:0|0:0,0:0:0:0:
246,158,8355,1,0,0:0:0:0:
246,158,8424,1,0,0:0:0:0:
246,158,8494,6,0,L|155:160,1,67.5000025749208
90,163,8771,1,0,0:0:0:0:
46,86,8910,1,0,0:0:0:0:
130,91,9049,1,2,0:0:0:0:
34,246,9188,1,2,0:0:0:0:
177,233,9327,1,2,0:0:0:0:
90,163,9466,1,0,0:0:0:0:
90,163,9535,1,0,0:0:0:0:
90,163,9605,1,8,0:0:0:0:
125,273,9744,38,0,P|138:314|140:368,1,90,4|0,0:2|0:0,0:0:0:0:
240,320,10159,5,4,0:0:0:0:
340,317,10297,1,0,0:0:0:0:
318,231,10436,2,0,L|302:157,1,67.5000025749208,8|0,0:0|0:0,0:0:0:0:
198,68,10714,6,0,L|212:140,1,67.5000025749208,2|0,0:0|0:0,0:0:0:0:
229,219,10992,1,8,0:0:0:0:
143,235,11131,1,0,0:0:0:0:
71,183,11270,2,0,L|52:92,1,67.5000025749208,2|0,0:0|0:0,0:0:0:0:
133,38,11547,1,8,0:0:0:0:
210,134,11686,6,0,P|273:149|369:131,1,135.000005149842,2|0,0:0|0:0,0:0:0:0:
385,255,12103,2,0,P|348:247|287:257,1,67.5000025749208,8|0,0:0|0:0,0:0:0:0:
232,266,12381,1,0,0:0:0:0:
152,304,12520,1,0,0:0:0:0:
133,218,12659,2,0,L|116:130,1,67.5000025749208,8|0,0:0|0:0,0:0:0:0:
102,64,12936,37,0,0:0:0:0:
219,137,13075,2,0,P|248:143|310:129,1,67.5000025749208,2|8,0:0|0:0,0:0:0:0:
363,98,13353,1,0,0:0:0:0:
406,171,13492,1,0,0:0:0:0:
379,250,13631,1,0,0:0:0:0:
278,240,13770,2,0,L|203:242,1,67.5000025749208,10|0,0:0|0:0,0:0:0:0:
335,322,14047,2,0,L|410:320,1,67.5000025749208
243,324,14325,2,0,L|186:331,2,33.7500012874604,10|0|0,0:0|0:0|0:0,0:0:0:0:
86,340,14603,5,0,0:0:0:0:
41,234,14742,1,0,0:0:0:0:
118,159,14881,2,0,L|215:148,1,67.5000025749208,4|0,0:2|0:0,0:0:0:0:
271,134,15159,1,0,0:0:0:0:
282,221,15297,2,0,L|289:292,1,67.5000025749208,2|8,0:0|0:0,0:0:0:0:
262,372,15575,1,0,0:0:0:0:
200,307,15714,6,0,L|193:236,1,67.5000025749208
185,151,15992,1,8,0:0:0:0:
61,197,16131,2,0,P|78:260|45:317,1,135.000005149842,2|0,0:0|0:0,0:0:0:0:
142,305,16547,1,8,2:1:0:0:
158,302,16617,1,0,2:0:0:0:
174,299,16686,1,0,2:0:0:0:
190,301,16756,1,0,2:0:0:0:
206,306,16825,6,0,L|302:314,1,67.5000025749208,2|0,0:0|0:0,0:0:0:0:
219,186,17103,2,0,L|139:177,1,67.5000025749208,4|0,0:2|0:0,0:0:0:0:
110,100,17381,1,0,0:0:0:0:
36,24,17520,1,2,0:0:0:0:
44,175,17659,1,4,0:2:0:0:
199,107,17797,1,0,2:0:0:0:
218,100,17867,1,0,2:0:0:0:
238,98,17936,1,0,2:0:0:0:
257,100,18006,1,0,2:0:0:0:
276,105,18075,1,0,2:0:0:0:
295,111,18145,1,0,2:0:0:0:
314,117,18214,1,0,2:0:0:0:
333,121,18284,1,0,2:0:0:0:
353,120,18353,1,0,2:0:0:0:
372,125,18422,1,0,2:0:0:0:
391,133,18492,38,0,L|374:176,1,33.7500012874604,2|0,0:0|0:0,0:0:0:0:
453,173,18631,2,0,L|470:216,1,33.7500012874604,2|0,0:0|0:0,0:0:0:0:
398,231,18770,2,0,L|378:297,1,67.5000025749208,4|0,0:2|0:0,0:0:0:0:
182,241,19047,6,0,P|243:225|335:246,1,135.000005149842,6|0,0:2|0:0,0:0:0:0:
73,160,19464,2,0,P|56:220|-7:290,1,135.000005149842,6|0,0:2|0:0,0:0:0:0:
200,112,19881,2,0,P|155:67|127:-23,1,135.000005149842,6|0,0:2|0:0,0:0:0:0:
315,64,20297,1,2,0:0:0:0:
313,235,20436,6,0,L|314:357,1,101.250003862381,4|0,0:2|2:0,0:0:0:0:
296,252,20714,6,0,L|271:371,1,101.250003862381,4|0,0:2|2:0,0:0:0:0:
280,268,20992,38,0,L|231:379,1,101.250003862381,4|0,0:2|2:0,0:0:0:0:
264,284,21270,6,0,P|180:308|88:296,1,180,4|10,0:2|1:0,0:0:0:0:
8,212,21686,1,0,0:0:0:0:
117,166,21825,6,0,L|82:41,1,90
198,54,22103,1,8,0:0:0:0:
258,142,22242,1,0,0:0:0:0:
117,166,22381,2,0,L|7:143,1,90,2|0,0:0|0:0,0:0:0:0:
122,273,22659,2,0,L|203:233,1,90,10|0,0:0|0:0,0:0:0:0:
24,321,22936,5,0,0:0:0:0:
120,370,23075,1,2,0:0:0:0:
43,233,23214,1,8,0:0:0:0:
205,304,23353,1,2,0:0:0:0:
24,321,23492,2,0,L|46:222,1,90,2|0,0:0|0:0,0:0:0:0:
232,152,23770,2,0,P|176:147|116:123,1,90,10|0,0:0|0:0,0:0:0:0:
49,82,24047,37,0,0:0:0:0:
146,34,24186,1,2,0:0:0:0:
201,126,24325,1,8,0:0:0:0:
106,178,24464,1,2,0:0:0:0:
87,34,24603,5,0,0:0:0:0:
190,69,24742,1,2,0:0:0:0:
164,173,24881,1,8,0:0:0:0:
60,142,25020,1,2,0:0:0:0:
146,34,25159,5,0,0:0:0:0:
146,34,25228,1,0,0:0:0:0:
146,34,25297,1,0,0:0:0:0:
146,34,25367,1,0,0:0:0:0:
146,34,25436,2,0,P|192:26|241:34,1,90,4|0,0:2|0:0,0:0:0:0:
304,199,25714,6,0,P|310:155|299:88,1,90,4|0,0:2|0:0,0:0:0:0:
215,190,25992,2,0,P|224:239|215:304,1,90,10|0,0:0|0:0,0:0:0:0:
396,271,26270,2,0,P|339:282|285:271,1,90,2|0,0:0|0:0,0:0:0:0:
221,278,26547,1,8,0:0:0:0:
331,360,26686,1,2,0:0:0:0:
153,328,26825,38,0,P|139:285|147:226,1,90,2|0,0:0|0:0,0:0:0:0:
36,257,27103,2,0,P|49:214|42:155,1,90,10|0,0:0|0:0,0:0:0:0:
120,90,27381,1,0,0:0:0:0:
212,145,27520,1,2,0:0:0:0:
46,169,27659,1,8,0:0:0:0:
204,75,27797,1,2,0:0:0:0:
223,230,27936,6,0,P|265:245|324:235,1,90,2|0,0:0|0:0,0:0:0:0:
398,315,28214,2,0,P|407:288|398:219,1,90,10|0,0:0|0:0,0:0:0:0:
387,120,28492,1,0,0:0:0:0:
302,52,28631,1,2,0:0:0:0:
235,137,28770,1,8,0:0:0:0:
318,205,28909,1,2,0:0:0:0:
237,276,29047,5,4,0:2:0:0:
319,346,29186,1,2,0:0:0:0:
400,275,29325,1,8,0:0:0:0:
318,205,29464,1,2,0:0:0:0:
164,207,29603,5,0,0:0:0:0:
146,203,29672,1,0,0:0:0:0:
127,201,29742,1,0,0:0:0:0:
109,204,29811,1,0,0:0:0:0:
94,214,29881,2,0,P|50:223|-7:215,1,90,4|2,0:2|0:0,0:0:0:0:
41,94,30159,37,6,0:0:0:0:
158,94,30297,1,2,0:0:0:0:
94,214,30436,1,8,0:0:0:0:
241,150,30575,1,0,0:0:0:0:
249,263,30714,6,0,L|253:353,1,90,2|2,0:0|0:0,0:0:0:0:
253,353,30922,1,0,0:0:0:0:
253,353,30992,1,8,0:0:0:0:
356,343,31131,1,2,0:0:0:0:
249,263,31270,1,0,0:0:0:0:
353,249,31409,1,2,0:0:0:0:
242,169,31547,1,8,0:0:0:0:
352,153,31686,1,2,0:0:0:0:
241,62,31825,5,2,0:0:0:0:
241,62,31895,1,0,0:0:0:0:
241,62,31964,2,0,L|349:47,1,90,2|8,0:0|0:0,0:0:0:0:
445,29,32242,1,0,0:0:0:0:
352,153,32381,21,2,0:0:0:0:
352,153,32473,2,0,L|280:164,1,60,2|0,0:0|0:0,0:0:0:0:
241,294,32659,1,10,0:0:0:0:
241,294,32751,2,0,L|268:226,1,60,2|0,0:0|0:0,0:0:0:0:
174,128,32936,1,2,0:0:0:0:
174,128,33029,2,0,L|219:185,1,60,2|0,0:0|0:0,0:0:0:0:
263,238,33214,21,8,0:0:0:0:
211,175,33353,1,2,0:0:0:0:
292,162,33492,1,0,0:0:0:0:
184,247,33631,1,2,0:0:0:0:
315,296,33770,2,0,P|358:278|410:235,1,90,8|2,0:0|0:0,0:0:0:0:
231,353,34047,5,0,2:0:0:0:
231,353,34117,1,0,2:0:0:0:
231,353,34186,1,0,2:0:0:0:
231,353,34256,1,0,2:0:0:0:
231,353,34325,2,4,P|178:357|119:350,1,90,4|2,0:2|0:0,0:0:0:0:
360,294,34603,6,0,L|355:203,1,90,2|2,0:0|0:0,0:0:0:0:
356,204,34811,1,0,0:0:0:0:
356,204,34881,1,8,0:0:0:0:
249,134,35020,1,2,0:0:0:0:
157,221,35159,21,2,0:0:0:0:
105,204,35251,1,0,0:0:0:0:
61,171,35344,1,0,0:0:0:0:
45,222,35436,1,10,0:0:0:0:
43,276,35529,1,0,0:0:0:0:
53,328,35621,1,0,0:0:0:0:
105,316,35714,1,2,0:0:0:0:
158,323,35807,1,0,0:0:0:0:
197,358,35899,1,0,0:0:0:0:
250,367,35992,5,10,0:0:0:0:
304,362,36084,2,0,P|336:365|381:358,1,60
316,266,36270,1,2,0:0:0:0:
370,261,36362,2,0,P|402:264|447:257,1,60
347,158,36547,1,10,0:0:0:0:
401,153,36640,2,0,P|433:156|478:149,1,60
295,69,36825,69,2,0:0:0:0:
241,71,36918,1,0,0:0:0:0:
187,64,37010,1,0,0:0:0:0:
133,57,37103,1,10,0:0:0:0:
79,55,37196,1,0,0:0:0:0:
25,62,37288,1,0,0:0:0:0:
41,112,37381,5,2,0:0:0:0:
48,165,37473,1,0,0:0:0:0:
38,217,37566,1,0,0:0:0:0:
37,271,37659,1,10,0:0:0:0:
51,323,37751,1,0,0:0:0:0:
82,366,37844,1,0,0:0:0:0:
131,344,37936,1,0,0:0:0:0:
184,345,38029,2,0,L|266:348,1,60
106,260,38214,5,10,0:0:0:0:
106,242,38284,1,0,0:0:0:0:
107,223,38353,1,2,0:0:0:0:
107,205,38422,1,0,0:0:0:0:
108,185,38492,2,0,P|167:168|256:189,2,135,6|2|2,0:0|0:0|0:0,0:0:0:0:
36,304,39047,5,4,2:1:0:0:
36,304,39117,1,0,2:0:0:0:
36,304,39186,1,0,2:0:0:0:
36,304,39256,1,0,2:0:0:0:
36,304,39325,2,0,L|34:217,1,45,0|0,2:0|2:0,2:0:0:0:
108,185,39464,5,4,2:0:0:0:
108,185,39534,1,0,2:0:0:0:
108,185,39603,1,0,2:0:0:0:
108,185,39672,1,0,2:0:0:0:
108,185,39742,2,0,L|106:272,1,45,0|0,2:0|2:0,2:0:0:0:
185,273,39881,5,4,2:1:0:0:
185,273,39950,1,0,2:0:0:0:
185,273,40020,1,0,2:0:0:0:
185,273,40089,1,0,2:0:0:0:
185,273,40159,2,0,L|183:186,1,45,0|0,2:0|2:0,2:0:0:0:
262,275,40297,2,0,L|264:362,1,45,0|0,1:2|2:0,2:0:0:0:
335,252,40436,2,0,L|339:140,1,90,4|0,0:2|2:0,0:0:0:0:
403,292,40714,5,0,2:0:0:0:
403,292,40807,2,0,L|397:382,1,60,0|0,2:0|2:0,2:0:0:0:
473,268,40992,21,0,2:0:0:0:
473,268,41061,1,0,2:0:0:0:
473,268,41131,2,0,L|472:207,1,45,0|0,2:0|2:0,2:0:0:0:
471,113,41270,5,8,0:0:0:0:
338,162,41409,1,4,0:2:0:0:
473,268,41547,1,0,0:0:0:0:
273,262,41686,1,8,0:0:0:0:
273,262,41964,5,8,0:0:0:0:
210,110,42103,1,0,0:0:0:0:
144,235,42242,1,0,0:0:0:0:
338,162,42381,5,4,0:0:0:0:
354,155,42659,1,0,0:0:0:0:
370,149,42936,1,0,0:0:0:0:
386,142,43075,37,0,0:0:0:0:
402,137,43214,1,0,0:0:0:0:
419,132,43353,1,0,0:0:0:0:
435,128,43492,5,4,0:0:0:0:
468,224,43631,1,2,0:0:0:0:
408,314,43770,2,0,P|362:328|313:310,1,90,8|2,0:0|0:0,0:0:0:0:
211,219,44047,2,0,P|257:205|306:223,1,90,8|0,0:0|0:0,0:0:0:0:
220,297,44325,1,8,0:0:0:0:
124,177,44464,1,2,0:0:0:0:
28,298,44603,5,0,0:0:0:0:
23,310,44672,1,0,0:0:0:0:
20,323,44742,2,0,P|70:330|127:317,1,90,0|8,0:0|0:0,0:0:0:0:
212,185,45020,2,0,P|118:174|33:196,1,180,2|0,0:0|0:0,0:0:0:0:
14,89,45436,1,8,0:0:0:0:
36,195,45575,1,2,0:0:0:0:
146,94,45714,6,0,P|225:99|312:154,1,180,0|8,0:0|0:0,0:0:0:0:
214,271,46131,2,0,P|202:222|226:162,1,90,2|0,0:0|0:0,0:0:0:0:
291,226,46409,1,0,0:0:0:0:
377,247,46547,1,8,0:0:0:0:
466,234,46686,1,0,0:0:0:0:
375,331,46825,38,0,L|284:372,1,90,2|0,0:0|0:0,0:0:0:0:
291,226,47103,2,0,L|200:267,1,90,8|0,0:0|0:0,0:0:0:0:
32,262,47381,2,0,L|123:221,1,90,2|0,0:0|0:0,0:0:0:0:
50,119,47659,2,0,L|141:78,1,90,8|0,0:0|0:0,0:0:0:0:
316,93,47936,5,0,0:0:0:0:
226,193,48075,1,2,0:0:0:0:
308,302,48214,2,0,P|347:307|402:291,1,90,8|0,0:0|0:0,0:0:0:0:
426,209,48492,1,0,0:0:0:0:
369,123,48631,1,2,0:0:0:0:
507,231,48770,1,8,0:0:0:0:
342,213,48909,1,0,0:0:0:0:
474,132,49047,6,0,P|381:117|290:147,1,180,2|8,0:0|0:0,0:0:0:0:
226,193,49464,1,0,0:0:0:0:
136,203,49603,1,0,0:0:0:0:
112,115,49742,1,2,0:0:0:0:
193,285,49881,1,8,0:0:0:0:
226,193,50020,1,0,0:0:0:0:
298,346,50159,6,0,P|374:300|392:197,1,180,2|8,0:0|0:0,0:0:0:0:
226,193,50575,2,0,P|210:147|214:70,1,90,2|0,0:0|0:0,0:0:0:0:
267,37,50853,1,0,0:0:0:0:
387,116,50992,1,8,0:0:0:0:
207,106,51131,1,0,0:0:0:0:
348,50,51270,37,4,0:2:0:0:
308,160,51409,1,0,0:0:0:0:
467,180,51547,1,8,0:0:0:0:
446,62,51686,1,4,0:2:0:0:
308,160,51825,1,0,0:0:0:0:
419,275,51964,2,0,P|466:288|508:282,1,90,4|4,0:2|0:2,0:0:0:0:
414,370,52242,1,0,0:0:0:0:
414,370,52311,1,0,0:0:0:0:
414,370,52381,6,0,P|367:372|306:366,1,90,4|0,0:0|0:0,0:0:0:0:
249,317,52659,1,8,0:0:0:0:
161,337,52797,1,2,0:0:0:0:
186,241,52936,1,0,0:0:0:0:
161,337,53075,1,0,0:0:0:0:
105,227,53214,1,8,0:0:0:0:
161,337,53353,1,2,0:0:0:0:
24,357,53492,5,0,0:0:0:0:
22,343,53561,1,0,0:0:0:0:
20,329,53631,2,8,L|1:203,1,90
109,170,53909,2,0,B|101:265|101:265|186:239,1,180,2|0,0:0|0:0,0:0:0:0:
266,209,54325,1,8,0:0:0:0:
186,327,54464,1,0,0:0:0:0:
343,283,54603,6,0,B|423:265|423:265|519:288,1,180,2|8,0:0|0:0,0:0:0:0:
437,188,55020,2,0,B|348:169|348:169|265:209,1,180,2|0,0:0|0:0,0:0:0:0:
149,139,55436,2,0,L|258:85,1,90,10|0,0:0|0:0,0:0:0:0:
173,229,55714,38,0,B|208:313|208:313|111:290,1,180,2|8,0:0|0:0,0:0:0:0:
121,292,56270,1,0,0:0:0:0:
71,189,56409,1,0,0:0:0:0:
57,348,56547,1,8,0:0:0:0:
202,309,56686,1,2,0:0:0:0:
51,261,56825,6,0,B|46:147|46:147|98:202,1,180,6|8,0:0|0:0,0:0:0:0:
211,166,57242,2,0,B|165:118|165:118|170:232,1,180,2|8,0:0|0:0,0:0:0:0:
275,316,57659,2,0,L|271:201,1,90,10|0,0:0|0:0,0:0:0:0:
399,127,57936,6,0,B|444:208|444:208|329:218,1,180,2|0,0:0|0:0,0:0:0:0:
229,48,58353,2,0,B|184:129|184:129|299:139,1,180,2|0,0:0|0:0,0:0:0:0:
271,136,58700,1,0,0:0:0:0:
271,136,58770,1,8,0:0:0:0:
329,64,58909,1,0,0:0:0:0:
287,228,59047,6,0,B|282:273|282:273|231:254,1,90,4|0,0:0|0:0,0:0:0:0:
232,253,59256,1,0,2:0:0:0:
224,248,59325,1,0,2:0:0:0:
215,243,59395,1,0,2:0:0:0:
207,239,59464,1,4,2:0:0:0:
107,197,59603,1,0,2:0:0:0:
115,192,59672,1,0,2:0:0:0:
124,187,59742,1,0,2:0:0:0:
132,183,59811,1,0,2:0:0:0:
139,177,59881,1,4,2:0:0:0:
9,150,60020,37,0,2:0:0:0:
14,158,60089,1,0,2:0:0:0:
19,167,60159,1,0,2:0:0:0:
23,175,60228,1,0,2:0:0:0:
29,182,60297,1,4,2:0:0:0:
107,197,60436,1,0,2:0:0:0:
102,205,60506,1,0,2:0:0:0:
97,214,60575,1,0,2:0:0:0:
93,222,60645,1,0,2:0:0:0:
87,229,60714,1,4,2:0:0:0:
141,308,60853,5,0,2:0:0:0:
149,306,60922,1,0,2:0:0:0:
158,305,60992,1,4,2:0:0:0:
226,248,61131,1,0,2:0:0:0:
234,250,61200,1,0,2:0:0:0:
243,251,61270,5,4,2:1:0:0:
331,287,61409,1,0,0:0:0:0:
331,287,61478,1,0,0:0:0:0:
331,287,61547,2,0,P|352:243|351:172,2,101.250003862381,2|0|0,0:0|0:0|0:0,0:0:0:0:
265,335,62103,1,8,0:0:0:0:
406,329,62242,6,0,P|433:281|443:186,1,135.000005149842,2|0,0:0|0:0,0:0:0:0:
443,121,62659,1,8,0:0:0:0:
235,157,62797,2,0,P|291:174|389:152,1,135.000005149842,2|0,0:0|0:0,0:0:0:0:
357,82,63214,1,8,0:0:0:0:
235,157,63353,1,0,0:0:0:0:
343,227,63492,38,0,L|365:162,1,67.5000025749208
442,189,63770,1,8,0:0:0:0:
253,253,63909,2,0,B|261:320|261:320|346:292,1,135.000005149842,2|0,0:0|0:0,0:0:0:0:
183,338,64325,1,8,0:0:0:0:
183,338,64395,1,0,0:0:0:0:
183,338,64464,6,0,B|126:348|126:348|116:254,1,135.000005149842,2|0,0:0|0:0,0:0:0:0:
106,190,64881,1,8,0:0:0:0:
32,321,65020,1,0,0:0:0:0:
16,178,65159,1,0,2:0:0:0:
16,178,65228,1,0,2:0:0:0:
16,178,65297,1,0,2:0:0:0:
16,178,65367,1,0,2:0:0:0:
16,178,65436,2,0,L|6:88,1,67.5000025749208,10|0,0:0|2:0,0:0:0:0:
106,28,65714,5,4,0:2:0:0:
213,92,65853,1,0,0:0:0:0:
223,91,65922,1,0,0:0:0:0:
232,88,65992,2,0,P|243:123|245:155,1,67.5000025749208,8|0,0:0|0:0,0:0:0:0:
243,246,66270,1,0,0:0:0:0:
362,197,66409,2,0,L|428:184,1,67.5000025749208,2|8,0:0|0:0,0:0:0:0:
320,285,66686,2,0,L|380:325,1,67.5000025749208,2|0,0:0|0:0,0:0:0:0:
436,267,66964,5,0,0:0:0:0:
428,183,67103,1,8,0:0:0:0:
488,102,67242,1,2,0:0:0:0:
428,183,67381,1,0,0:0:0:0:
415,75,67520,1,2,0:0:0:0:
428,183,67659,1,8,0:0:0:0:
342,57,67797,1,2,0:0:0:0:
201,163,67936,38,0,P|267:172|332:156,1,135.000005149842,2|10,0:0|0:0,0:0:0:0:
264,24,68353,2,0,L|233:94,1,67.5000025749208,0|0,0:0|2:0,0:0:0:0:
142,67,68631,1,0,0:0:0:0:
165,238,68770,1,8,0:0:0:0:
55,132,68909,1,0,0:0:0:0:
236,85,69047,6,0,P|294:72|385:75,1,135.000005149842,0|2,0:0|0:0,0:0:0:0:
447,90,69464,1,0,0:0:0:0:
415,252,69603,2,0,P|357:265|266:262,1,135.000005149842,0|2,0:0|0:0,0:0:0:0:
203,246,70020,1,0,0:0:0:0:
340,191,70159,6,0,L|420:159,1,67.5000025749208,4|0,0:0|2:0,0:0:0:0:
324,83,70436,2,0,L|316:5,1,67.5000025749208,2|0,0:0|2:0,0:0:0:0:
219,173,70714,2,0,L|227:95,1,67.5000025749208,2|0,0:0|2:0,0:0:0:0:
346,258,70992,2,0,L|338:180,1,67.5000025749208,2|0,0:0|2:0,0:0:0:0:
220,274,71270,2,0,L|136:280,1,67.5000025749208,2|0,0:0|2:0,0:0:0:0:
358,346,71547,2,0,L|274:340,1,67.5000025749208,2|0,0:0|2:0,0:0:0:0:
339,190,71825,2,0,L|423:196,1,67.5000025749208,2|0,0:0|2:0,0:0:0:0:
225,105,72103,2,0,L|141:99,1,67.5000025749208,2|0,0:0|2:0,0:0:0:0:
40,206,72381,6,0,B|29:146|29:146|108:157,1,135.000005149842,0|8,0:0|0:0,0:0:0:0:
187,287,72797,2,0,B|198:227|198:227|119:238,1,135.000005149842,0|0,0:0|2:0,0:0:0:0:
40,206,73214,1,8,0:0:0:0:
168,159,73353,1,0,0:0:0:0:
81,309,73492,37,0,0:0:0:0:
40,206,73631,1,0,0:0:0:0:
67,98,73770,2,0,L|90:18,1,67.5000025749208,8|0,0:0|0:0,0:0:0:0:
195,42,74047,1,0,2:0:0:0:
192,55,74117,1,0,2:0:0:0:
189,68,74186,1,0,2:0:0:0:
186,81,74256,1,0,2:0:0:0:
183,94,74325,2,0,L|165:176,1,67.5000025749208,10|0,0:0|0:0,0:0:0:0:
281,240,74603,6,0,L|307:99,1,135.000005149842,4|8,0:0|0:0,0:0:0:0:
326,7,75020,1,0,0:0:0:0:
384,89,75159,1,0,0:0:0:0:
442,170,75297,1,0,0:0:0:0:
508,246,75436,1,8,0:0:0:0:
442,170,75575,1,0,0:0:0:0:
351,215,75714,5,4,0:2:0:0:
262,264,75853,1,0,0:0:0:0:
171,309,75992,2,0,L|146:245,1,67.5000025749208
351,215,76270,2,0,L|376:151,1,67.5000025749208
206,133,76547,2,0,L|181:69,1,67.5000025749208
310,95,76825,6,0,P|372:73|461:100,1,135.000005149842,4|0,0:2|0:0,0:0:0:0:
222,223,77242,2,0,P|284:201|373:228,1,135.000005149842,4|0,0:2|0:0,0:0:0:0:
474,199,77659,1,2,0:2:0:0:
370,346,77797,1,2,0:0:0:0:
512,344,77936,37,4,0:2:0:0:
350,214,78075,1,0,0:0:0:0:
288,363,78214,1,8,0:0:0:0:
432,277,78353,2,0,P|464:269|497:275,1,67.5000025749208,4|0,0:2|0:0,0:0:0:0:
277,270,78631,1,0,2:0:0:0:
277,270,78700,1,0,3:0:0:0:
277,270,78770,2,0,P|259:239|263:187,1,67.5000025749208,4|0,0:2|0:0,0:0:0:0:
211,63,79047,6,0,L|174:179,1,90,6|0,0:0|0:0,0:0:0:0:
132,247,79325,1,8,0:0:0:0:
72,165,79464,1,2,0:0:0:0:
256,207,79603,2,0,P|292:202|385:217,1,90
433,269,79881,1,8,0:0:0:0:
221,285,80020,6,0,P|178:221|221:128,1,180,2|0,0:0|0:0,0:0:0:0:
321,113,80436,1,8,0:0:0:0:
186,23,80575,2,0,P|82:57|-10:48,1,180,2|0,0:0|0:0,0:0:0:0:
89,147,80992,1,8,0:0:0:0:
214,129,81131,1,2,0:0:0:0:
333,233,81270,6,0,P|240:251|160:214,1,180,2|8,0:0|0:0,0:0:0:0:
269,332,81686,2,0,P|361:313|442:351,1,180,2|0,0:0|0:0,0:0:0:0:
462,260,82103,2,0,L|435:348,1,90,10|0,0:0|0:0,0:0:0:0:
269,332,82381,38,0,L|295:243,1,90,2|0,0:0|0:0,0:0:0:0:
324,140,82659,1,8,0:0:0:0:
218,161,82797,1,2,0:0:0:0:
157,71,82936,1,0,0:0:0:0:
278,192,83075,1,0,0:0:0:0:
172,213,83213,1,10,0:0:0:0:
111,123,83352,1,0,0:0:0:0:
296,92,83492,6,0,L|408:78,1,90,4|0,0:0|0:0,0:0:0:0:
492,64,83770,1,8,0:0:0:0:
449,170,83909,1,2,0:0:0:0:
287,269,84047,1,0,0:0:0:0:
328,169,84186,1,0,0:0:0:0:
456,277,84325,1,8,0:0:0:0:
302,335,84464,6,0,P|286:260|333:163,1,180,2|0,0:0|0:0,0:0:0:0:
391,81,84881,1,8,0:0:0:0:
244,152,85020,2,0,L|157:194,1,90,2|0,0:0|0:0,0:0:0:0:
70,246,85297,1,0,0:0:0:0:
95,106,85436,1,8,0:0:0:0:
150,286,85575,1,0,0:0:0:0:
307,231,85714,6,0,P|328:173|283:48,1,180,2|8,0:0|0:0,0:0:0:0:
440,174,86131,2,0,P|407:256|430:341,1,180,2|0,0:0|0:0,0:0:0:0:
226,328,86547,2,0,L|321:332,1,90,8|0,0:0|0:0,0:0:0:0:
430,341,86825,37,4,0:2:0:0:
379,248,86964,1,2,0:0:0:0:
369,339,87103,1,8,0:0:0:0:
340,225,87242,1,2,0:0:0:0:
315,331,87381,1,0,0:0:0:0:
298,197,87520,1,2,0:0:0:0:
264,326,87659,1,8,0:0:0:0:
129,305,87797,1,0,0:0:0:0:
135,174,87936,6,0,B|228:149|228:149|297:196,1,180,4|8,0:0|0:0,0:0:0:0:
205,258,88353,1,0,0:0:0:0:
363,285,88492,1,0,0:0:0:0:
303,145,88631,2,0,L|289:242,1,90,0|8,0:0|0:0,0:0:0:0:
418,211,88909,1,0,0:0:0:0:
391,70,89047,6,0,P|306:46|193:90,1,180,0|8,0:0|0:0,0:0:0:0:
129,130,89464,1,0,0:0:0:0:
222,220,89603,1,2,0:0:0:0:
223,226,89742,1,0,0:0:0:0:
353,199,89881,1,8,0:0:0:0:
355,209,90020,1,0,0:0:0:0:
245,332,90159,6,0,P|156:312|106:214,1,180,2|8,0:0|0:0,0:0:0:0:
290,264,90575,2,0,P|378:244|429:146,1,180,2|0,0:0|0:0,0:0:0:0:
230,202,90992,2,0,P|141:182|91:84,1,180,8|0,0:0|2:0,0:0:0:0:
168,31,91409,1,0,0:0:0:0:
150,187,91547,2,0,L|137:296,1,90,10|0,0:0|0:0,0:0:0:0:
284,112,91825,2,0,L|296:213,1,90,2|0,0:0|0:0,0:0:0:0:
430,33,92103,2,0,L|417:142,1,90,10|0,0:0|0:0,0:0:0:0:
280,280,92381,38,0,B|382:276|382:276|403:201,1,180,4|8,0:2|0:0,0:0:0:0:
493,269,92797,1,0,0:0:0:0:
368,344,92936,1,0,0:0:0:0:
403,201,93075,1,0,0:0:0:0:
280,280,93214,2,0,L|182:280,1,90,8|0,0:0|0:0,0:0:0:0:
80,280,93492,1,0,2:0:0:0:
190,280,93631,5,0,0:0:0:0:
204,165,93770,1,8,0:0:0:0:
198,281,93909,1,0,0:0:0:0:
212,167,94048,1,2,0:0:0:0:
202,282,94186,1,0,0:0:0:0:
225,167,94325,1,8,0:0:0:0:
192,383,94464,1,0,0:0:0:0:
330,371,94603,6,0,L|362:178,1,180,2|8,0:0|0:0,0:0:0:0:
182,13,95020,2,0,L|150:206,1,180,2|0,0:0|0:0,0:0:0:0:
258,140,95436,1,8,0:0:0:0:
69,231,95575,1,2,0:0:0:0:
211,257,95714,1,4,2:2:0:0:
233,253,95784,1,0,2:0:0:0:
255,253,95853,1,0,2:0:0:0:
277,254,95922,1,0,2:0:0:0:
300,255,95992,1,0,2:0:0:0:
222,120,96131,5,4,2:2:0:0:
214,141,96201,1,0,2:0:0:0:
203,160,96270,1,0,2:0:0:0:
191,179,96339,1,0,2:0:0:0:
179,198,96409,1,0,2:0:0:0:
334,198,96547,37,4,2:2:0:0:
320,181,96617,1,0,2:0:0:0:
309,162,96686,1,0,2:0:0:0:
299,142,96755,1,0,2:0:0:0:
288,122,96825,1,4,2:0:0:0:
256,192,96895,12,0,100992,2:0:0:0:
177,114,101270,37,4,0:0:0:0:
281,84,101409,1,2,0:0:0:0:
268,190,101547,2,0,L|254:308,1,90,8|0,0:0|0:0,0:0:0:0:
155,316,101825,1,0,0:0:0:0:
79,238,101964,1,0,0:0:0:0:
144,150,102103,1,8,0:0:0:0:
2,161,102242,1,0,0:0:0:0:
144,150,102381,54,0,P|191:151|237:136,1,90
339,227,102659,2,0,L|329:319,1,90,10|0,0:0|1:0,0:0:0:0:
469,155,102936,2,0,L|482:255,1,90,2|0,0:0|2:0,0:0:0:0:
364,33,103214,2,0,L|353:124,1,90,10|0,0:0|0:0,0:0:0:0:
246,141,103492,5,0,0:0:0:0:
140,118,103631,1,0,0:0:0:0:
255,36,103770,1,8,0:0:0:0:
177,193,103909,2,0,P|166:241|176:297,1,90,2|0,0:0|0:0,0:0:0:0:
291,244,104186,1,2,0:0:0:0:
219,356,104325,2,0,P|181:370|109:349,1,90,8|0,0:0|0:0,0:0:0:0:
90,266,104603,5,4,0:2:0:0:
5,364,104742,1,2,0:0:0:0:
23,195,104881,1,8,0:0:0:0:
202,244,105020,2,0,P|232:251|305:236,1,90,2|0,0:0|2:0,0:0:0:0:
368,168,105297,1,0,0:0:0:0:
261,132,105436,1,8,0:0:0:0:
442,85,105575,1,2,0:0:0:0:
446,258,105714,38,0,L|446:351,1,90,4|0,0:0|2:0,0:0:0:0:
290,243,105992,2,0,P|241:229|182:246,1,90,10|0,0:0|0:0,0:0:0:0:
99,269,106270,1,0,0:0:0:0:
54,356,106409,1,0,0:0:0:0:
183,325,106547,1,10,0:0:0:0:
295,350,106686,1,0,0:0:0:0:
404,309,106825,53,2,0:0:0:0:
458,305,106918,1,0,0:0:0:0:
507,325,107010,2,0,L|481:389,2,60,2|8|0,0:0|0:0|0:0,0:0:0:0:
462,230,107288,2,0,L|488:166,2,60,2|0|0,0:0|0:0|0:0,0:0:0:0:
360,238,107566,1,0,0:0:0:0:
305,238,107659,1,8,0:0:0:0:
253,222,107751,1,0,0:0:0:0:
209,190,107844,1,0,0:0:0:0:
198,137,107936,5,0,0:0:0:0:
198,137,108029,2,0,L|248:72,1,60
195,267,108214,1,10,0:0:0:0:
195,267,108307,2,0,L|142:328,1,60
325,164,108492,69,2,0:0:0:0:
325,164,108585,2,0,L|378:103,1,60
323,316,108770,1,10,0:0:0:0:
323,316,108863,2,0,L|284:362,1,60
407,247,109047,1,2,0:0:0:0:
456,225,109140,1,0,0:0:0:0:
498,190,109233,1,0,0:0:0:0:
511,145,109325,22,0,L|497:79,1,45,10|0,0:0|0:0,0:0:0:0:
424,80,109464,2,0,L|438:146,1,45
368,138,109603,1,2,0:0:0:0:
341,142,109672,1,0,0:0:0:0:
314,148,109742,1,0,0:0:0:0:
287,149,109811,1,0,0:0:0:0:
259,148,109881,2,0,P|202:150|154:127,1,90,4|0,0:2|0:0,0:0:0:0:
90,53,110159,5,4,0:2:0:0:
26,150,110297,1,0,0:0:0:0:
125,216,110436,2,0,L|118:319,1,90,8|2,0:0|0:0,0:0:0:0:
0,345,110714,1,0,0:0:0:0:
215,331,110853,1,0,0:0:0:0:
237,333,110922,1,0,0:0:0:0:
259,331,110992,2,0,P|303:323|361:330,1,90,8|2,0:0|0:0,0:0:0:0:
370,327,111200,1,0,0:0:0:0:
392,330,111270,2,0,P|431:341|503:343,1,90,2|0,0:0|2:0,0:0:0:0:
479,206,111547,37,10,0:0:0:0:
466,147,111640,1,0,0:0:0:0:
469,86,111733,1,0,0:0:0:0:
481,27,111825,21,2,0:0:0:0:
481,27,111895,1,0,0:0:0:0:
481,27,111964,2,0,L|405:36,1,45
360,120,112103,2,0,L|276:112,2,45,10|0|0,0:0|0:0|0:0,0:0:0:0:
147,33,112381,53,2,0:0:0:0:
138,85,112473,1,0,0:0:0:0:
141,139,112566,1,0,0:0:0:0:
202,158,112659,1,2,0:0:0:0:
211,210,112751,1,0,0:0:0:0:
208,264,112844,1,0,0:0:0:0:
205,324,112936,5,2,0:0:0:0:
264,315,113029,2,0,L|360:304,1,60
489,346,113214,1,10,0:0:0:0:
430,355,113307,2,0,L|334:366,1,60
205,324,113492,5,2,0:0:0:0:
391,245,113700,1,2,0:0:0:0:
227,125,113909,1,2,0:0:0:0:
276,241,114047,5,2,0:0:0:0:
73,220,114256,1,2,0:0:0:0:
227,125,114464,1,2,0:0:0:0:
152,59,114603,6,0,L|61:67,1,90,4|0,0:1|2:0,0:0:0:0:
48,68,114811,1,0,2:0:0:0:
34,71,114881,1,0,2:0:0:0:
185,225,115020,6,0,L|223:142,1,90,4|0,0:1|2:0,0:0:0:0:
229,130,115228,1,0,2:0:0:0:
233,116,115298,1,0,2:0:0:0:
13,151,115436,38,0,L|65:225,1,90,4|0,0:1|2:0,0:0:0:0:
73,236,115644,1,0,2:0:0:0:
83,247,115714,1,0,2:0:0:0:
183,360,115853,5,2,0:1:0:0:
346,319,115992,2,0,P|426:261|479:322,1,180,4|0,0:0|0:0,0:0:0:0:
470,210,116362,2,0,L|466:132,1,60
408,87,116547,1,0,2:0:0:0:
394,91,116617,1,0,2:0:0:0:
381,95,116686,1,0,2:0:0:0:
369,102,116756,1,0,2:0:0:0:
357,108,116825,6,0,P|320:138|273:151,1,90,4|0,2:1|2:0,0:0:0:0:
261,151,117034,1,0,2:0:0:0:
243,152,117103,1,0,2:0:0:0:
225,150,117172,1,0,2:0:0:0:
207,146,117242,1,0,0:0:0:0:
190,140,117311,1,0,0:0:0:0:
174,130,117381,1,0,0:0:0:0:
161,116,117450,1,0,0:0:0:0:
151,100,117520,2,0,L|169:67,3,30,0|0|0|4,0:0|0:0|0:0|0:0,0:0:0:0:
237,235,117797,5,0,0:0:0:0:
254,240,117867,1,0,0:0:0:0:
271,243,117936,1,0,2:0:0:0:
289,245,118005,1,0,2:0:0:0:
307,249,118075,1,0,0:0:0:0:
324,255,118144,1,0,0:0:0:0:
340,265,118214,1,0,0:0:0:0:
353,279,118283,1,0,0:0:0:0:
363,295,118353,2,0,L|345:328,3,30,0|0|0|4,0:0|0:0|0:0|0:0,0:0:0:0:
196,328,118631,37,0,0:0:0:0:
179,333,118701,1,0,0:0:0:0:
160,336,118770,2,0,L|142:303,3,30,0|0|0|4,0:0|0:0|0:0|0:0,0:0:0:0:
68,232,119047,1,0,0:0:0:0:
51,227,119117,1,0,0:0:0:0:
32,224,119186,2,0,L|14:257,3,30,0|0|0|4,0:0|0:0|0:0|0:0,0:0:0:0:
124,132,119464,6,0,L|132:80,3,45,0|0|4|0,0:2|0:0|0:2|0:0,0:0:0:0:
192,188,119742,2,0,L|184:240,3,45,0|0|4|0,0:0|0:0|0:2|0:0,0:0:0:0:
258,133,120020,1,0,0:0:0:0:
284,129,120089,1,0,0:0:0:0:
310,135,120159,5,6,0:0:0:0:
335,143,120228,1,0,0:0:0:0:
361,143,120297,1,0,0:0:0:0:
388,143,120367,1,0,0:0:0:0:
414,139,120436,1,2,0:0:0:0:
440,131,120506,1,0,0:0:0:0:
466,125,120575,1,0,0:0:0:0:
492,116,120645,1,0,0:0:0:0:
484,141,120714,5,2,0:0:0:0:
483,168,120784,1,0,0:0:0:0:
481,194,120853,1,0,0:0:0:0:
487,219,120922,1,0,0:0:0:0:
494,245,120992,1,2,0:0:0:0:
502,270,121061,1,0,0:0:0:0:
475,265,121131,1,0,0:0:0:0:
448,271,121200,1,0,0:0:0:0:
423,282,121270,37,2,0:0:0:0:
423,282,121339,1,0,0:0:0:0:
423,282,121409,2,0,L|431:336,1,45
355,230,121547,1,2,0:0:0:0:
355,230,121616,1,0,0:0:0:0:
355,230,121686,2,0,L|347:176,1,45
313,303,121825,1,2,0:0:0:0:
313,303,121894,1,0,0:0:0:0:
313,303,121964,2,0,L|321:357,1,45
245,251,122102,1,2,0:0:0:0:
245,251,122171,1,0,0:0:0:0:
245,251,122241,2,0,L|237:197,1,45
180,309,122381,5,2,0:0:0:0:
153,306,122450,1,0,0:0:0:0:
125,304,122520,1,0,0:0:0:0:
98,302,122589,1,0,0:0:0:0:
70,301,122659,1,2,0:0:0:0:
43,300,122728,1,0,0:0:0:0:
16,299,122797,1,0,0:0:0:0:
3,187,122936,5,2,0:0:0:0:
30,190,123005,1,0,0:0:0:0:
58,192,123075,1,0,0:0:0:0:
85,194,123144,1,0,0:0:0:0:
113,195,123214,1,2,0:0:0:0:
140,196,123283,1,0,0:0:0:0:
167,197,123352,1,0,0:0:0:0:
166,78,123492,6,0,L|91:67,3,45,2|0|0|0,0:0|0:0|0:0|0:0,0:0:0:0:
266,135,123770,2,0,L|341:124,3,45,2|0|0|0,0:0|0:0|0:0|0:0,0:0:0:0:
368,20,124047,2,0,L|293:9,3,45,2|0|0|0,0:0|0:0|0:0|0:0,0:0:0:0:
468,77,124325,2,0,L|543:66,3,45,2|0|0|0,0:0|0:0|0:0|0:0,0:0:0:0:
402,162,124603,37,6,0:0:0:0:
437,154,124672,1,0,0:0:0:0:
472,161,124742,1,0,0:0:0:0:
505,174,124811,1,0,0:0:0:0:
498,209,124881,1,2,0:2:0:0:
463,216,124950,1,0,0:0:0:0:
427,221,125020,1,0,0:0:0:0:
393,232,125089,1,0,0:0:0:0:
380,266,125159,5,2,0:0:0:0:
415,270,125228,1,0,0:0:0:0:
448,282,125297,1,0,0:0:0:0:
479,300,125367,1,0,0:0:0:0:
486,335,125436,1,2,0:0:0:0:
450,340,125506,1,0,0:0:0:0:
416,351,125575,1,0,0:0:0:0:
382,364,125645,1,0,0:0:0:0:
346,361,125714,6,0,L|320:312,1,45,2|0,0:0|0:0,0:0:0:0:
234,303,125853,2,0,L|260:352,1,45,2|0,0:0|0:0,0:0:0:0:
292,242,125992,2,0,L|266:193,1,45,2|0,0:0|0:0,0:0:0:0:
180,184,126131,2,0,L|206:233,1,45
143,290,126270,6,0,L|121:250,1,45,2|0,0:0|0:0,0:0:0:0:
24,209,126409,2,0,L|45:248,1,45,2|0,0:0|0:0,0:0:0:0:
64,137,126548,2,0,L|42:97,1,45,2|0,0:0|0:0,0:0:0:0:
127,55,126687,2,0,L|153:104,1,45
257,97,126825,1,0,0:0:0:0:
293,97,126895,1,0,0:0:0:0:
327,88,126964,1,0,0:0:0:0:
360,75,127034,1,0,0:0:0:0:
384,49,127103,38,0,P|419:51|473:92,1,90,2|0,0:0|0:0,0:0:0:0:
356,158,127381,2,0,P|371:189|363:256,1,90,2|0,0:0|0:0,0:0:0:0:
257,97,127659,2,0,P|237:126|175:152,1,90,2|0,0:0|0:0,0:0:0:0:
122,55,127936,5,2,0:0:0:0:
73,200,128075,1,4,0:2:0:0:
132,51,128214,1,2,0:0:0:0:
83,210,128353,1,4,0:2:0:0:
255,208,128492,5,2,0:0:0:0:
83,210,128631,1,4,0:2:0:0:
267,226,128770,1,2,0:0:0:0:
80,229,128909,1,4,0:2:0:0:
282,253,129047,6,0,P|323:256|410:249,1,90,4|0,0:0|0:0,0:0:0:0:
222,341,129325,2,0,P|181:338|94:345,1,90,8|0,0:0|0:0,0:0:0:0:
104,344,129534,1,0,0:0:0:0:
115,319,129603,2,0,P|119:281|108:213,1,90
95,123,129881,1,8,0:0:0:0:
256,157,130020,1,0,0:0:0:0:
282,158,130089,1,0,0:0:0:0:
308,154,130159,38,0,P|338:161|381:208,1,90
438,302,130436,1,8,0:0:0:0:
308,154,130575,2,0,P|335:168|364:225,1,90
369,336,130853,1,0,0:0:0:0:
252,327,130992,1,8,0:0:0:0:
363,218,131131,1,0,0:0:0:0:
213,167,131270,6,0,P|164:159|101:173,1,90,6|0,0:0|0:0,0:0:0:0:
98,174,131478,1,0,0:0:0:0:
104,199,131547,1,8,0:0:0:0:
96,225,131617,1,0,0:0:0:0:
77,243,131686,2,0,L|93:299,1,45
175,254,131825,5,2,0:0:0:0:
200,248,131894,1,0,0:0:0:0:
226,253,131964,2,0,L|282:237,1,45
339,328,132103,1,8,0:0:0:0:
314,334,132172,1,0,0:0:0:0:
288,329,132242,2,0,L|232:345,1,45
364,260,132381,5,2,0:0:0:0:
389,241,132450,1,0,0:0:0:0:
407,215,132520,1,0,0:0:0:0:
420,186,132589,1,0,0:0:0:0:
388,191,132659,1,8,0:0:0:0:
356,194,132728,1,0,0:0:0:0:
325,189,132797,1,0,0:0:0:0:
291,179,132867,1,0,0:0:0:0:
317,158,132936,37,2,0:0:0:0:
328,128,133006,1,0,0:0:0:0:
321,97,133075,1,0,0:0:0:0:
307,68,133145,1,0,0:0:0:0:
279,52,133214,1,8,0:0:0:0:
248,61,133284,1,0,0:0:0:0:
217,66,133353,1,0,0:0:0:0:
185,66,133422,1,0,0:0:0:0:
154,55,133492,5,2,0:0:0:0:
113,50,133561,1,0,0:0:0:0:
72,43,133631,1,0,0:0:0:0:
82,81,133700,1,0,0:0:0:0:
93,120,133770,1,4,0:2:0:0:
176,246,133909,5,2,0:0:0:0:
181,205,133978,1,0,0:0:0:0:
188,164,134048,1,0,0:0:0:0:
150,174,134117,1,0,0:0:0:0:
111,185,134187,1,4,0:2:0:0:
181,314,134325,5,2,0:0:0:0:
221,319,134394,1,0,0:0:0:0:
262,326,134464,1,0,0:0:0:0:
252,288,134533,1,0,0:0:0:0:
241,249,134603,1,4,0:2:0:0:
325,154,134742,37,2,0:0:0:0:
320,194,134811,1,0,0:0:0:0:
313,235,134881,1,0,0:0:0:0:
351,225,134950,1,0,0:0:0:0:
390,214,135020,1,4,0:2:0:0:
403,69,135159,5,2,0:0:0:0:
378,57,135228,1,0,0:0:0:0:
351,50,135297,1,0,0:0:0:0:
323,52,135367,1,0,0:0:0:0:
297,60,135436,2,0,L|271:132,1,45,2|0,0:0|0:0,0:0:0:0:
216,89,135575,2,0,L|190:161,1,45
272,204,135714,5,2,0:0:0:0:
297,192,135783,1,0,0:0:0:0:
324,185,135852,1,0,0:0:0:0:
352,187,135922,1,0,0:0:0:0:
378,195,135991,2,0,L|404:267,1,45,2|0,0:0|0:0,0:0:0:0:
459,224,136130,2,0,L|485:296,1,45
395,330,136270,5,2,0:0:0:0:
370,342,136339,1,0,0:0:0:0:
343,349,136408,1,0,0:0:0:0:
315,347,136478,1,0,0:0:0:0:
289,339,136547,2,0,L|263:267,1,45,2|0,0:0|0:0,0:0:0:0:
182,263,136686,2,0,L|197:305,1,45
118,361,136825,37,4,0:2:0:0:
29,257,136964,1,2,0:0:0:0:
26,112,137103,1,2,0:0:0:0:
123,207,137242,1,2,0:0:0:0:
179,75,137381,1,2,0:0:0:0:
238,195,137520,1,2,0:0:0:0:
360,113,137659,1,0,0:0:0:0:
386,111,137728,1,0,0:0:0:0:
412,113,137797,1,0,0:0:0:0:
438,118,137867,1,0,0:0:0:0:
463,127,137936,54,0,P|462:164|452:216,2,60,2|0|0,0:0|0:0|0:0,0:0:0:0:
339,209,138214,2,0,P|340:246|350:298,2,60,8|0|0,0:0|0:0|0:0,0:0:0:0:
431,318,138492,1,2,0:0:0:0:
373,333,138584,1,0,0:0:0:0:
312,328,138677,1,0,0:0:0:0:
261,295,138770,1,8,0:0:0:0:
202,285,138862,1,0,0:0:0:0:
146,308,138955,1,0,0:0:0:0:
97,337,139047,22,0,L|68:274,1,45,2|0,0:0|0:0,0:0:0:0:
100,183,139186,2,0,L|129:246,1,45
3,258,139325,1,4,0:2:0:0:
126,61,139464,6,0,L|155:124,1,45,2|0,0:0|0:0,0:0:0:0:
131,221,139603,2,0,L|102:158,1,45
240,165,139742,1,4,0:2:0:0:
354,269,139881,5,4,0:2:0:0:
314,273,139950,1,0,0:0:0:0:
273,268,140020,1,0,0:0:0:0:
234,257,140089,1,0,0:0:0:0:
194,245,140159,54,0,L|184:324,1,45,2|0,0:0|0:0,0:0:0:0:
116,295,140297,2,0,L|106:374,1,45
4,191,140436,2,0,L|14:112,1,45,10|0,0:0|0:0,0:0:0:0:
82,141,140575,2,0,L|92:62,1,45
226,136,140714,6,0,L|305:126,1,45,2|0,0:0|0:0,0:0:0:0:
276,58,140852,2,0,L|355:48,1,45
423,102,140991,2,0,L|379:108,1,45,10|0,0:0|0:0,0:0:0:0:
375,185,141131,2,0,L|331:191,1,45
247,242,141270,5,4,0:2:0:0:
207,247,141339,1,0,0:0:0:0:
167,235,141409,1,0,0:0:0:0:
132,213,141478,1,0,0:0:0:0:
115,176,141547,1,0,0:0:0:0:
221,159,141686,5,4,0:2:0:0:
261,164,141755,1,0,0:0:0:0:
301,152,141825,1,0,0:0:0:0:
336,130,141894,1,0,0:0:0:0:
353,93,141963,1,0,0:0:0:0:
258,80,142103,37,4,0:2:0:0:
218,85,142172,1,0,0:0:0:0:
178,73,142242,1,0,0:0:0:0:
143,51,142311,1,0,0:0:0:0:
120,16,142381,5,2,0:0:0:0:
81,29,142450,1,0,0:0:0:0:
81,70,142520,1,0,0:0:0:0:
120,82,142589,1,0,0:0:0:0:
143,49,142659,1,4,0:2:0:0:
218,85,142797,5,2,0:0:0:0:
257,98,142866,1,0,0:0:0:0:
257,139,142936,1,0,0:0:0:0:
218,151,143005,1,0,0:0:0:0:
195,118,143075,1,4,0:2:0:0:
88,157,143214,5,0,0:0:0:0:
57,166,143284,1,0,0:0:0:0:
45,195,143353,1,0,0:0:0:0:
44,226,143422,1,0,0:0:0:0:
55,255,143492,37,0,0:0:0:0:
86,254,143561,1,0,0:0:0:0:
117,257,143631,1,0,0:0:0:0:
147,264,143700,1,0,0:0:0:0:
174,280,143770,1,4,0:2:0:0:
204,284,143839,1,0,0:0:0:0:
235,285,143909,1,0,0:0:0:0:
265,279,143978,1,0,0:0:0:0:
294,268,144047,2,0,L|317:310,3,45
357,184,144325,2,0,L|335:123,3,45,4|0|0|0,0:2|0:0|0:0|0:0,0:0:0:0:
249,175,144603,5,0,0:0:0:0:
235,174,144672,1,0,0:0:0:0:
221,173,144742,1,0,0:0:0:0:
207,171,144811,1,0,0:0:0:0:
193,172,144881,1,8,0:0:0:0:
179,171,144950,1,0,0:0:0:0:
165,170,145020,1,0,0:0:0:0:
151,168,145089,1,0,0:0:0:0:
137,167,145159,5,0,0:0:0:0:
123,166,145228,1,0,0:0:0:0:
109,165,145298,1,0,0:0:0:0:
95,163,145367,1,0,0:0:0:0:
81,164,145436,1,8,0:0:0:0:
67,163,145505,1,0,0:0:0:0:
53,162,145575,1,0,0:0:0:0:
39,160,145644,1,0,0:0:0:0:
25,159,145714,5,6,0:2:0:0:
17,123,145784,1,0,0:0:0:0:
21,87,145853,1,4,0:2:0:0:
43,58,145922,1,0,0:0:0:0:
76,42,145992,1,0,0:0:0:0:
111,38,146061,1,0,0:0:0:0:
145,50,146131,1,0,0:0:0:0:
180,54,146200,1,0,0:0:0:0:
215,44,146270,37,4,0:2:0:0:
250,50,146339,1,0,0:0:0:0:
284,61,146409,1,4,0:2:0:0:
299,93,146478,1,0,0:0:0:0:
299,128,146547,1,0,0:0:0:0:
287,162,146617,1,0,0:0:0:0:
260,186,146686,1,0,0:0:0:0:
224,191,146756,1,0,0:0:0:0:
192,173,146825,6,0,L|158:232,3,45,4|0|0|0,0:0|0:0|0:0|0:0,0:0:0:0:
289,258,147103,2,0,L|323:317,3,45,8|0|0|0,0:0|0:0|0:0|0:0,0:0:0:0:
221,312,147381,1,2,0:0:0:0:
194,315,147450,1,0,0:0:0:0:
166,316,147520,1,0,0:0:0:0:
139,314,147589,1,0,0:0:0:0:
112,309,147659,1,8,0:0:0:0:
85,315,147728,1,0,0:0:0:0:
59,322,147797,1,0,0:0:0:0:
33,332,147867,1,0,0:0:0:0:
9,344,147936,37,2,0:0:0:0:
9,344,148029,2,0,L|-3:255,1,60
151,244,148214,1,4,0:2:0:0:
151,244,148307,2,0,L|163:155,1,60
51,155,148492,1,6,0:2:0:0:
51,155,148585,2,0,L|39:66,1,60
211,97,148770,1,4,0:2:0:0:
211,97,148863,2,0,L|223:8,1,60
346,43,149047,21,6,0:0:0:0:
381,36,149117,1,0,0:0:0:0:
416,37,149186,1,0,0:0:0:0:
448,53,149256,1,0,0:0:0:0:
472,79,149325,1,8,0:0:0:0:
482,113,149395,1,0,0:0:0:0:
474,147,149464,1,0,0:0:0:0:
453,176,149534,1,0,0:0:0:0:
418,186,149603,5,2,0:0:0:0:
383,177,149672,1,0,0:0:0:0:
346,172,149742,1,0,0:0:0:0:
310,175,149811,1,0,0:0:0:0:
276,188,149881,1,8,0:0:0:0:
261,220,149950,1,0,0:0:0:0:
261,256,150020,1,0,0:0:0:0:
278,287,150089,1,0,0:0:0:0:
307,307,150159,5,6,0:2:0:0:
264,319,150228,1,0,0:0:0:0:
219,318,150297,1,0,0:0:0:0:
174,307,150367,1,0,0:0:0:0:
137,280,150436,1,0,0:0:0:0:
92,271,150506,1,0,0:0:0:0:
47,278,150575,1,4,0:2:0:0:
9,302,150645,1,0,0:0:0:0:
4,257,150714,5,0,0:0:0:0:
18,214,150784,1,0,0:0:0:0:
53,187,150853,1,0,0:0:0:0:
96,174,150922,1,0,0:0:0:0:
140,182,150992,1,4,0:0:0:0:
184,186,151061,1,0,0:0:0:0:
229,184,151131,1,0,0:0:0:0:
270,167,151200,1,0,0:0:0:0:
283,123,151270,38,0,L|263:59,3,45
178,73,151547,1,4,0:2:0:0:
386,114,151686,6,0,L|405:185,3,51.7500009870529
505,160,151963,1,4,0:2:0:0:
325,223,152103,6,0,L|303:295,3,58.4999973220826
189,271,152380,1,4,0:2:0:0:
369,362,152520,6,0,L|390:300,3,65.250001991272
512,354,152797,1,4,0:2:0:0:
451,203,152936,38,0,L|442:132,3,72
352,156,153214,53,4,0:2:0:0:
293,141,153307,1,0,0:0:0:0:
234,149,153399,1,0,0:0:0:0:
182,179,153492,1,2,0:0:0:0:
182,179,153584,2,0,L|111:212,1,60
337,238,153770,1,2,0:0:0:0:
337,238,153862,2,0,L|408:205,1,60
222,314,154047,21,2,0:0:0:0:
222,314,154117,1,0,0:0:0:0:
222,314,154186,2,0,L|171:341,1,45
307,318,154325,1,2,0:0:0:0:
307,318,154395,1,0,0:0:0:0:
307,318,154464,2,0,L|358:345,1,45
337,238,154603,6,2,B|358:119|358:119|273:140|273:140|317:166,1,247.5,2|0,0:0|2:0,0:0:0:0:
282,172,155436,1,0,0:0:0:0:
255,179,155506,1,0,0:0:0:0:
228,182,155575,1,0,0:0:0:0:
201,176,155645,1,0,0:0:0:0:
176,164,155714,6,0,P|131:158|65:170,1,90,6|0,0:0|0:0,0:0:0:0:
61,172,155922,1,0,0:0:0:0:
38,187,155992,2,0,P|43:227|39:299,1,90,10|0,0:0|0:0,0:0:0:0:
69,277,156200,1,0,0:0:0:0:
96,272,156270,1,2,0:0:0:0:
124,272,156339,1,0,0:0:0:0:
152,276,156409,1,0,0:0:0:0:
176,284,156478,1,0,0:0:0:0:
204,292,156547,2,0,P|219:250|209:186,1,90,8|0,0:0|0:0,0:0:0:0:
222,98,156825,5,2,0:0:0:0:
216,71,156895,1,0,0:0:0:0:
212,44,156964,1,0,0:0:0:0:
315,135,157103,1,10,0:0:0:0:
321,108,157173,1,0,0:0:0:0:
325,81,157242,1,0,0:0:0:0:
212,231,157381,37,2,0:0:0:0:
206,204,157451,1,0,0:0:0:0:
202,177,157520,1,0,0:0:0:0:
342,267,157659,1,10,0:0:0:0:
348,240,157729,1,0,0:0:0:0:
352,213,157798,1,0,0:0:0:0:
212,231,157936,5,2,0:0:0:0:
185,237,158006,1,0,0:0:0:0:
158,242,158075,1,0,0:0:0:0:
132,251,158145,1,0,0:0:0:0:
106,260,158214,1,10,0:0:0:0:
234,302,158353,5,0,0:0:0:0:
261,296,158423,1,0,0:0:0:0:
288,291,158492,1,2,0:0:0:0:
314,282,158562,1,0,0:0:0:0:
340,273,158631,1,0,0:0:0:0:
336,122,158770,5,10,0:0:0:0:
309,128,158840,1,0,0:0:0:0:
282,133,158909,1,0,0:0:0:0:
256,142,158979,1,0,0:0:0:0:
230,151,159048,1,2,0:0:0:0:
394,194,159186,37,0,0:0:0:0:
421,188,159256,1,0,0:0:0:0:
448,183,159325,1,10,0:0:0:0:
474,174,159395,1,0,0:0:0:0:
500,165,159464,2,0,L|469:62,1,90,2|0,0:0|0:0,0:0:0:0:
394,194,159742,2,0,L|363:297,1,90,2|8,0:0|0:0,0:0:0:0:
502,251,160020,1,0,0:0:0:0:
410,356,160159,2,0,P|364:365|294:346,1,90,6|0,0:0|0:0,0:0:0:0:
189,330,160436,54,0,L|173:218,2,60,2|0|0,0:0|0:0|0:0,0:0:0:0:
279,252,160714,2,0,L|295:140,2,60,2|0|0,0:0|0:0|0:0,0:0:0:0:
191,164,160992,21,2,0:0:0:0:
187,137,161061,1,0,0:0:0:0:
182,110,161131,1,0,0:0:0:0:
178,83,161200,1,0,0:0:0:0:
172,56,161270,54,0,L|252:43,2,60,2|0|0,0:0|0:0|0:0,0:0:0:0:
362,104,161547,2,0,L|282:117,2,60,2|0|0,0:0|0:0|0:0,0:0:0:0:
253,213,161825,1,2,0:0:0:0:
253,213,161918,2,0,L|333:200,1,60
443,265,162103,1,2,0:0:0:0:
443,265,162196,2,0,L|363:278,1,60
306,337,162381,21,2,0:0:0:0:
280,327,162450,1,0,0:0:0:0:
252,324,162520,1,0,0:0:0:0:
225,327,162589,1,0,0:0:0:0:
198,334,162659,1,2,0:0:0:0:
171,335,162728,1,0,0:0:0:0:
145,326,162797,1,0,0:0:0:0:
121,312,162867,1,0,0:0:0:0:
109,287,162936,5,2,0:0:0:0:
102,260,163006,1,0,0:0:0:0:
109,234,163075,1,0,0:0:0:0:
133,221,163145,1,0,0:0:0:0:
159,222,163214,1,2,0:0:0:0:
185,225,163284,1,0,0:0:0:0:
211,225,163353,1,0,0:0:0:0:
235,214,163422,1,0,0:0:0:0:
245,189,163492,6,0,L|205:128,3,45,2|0|0|0,0:0|0:0|0:0|0:0,0:0:0:0:
343,184,163770,2,0,L|383:245,3,45,2|0|0|0,0:0|0:0|0:0|0:0,0:0:0:0:
412,152,164047,1,2,0:0:0:0:
412,152,164117,1,0,0:0:0:0:
412,152,164186,1,0,0:0:0:0:
412,152,164256,1,0,0:0:0:0:
412,152,164325,1,2,0:0:0:0:
412,152,164395,1,0,0:0:0:0:
412,152,164464,2,0,L|473:148,1,45
379,86,164603,6,0,L|252:92,1,90,6|2,0:0|0:0,0:0:0:0:
171,96,164881,1,0,0:0:0:0:
340,180,165020,38,0,L|213:186,1,90,2|2,0:0|0:0,0:0:0:0:
132,190,165298,1,0,0:0:0:0:
295,279,165436,6,0,L|168:285,1,90,2|2,0:0|0:0,0:0:0:0:
87,289,165714,1,0,0:0:0:0:
260,374,165853,6,0,L|133:380,1,90,2|2,0:0|0:0,0:0:0:0:
52,384,166131,1,0,0:0:0:0:
8,275,166270,5,0,0:0:0:0:
0,171,166409,1,2,0:0:0:0:
8,275,166547,1,0,0:0:0:0:
78,118,166686,2,0,B|104:60|104:60|150:192,1,180,2|0,0:0|2:0,0:0:0:0:
186,271,167103,37,0,0:0:0:0:
85,235,167242,1,2,0:0:0:0:
243,182,167381,1,0,0:0:0:0:
113,338,167520,1,2,0:0:0:0:
279,289,167659,1,0,0:0:0:0:
142,169,167797,2,0,B|107:107|107:107|220:134,1,180,2|0,0:0|2:0,0:0:0:0:
328,155,168214,5,2,0:0:0:0:
232,46,168353,1,0,0:0:0:0:
142,169,168492,1,0,0:0:0:0:
311,82,168631,1,0,0:0:0:0:
337,79,168700,1,0,0:0:0:0:
361,91,168770,1,0,0:0:0:0:
380,109,168839,1,0,0:0:0:0:
390,133,168909,1,0,0:0:0:0:
390,159,168978,1,0,0:0:0:0:
381,184,169047,38,0,P|357:217|348:275,2,60,2|0|0,0:0|0:0|0:0,0:0:0:0:
449,256,169325,2,0,P|472:289|482:347,2,60,2|0|0,0:0|0:0|0:0,0:0:0:0:
351,235,169603,2,0,P|327:268|318:326,2,60,2|0|0,0:0|0:0|0:0,0:0:0:0:
478,307,169881,2,0,P|501:340|511:398,2,60,2|0|0,0:0|0:0|0:0,0:0:0:0:
386,348,170159,5,2,0:0:0:0:
327,357,170251,1,0,0:0:0:0:
267,350,170344,1,0,0:0:0:0:
196,286,170436,1,2,0:0:0:0:
255,277,170528,1,0,0:0:0:0:
315,284,170621,1,0,0:0:0:0:
390,352,170714,69,2,0:0:0:0:
331,361,170806,1,0,0:0:0:0:
271,354,170899,1,0,0:0:0:0:
192,282,170992,1,2,0:0:0:0:
251,273,171084,1,0,0:0:0:0:
311,280,171177,1,0,0:0:0:0:
394,356,171270,5,2,0:0:0:0:
335,365,171362,1,0,0:0:0:0:
275,358,171455,1,0,0:0:0:0:
188,278,171547,1,2,0:0:0:0:
247,269,171639,1,0,0:0:0:0:
307,276,171732,1,0,0:0:0:0:
364,293,171825,69,2,0:0:0:0:
423,302,171917,1,0,0:0:0:0:
483,295,172010,1,0,0:0:0:0:
460,239,172103,21,2,0:0:0:0:
454,212,172172,1,0,0:0:0:0:
452,184,172242,2,0,L|491:125,1,45
372,119,172381,5,2,0:0:0:0:
378,146,172450,1,0,0:0:0:0:
380,174,172520,2,0,L|341:233,1,45,4|0,0:2|0:0,0:0:0:0:
282,90,172659,5,2,0:0:0:0:
288,117,172728,1,0,0:0:0:0:
290,145,172798,2,0,L|251:204,1,45,4|0,0:2|0:0,0:0:0:0:
193,61,172936,5,2,0:0:0:0:
199,88,173005,1,0,0:0:0:0:
201,116,173075,2,0,L|162:175,1,45,4|0,0:2|0:0,0:0:0:0:
103,30,173214,37,2,0:0:0:0:
109,57,173283,1,0,0:0:0:0:
111,85,173353,2,0,L|72:144,1,45,4|0,0:2|0:0,0:0:0:0:
50,237,173492,6,0,P|98:242|140:217,1,99.0000030212403,4|2,0:0|0:0,0:0:0:0:
201,116,173770,1,8,0:0:0:0:
300,192,173909,1,2,0:0:0:0:
176,311,174047,1,2,0:0:0:0:
347,308,174186,1,2,0:0:0:0:
218,208,174325,2,0,P|195:154|209:98,1,99.0000030212403,8|2,0:0|0:0,0:0:0:0:
295,42,174603,5,2,0:0:0:0:
410,68,174742,2,0,L|467:172,1,99.0000030212403,0|8,0:0|0:0,0:0:0:0:
279,70,175020,5,2,0:0:0:0:
394,96,175159,2,0,L|451:200,1,99.0000030212403
260,174,175436,2,0,L|230:289,1,99.0000030212403,8|0,0:0|0:0,0:0:0:0:
146,350,175714,37,0,0:0:0:0:
337,329,175853,1,2,0:0:0:0:
260,174,175992,1,8,0:0:0:0:
243,367,176131,1,2,0:0:0:0:
432,360,176270,2,0,P|433:307|388:240,1,99.0000030212403,2|0,0:0|0:0,0:0:0:0:
369,155,176547,1,8,0:0:0:0:
192,239,176686,1,2,0:0:0:0:
313,89,176825,6,0,P|362:76|430:86,1,99.0000030212403,2|0,0:0|0:0,0:0:0:0:
192,239,177103,2,0,P|139:243|83:233,1,99.0000030212403,8|0,0:0|0:0,0:0:0:0:
241,40,177381,1,2,0:0:0:0:
276,65,177450,1,0,0:0:0:0:
313,89,177520,1,2,0:0:0:0:
161,131,177659,1,8,0:0:0:0:
344,108,177797,1,2,0:0:0:0:
332,281,177936,6,0,P|283:286|241:261,1,99.0000030212403,4|2,0:0|0:0,0:0:0:0:
134,189,178214,1,8,0:0:0:0:
176,345,178353,1,2,0:0:0:0:
332,281,178491,1,2,0:0:0:0:
174,264,178630,1,2,0:0:0:0:
394,221,178770,2,0,P|417:275|403:331,1,99.0000030212403,8|2,0:0|0:0,0:0:0:0:
272,341,179047,5,2,0:0:0:0:
111,316,179186,2,0,L|54:212,1,99.0000030212403,0|8,0:0|0:0,0:0:0:0:
261,231,179464,37,2,0:0:0:0:
394,221,179603,2,0,L|451:117,1,99.0000030212403
490,13,179881,1,8,0:0:0:0:
296,45,180020,1,2,0:0:0:0:
441,134,180159,6,2,B|503:208|503:208|370:193|370:193|429:266|429:266|506:273,1,396.000012084961
500,272,180853,1,0,0:0:0:0:
329,257,180991,1,8,0:0:0:0:
495,367,181130,1,2,0:0:0:0:
337,353,181270,6,0,P|324:303|334:236,1,99.0000030212403,2|0,0:0|0:0,0:0:0:0:
128,188,181547,2,0,P|132:241|122:297,1,99.0000030212403,8|0,0:0|0:0,0:0:0:0:
229,355,181825,1,2,0:0:0:0:
194,330,181894,1,0,0:0:0:0:
157,306,181964,1,2,0:0:0:0:
328,256,182103,1,8,0:0:0:0:
126,287,182241,1,2,0:0:0:0:
297,179,182381,6,0,P|345:173|387:198,1,99.0000030212403,4|2,0:0|0:0,0:0:0:0:
485,278,182659,1,8,0:0:0:0:
328,256,182798,1,2,0:0:0:0:
478,155,182936,1,2,0:0:0:0:
286,92,183075,1,2,0:0:0:0:
328,256,183214,2,0,P|382:279|438:265,1,99.0000030212403,8|2,0:0|0:0,0:0:0:0:
478,155,183492,37,2,0:0:0:0:
362,40,183631,1,2,0:0:0:0:
268,169,183770,1,8,0:0:0:0:
58,183,183909,5,2,0:0:0:0:
174,298,184047,1,2,0:0:0:0:
268,169,184186,1,2,0:0:0:0:
98,92,184325,2,0,P|48:92|1:105,1,99.0000030212403,8|0,0:0|0:0,0:0:0:0:
6,240,184603,5,0,0:0:0:0:
170,164,184742,1,2,0:0:0:0:
1,104,184881,1,8,0:0:0:0:
111,254,185020,1,2,0:0:0:0:
326,164,185159,2,0,P|273:163|206:208,1,99.0000030212403,2|0,0:0|0:0,0:0:0:0:
111,254,185436,1,8,0:0:0:0:
331,276,185575,1,2,0:0:0:0:
170,164,185714,6,0,P|120:151|53:161,1,99.0000030212403,2|0,0:0|0:0,0:0:0:0:
331,276,185992,2,0,P|384:272|440:282,1,99.0000030212403,8|0,0:0|0:0,0:0:0:0:
279,354,186270,1,2,0:0:0:0:
233,354,186339,1,0,0:0:0:0:
256,311,186409,1,2,0:0:0:0:
380,358,186548,1,8,0:0:0:0:
132,358,186686,1,2,0:0:0:0:
207,212,186825,38,0,P|257:201|321:220,1,99.0000030212403,4|2,0:0|0:0,0:0:0:0:
420,236,187103,1,8,0:0:0:0:
402,66,187242,1,2,0:0:0:0:
217,105,187380,1,2,0:0:0:0:
338,120,187519,1,2,0:0:0:0:
118,163,187658,2,0,P|95:109|109:53,1,99.0000030212403,8|2,0:0|0:0,0:0:0:0:
247,43,187936,5,2,0:0:0:0:
402,66,188075,1,2,0:0:0:0:
461,205,188214,1,8,0:0:0:0:
318,118,188353,5,2,0:0:0:0:
375,263,188492,1,0,0:0:0:0:
284,384,188631,1,2,0:0:0:0:
127,349,188770,5,8,0:0:0:0:
368,339,188909,1,2,0:0:0:0:
188,234,189047,38,0,P|141:222|91:228,1,99.0000030212403,4|0,0:0|2:0,0:0:0:0:
63,239,189256,1,0,2:0:0:0:
37,253,189325,1,0,2:0:0:0:
19,276,189395,1,0,2:0:0:0:
9,303,189464,2,0,L|26:375,1,49.5000015106202,4|0,2:2|2:0,2:0:0:0:
143,331,189603,5,0,2:0:0:0:
169,317,189672,1,0,2:0:0:0:
187,293,189742,1,0,2:0:0:0:
194,264,189811,1,0,2:0:0:0:
188,234,189881,2,0,L|209:163,1,49.5000015106202,4|0,2:2|2:0,2:0:0:0:
305,119,190020,1,0,2:0:0:0:
332,109,190089,1,0,2:0:0:0:
369,109,190159,5,2,0:0:0:0:
173,78,190297,1,2,0:0:0:0:
142,274,190436,1,2,0:0:0:0:
338,305,190575,1,2,0:0:0:0:
338,305,190853,6,0,L|279:305,2,33.0000010070801,0|0|0,2:0|2:0|2:0,2:0:0:0:
378,305,190992,5,0,2:0:0:0:
415,259,191084,1,0,2:0:0:0:
424,200,191177,1,0,2:0:0:0:
408,149,191270,1,4,2:1:0:0:
282,165,191409,21,0,0:0:0:0:
282,165,191478,1,0,0:0:0:0:
282,165,191547,2,0,P|231:167|167:145,2,101.250003862381,2|0|0,0:0|0:0|0:0,0:0:0:0:
271,285,192103,1,8,0:0:0:0:
405,375,192242,6,0,P|432:327|442:232,1,135.000005149842,2|0,0:0|0:0,0:0:0:0:
348,228,192659,1,8,0:0:0:0:
271,285,192797,2,0,P|215:302|117:280,1,135.000005149842,2|0,0:0|0:0,0:0:0:0:
108,209,193214,1,8,0:0:0:0:
41,333,193353,1,0,0:0:0:0:
6,202,193492,6,0,L|28:137,1,67.5000025749208
55,52,193770,1,8,0:0:0:0:
108,209,193909,2,0,B|116:276|116:276|201:248,1,135.000005149842,2|0,0:0|0:0,0:0:0:0:
256,56,194325,1,8,0:0:0:0:
256,56,194395,1,0,0:0:0:0:
256,56,194464,6,2,B|199:46|199:46|189:140,1,135.000005149842
180,254,194881,1,8,0:0:0:0:
292,195,195020,1,0,0:0:0:0:
111,184,195159,1,0,2:0:0:0:
101,182,195228,1,0,2:0:0:0:
90,182,195297,1,0,2:0:0:0:
79,182,195367,1,0,2:0:0:0:
69,183,195436,2,0,L|59:93,1,67.5000025749208,10|0,0:0|2:0,0:0:0:0:
50,10,195714,37,4,0:2:0:0:
185,80,195853,1,0,0:0:0:0:
184,70,195922,1,0,0:0:0:0:
181,61,195992,2,0,P|204:43|246:40,1,67.5000025749208,8|0,0:0|0:0,0:0:0:0:
324,98,196270,1,0,0:0:0:0:
271,183,196409,2,0,L|284:249,1,67.5000025749208,2|8,0:0|0:0,0:0:0:0:
183,141,196686,2,0,L|143:201,1,67.5000025749208,2|0,0:0|0:0,0:0:0:0:
193,318,196964,5,0,0:0:0:0:
284,249,197103,1,8,0:0:0:0:
363,365,197242,1,2,0:0:0:0:
284,249,197381,1,0,0:0:0:0:
421,303,197520,1,2,0:0:0:0:
280,338,197659,1,8,0:0:0:0:
380,224,197797,1,2,0:0:0:0:
232,168,197936,6,2,P|166:184|100:175,1,135.000005149842,2|10,0:0|0:0,0:0:0:0:
37,328,198353,2,2,L|64:266,1,67.5000025749208
179,279,198631,1,0,0:0:0:0:
100,175,198770,1,8,0:0:0:0:
116,338,198909,1,0,0:0:0:0:
262,257,199047,6,2,P|320:244|411:247,1,135.000005149842
475,257,199464,1,0,0:0:0:0:
339,159,199603,2,2,P|281:172|190:169,1,135.000005149842
125,157,200020,1,0,0:0:0:0:
262,257,200159,38,0,L|342:289,1,67.5000025749208,4|0,0:0|2:0,0:0:0:0:
140,293,200436,2,0,L|148:371,1,67.5000025749208,8|0,0:0|2:0,0:0:0:0:
256,363,200714,1,0,0:0:0:0:
365,360,200853,2,0,L|372:293,1,67.5000025749208,8|8,0:0|0:0,0:0:0:0:
321,162,201131,6,0,P|261:151|176:166,1,135.000005149842,2|0,0:0|2:0,0:0:0:0:
255,60,201547,2,0,P|287:50|339:66,1,67.5000025749208,10|0,0:0|2:0,0:0:0:0:
436,102,201825,1,0,0:0:0:0:
321,162,201964,1,0,0:0:0:0:
446,236,202103,2,0,P|478:243|513:240,1,67.5000025749208,2|0,0:0|2:0,0:0:0:0:
348,264,202381,6,0,B|359:324|359:324|280:313,1,135.000005149842,2|8,0:0|0:0,0:0:0:0:
141,256,202797,2,0,B|130:196|130:196|209:207,1,135.000005149842,0|0,0:0|2:0,0:0:0:0:
34,186,203214,1,8,0:0:0:0:
141,256,203353,1,0,0:0:0:0:
75,83,203492,5,0,0:0:0:0:
34,186,203631,1,0,0:0:0:0:
61,294,203770,2,0,L|84:374,1,67.5000025749208,8|0,0:0|0:0,0:0:0:0:
228,324,204047,1,0,2:0:0:0:
225,311,204117,1,0,2:0:0:0:
222,298,204186,1,0,2:0:0:0:
219,285,204256,1,0,2:0:0:0:
217,272,204325,2,0,L|199:190,1,67.5000025749208,10|0,0:0|0:0,0:0:0:0:
341,104,204603,38,0,L|376:241,1,135.000005149842,4|8,0:0|0:0,0:0:0:0:
397,334,205020,1,0,0:0:0:0:
301,299,205159,1,0,0:0:0:0:
275,201,205297,1,0,0:0:0:0:
182,241,205436,1,8,0:0:0:0:
80,246,205575,1,0,0:0:0:0:
36,154,205714,6,0,L|28:87,1,67.5000025749208,4|0,0:2|0:0,0:0:0:0:
170,144,205992,2,0,L|234:119,1,67.5000025749208
330,216,206270,2,0,L|406:203,1,67.5000025749208
438,321,206547,2,0,L|516:359,1,67.5000025749208
318,327,206825,6,0,P|252:339|189:317,1,135.000005149842,4|0,0:2|0:0,0:0:0:0:
330,216,207242,2,0,P|392:194|481:221,1,135.000005149842,4|0,0:2|0:0,0:0:0:0:
512,344,207659,1,2,0:2:0:0:
318,327,207797,1,2,0:0:0:0:
396,195,207936,5,4,0:2:0:0:
416,359,208075,1,0,0:0:0:0:
266,244,208214,1,8,0:0:0:0:
447,270,208353,2,0,P|479:262|512:268,1,67.5000025749208,4|0,0:2|0:0,0:0:0:0:
416,132,208631,1,0,2:0:0:0:
416,132,208700,1,0,3:0:0:0:
416,132,208770,2,0,P|398:163|402:215,1,67.5000025749208,4|0,0:2|0:0,0:0:0:0:
276,163,209047,37,0,0:0:0:0:
255,162,209117,1,0,0:0:0:0:
234,164,209186,1,0,0:0:0:0:
213,167,209256,1,0,0:0:0:0:
192,168,209325,2,0,L|143:201,3,33.7500012874604,8|0|0|0,0:0|0:0|0:0|0:0,0:0:0:0:
236,254,209603,5,0,0:0:0:0:
257,253,209673,1,0,0:0:0:0:
278,255,209742,1,0,0:0:0:0:
299,258,209812,1,0,0:0:0:0:
320,259,209881,2,0,L|369:292,3,33.7500012874604,8|0|0|0,0:0|0:0|0:0|0:0,0:0:0:0:
260,332,210159,6,0,L|261:370,3,30,0|0|0|4,0:0|0:0|0:0|0:0,0:0:0:0:
96,308,210436,2,0,L|141:307,1,45,12|0,0:0|0:0,0:0:0:0:
201,242,210575,1,0,0:0:0:0:
221,223,210645,1,0,0:0:0:0:
224,196,210714,2,0,L|156:199,1,45,4|0,0:0|0:0,0:0:0:0:
75,123,210853,2,0,L|141:121,1,45,12|0,0:0|0:0,0:0:0:0:
184,50,210992,2,0,L|185:12,3,30,0|0|0|4,0:0|0:0|0:0|0:0,0:0:0:0:
306,140,211270,6,2,L|374:137,1,45,6|2,0:0|0:0,0:0:0:0:
389,208,211409,1,0,0:0:0:0:
396,233,211478,1,0,0:0:0:0:
392,259,211547,2,0,L|371:310,1,45,8|0,0:0|0:0,0:0:0:0:
456,309,211686,2,0,L|473:353,1,45,2|0,0:0|0:0,0:0:0:0:
301,353,211825,1,0,0:0:0:0:
294,328,211894,1,0,0:0:0:0:
298,302,211964,2,0,L|319:251,1,45,8|0,0:0|0:0,0:0:0:0:
234,252,212102,2,0,L|217:208,1,45,2|0,0:0|0:0,0:0:0:0:
151,269,212242,1,0,0:0:0:0:
124,270,212311,1,0,0:0:0:0:
96,269,212381,6,0,L|78:178,3,60,8|0|0|0,0:0|0:0|0:0|0:0,0:0:0:0:
12,203,212751,6,0,L|7:174,4,30,0|0|0|0|4,0:0|0:0|0:0|0:0|0:2,0:0:0:0:
8,293,213075,5,0,0:0:0:0:
83,341,213214,1,0,0:0:0:0:
172,349,213353,1,0,0:0:0:0:
269,337,213492,6,0,L|306:221,1,90,6|0,0:0|0:0,0:0:0:0:
363,165,213770,1,8,0:0:0:0:
450,228,213909,1,2,0:0:0:0:
296,251,214048,2,0,P|260:256|167:241,1,90
149,136,214326,1,8,0:0:0:0:
294,95,214465,6,0,P|332:159|293:253,1,180,2|0,0:0|0:0,0:0:0:0:
197,326,214881,1,8,0:0:0:0:
339,348,215020,2,0,P|443:314|535:323,1,180,2|0,0:0|0:0,0:0:0:0:
423,236,215437,1,8,0:0:0:0:
295,250,215576,1,2,0:0:0:0:
321,94,215715,6,0,P|402:127|489:109,1,180,2|8,0:0|0:0,0:0:0:0:
256,159,216131,2,0,P|164:178|83:140,1,180,2|0,0:0|0:0,0:0:0:0:
29,328,216548,2,0,L|56:240,1,90,10|0,0:0|0:0,0:0:0:0:
256,159,216826,38,0,L|230:248,1,90,2|0,0:0|0:0,0:0:0:0:
124,266,217104,1,8,0:0:0:0:
230,245,217242,1,2,0:0:0:0:
291,335,217381,1,0,0:0:0:0:
167,357,217520,1,0,0:0:0:0:
291,335,217658,1,10,0:0:0:0:
350,238,217797,1,0,0:0:0:0:
265,138,217937,6,0,L|175:149,1,90,4|0,0:0|0:0,0:0:0:0:
67,162,218215,1,8,0:0:0:0:
67,274,218354,1,2,0:0:0:0:
257,226,218492,1,0,0:0:0:0:
127,217,218631,1,0,0:0:0:0:
150,316,218770,1,8,0:0:0:0:
175,149,218909,6,0,P|250:133|347:180,1,180,2|0,0:0|0:0,0:0:0:0:
403,263,219326,1,8,0:0:0:0:
231,276,219465,2,0,L|150:316,1,90,2|0,0:0|0:0,0:0:0:0:
50,300,219742,1,0,0:0:0:0:
231,276,219881,1,8,0:0:0:0:
79,171,220020,1,0,0:0:0:0:
235,159,220159,6,0,P|293:180|418:135,1,180,2|8,0:0|0:0,0:0:0:0:
473,287,220576,2,0,P|506:205|483:120,1,180,2|0,0:0|0:0,0:0:0:0:
286,56,220992,2,0,L|191:52,1,90,8|0,0:0|0:0,0:0:0:0:
82,43,221270,37,4,0:2:0:0:
133,136,221409,1,2,0:0:0:0:
143,45,221548,1,8,0:0:0:0:
172,159,221687,1,2,0:0:0:0:
197,53,221826,1,0,0:0:0:0:
214,187,221965,1,2,0:0:0:0:
248,58,222104,1,8,0:0:0:0:
383,79,222242,1,0,0:0:0:0:
377,210,222381,6,0,B|281:250|184:180,1,180,4|8,0:0|0:0,0:0:0:0:
159,94,222798,1,0,0:0:0:0:
80,206,222936,1,0,2:0:0:0:
191,282,223076,2,0,L|203:192,1,90,0|8,0:0|0:0,0:0:0:0:
294,133,223354,1,0,0:0:0:0:
362,282,223492,6,0,P|276:305|190:281,1,180,0|8,0:0|0:0,0:0:0:0:
73,259,223909,1,0,0:0:0:0:
90,150,224048,1,2,0:0:0:0:
106,47,224187,1,0,0:0:0:0:
223,65,224326,1,8,0:0:0:0:
206,172,224465,1,0,0:0:0:0:
303,217,224604,6,0,P|392:197|442:99,1,180,2|8,0:0|0:0,0:0:0:0:
463,294,225020,2,0,P|375:314|324:412,1,180,2|0,0:0|0:0,0:0:0:0:
167,307,225437,2,0,P|256:287|306:189,1,180,8|0,0:0|2:0,0:0:0:0:
304,107,225854,1,0,0:0:0:0:
201,32,225992,2,0,L|190:121,1,90,10|0,0:0|0:0,0:0:0:0:
302,216,226270,2,0,L|312:305,1,90,2|0,0:0|0:0,0:0:0:0:
171,257,226548,2,0,L|160:346,1,90,10|0,0:0|0:0,0:0:0:0:
67,192,226826,38,0,B|88:117|88:117|194:121,1,180,4|8,0:2|0:0,0:0:0:0:
74,31,227242,1,0,0:0:0:0:
190,120,227381,1,0,2:0:0:0:
67,192,227520,1,0,0:0:0:0:
190,252,227659,1,8,0:0:0:0:
318,200,227797,6,0,P|406:182|517:215,1,180
499,311,228215,1,8,0:0:0:0:
391,316,228354,1,0,0:0:0:0:
288,281,228493,1,2,0:0:0:0:
386,237,228631,1,0,0:0:0:0:
468,166,228770,1,8,0:0:0:0:
445,33,228909,1,0,0:0:0:0:
309,37,229048,6,0,L|277:230,1,180,2|8,0:0|0:0,0:0:0:0:
118,250,229465,2,0,L|150:57,1,180,2|0,0:0|0:0,0:0:0:0:
49,27,229881,1,8,0:0:0:0:
0,169,230020,1,2,0:0:0:0:
118,250,230159,1,4,2:2:0:0:
122,228,230229,1,0,2:0:0:0:
122,206,230298,1,0,2:0:0:0:
121,184,230367,1,0,2:0:0:0:
120,161,230437,1,0,2:0:0:0:
225,195,230575,5,4,2:2:0:0:
229,217,230645,1,0,2:0:0:0:
229,239,230714,1,0,2:0:0:0:
228,261,230783,1,0,2:0:0:0:
227,284,230853,1,0,2:0:0:0:
334,317,230992,37,4,2:2:0:0:
338,295,231062,1,0,2:0:0:0:
338,273,231131,1,0,2:0:0:0:
337,251,231200,1,0,2:0:0:0:
336,225,231270,6,0,P|379:221|428:225,1,90,6|0,0:0|0:0,0:0:0:0:
486,314,231548,1,8,0:0:0:0:
486,140,231687,1,2,0:0:0:0:
334,135,231826,2,0,P|330:179|335:224,1,90
415,330,232104,1,8,0:0:0:0:
226,321,232243,6,0,P|250:249|222:141,1,180,2|0,0:0|0:0,0:0:0:0:
334,135,232659,1,8,0:0:0:0:
176,35,232798,2,0,P|72:69|-20:60,1,180,2|0,0:0|0:0,0:0:0:0:
3,212,233215,1,8,0:0:0:0:
156,134,233354,1,2,0:0:0:0:
3,212,233493,6,0,P|84:245|171:227,1,180,2|8,0:0|0:0,0:0:0:0:
398,321,233909,2,0,P|316:286|229:306,1,180,2|0,0:0|0:0,0:0:0:0:
308,184,234326,2,0,L|334:97,1,90,10|0,0:0|0:0,0:0:0:0:
170,226,234604,38,0,L|118:129,1,90,2|0,0:0|0:0,0:0:0:0:
77,50,234882,1,8,0:0:0:0:
182,32,235020,1,2,0:0:0:0:
288,49,235159,1,0,0:0:0:0:
246,162,235298,1,0,0:0:0:0:
127,147,235436,1,10,0:0:0:0:
37,207,235575,1,0,0:0:0:0:
186,227,235715,6,0,L|298:241,1,90,4|0,0:0|0:0,0:0:0:0:
382,255,235993,1,8,0:0:0:0:
339,149,236132,1,2,0:0:0:0:
177,50,236270,1,0,0:0:0:0:
226,143,236409,1,0,0:0:0:0:
377,55,236548,1,8,0:0:0:0:
505,174,236687,6,0,P|430:190|333:143,1,180,2|0,0:0|0:0,0:0:0:0:
270,54,237104,1,8,0:0:0:0:
253,225,237243,2,0,L|244:343,1,90,2|0,0:0|0:0,0:0:0:0:
143,349,237520,1,0,0:0:0:0:
106,222,237659,1,8,0:0:0:0:
18,343,237798,1,0,0:0:0:0:
168,272,237936,6,0,P|182:213|95:141,1,180,2|8,0:0|0:0,0:0:0:0:
304,185,238353,2,0,P|358:224|467:213,1,180,2|0,0:0|0:0,0:0:0:0:
398,325,238770,2,0,L|302:350,1,90,8|0,0:0|0:0,0:0:0:0:
160,317,239048,37,4,0:2:0:0:
252,266,239187,1,2,0:0:0:0:
162,256,239326,1,8,0:0:0:0:
276,227,239465,1,2,0:0:0:0:
170,202,239604,1,0,0:0:0:0:
304,185,239743,1,2,0:0:0:0:
175,151,239882,1,8,0:0:0:0:
328,139,240020,1,0,0:0:0:0:
304,303,240159,6,0,B|197:335|121:257,1,180,4|8,0:0|0:0,0:0:0:0:
78,177,240576,1,0,0:0:0:0:
48,337,240715,1,0,0:0:0:0:
135,270,240854,2,0,P|168:235|184:183,1,90,0|8,0:0|0:0,0:0:0:0:
164,88,241132,1,0,0:0:0:0:
315,166,241270,6,0,P|400:142|486:166,1,180,0|8,0:0|0:0,0:0:0:0:
498,274,241687,1,0,0:0:0:0:
392,299,241826,1,2,0:0:0:0:
486,166,241965,1,0,0:0:0:0:
395,88,242104,1,8,0:0:0:0:
315,166,242243,1,0,0:0:0:0:
304,319,242382,6,0,P|390:301|440:228,1,180,2|8,0:0|0:0,0:0:0:0:
216,125,242798,2,0,P|189:211|248:304,1,180,2|0,0:0|0:0,0:0:0:0:
430,138,243215,2,0,P|368:70|258:76,1,180,8|0,0:0|2:0,0:0:0:0:
139,98,243632,1,0,0:0:0:0:
42,200,243770,2,0,L|29:91,1,90,10|0,0:0|0:0,0:0:0:0:
176,275,244048,2,0,L|188:174,1,90,2|0,0:0|0:0,0:0:0:0:
322,354,244326,2,0,L|309:245,1,90,10|0,0:0|0:0,0:0:0:0:
301,133,244604,38,0,B|403:137|403:137|424:212,1,180,4|8,0:2|0:0,0:0:0:0:
512,315,245020,1,0,0:0:0:0:
387,359,245159,1,0,0:0:0:0:
424,212,245298,1,0,0:0:0:0:
280,322,245436,2,0,P|185:339|64:311,1,180,8|0,0:0|2:0,0:0:0:0:
34,241,245854,5,0,0:0:0:0:
40,133,245993,1,8,0:0:0:0:
130,190,246132,1,0,0:0:0:0:
141,82,246271,1,2,0:0:0:0:
233,136,246409,1,0,0:0:0:0:
252,29,246548,1,8,0:0:0:0:
342,165,246687,1,0,0:0:0:0:
198,227,246826,6,0,B|171:310|171:310|266:298,1,180,2|8,0:0|0:0,0:0:0:0:
342,165,247242,2,0,B|369:81|369:81|274:94,1,180
170,114,247659,1,8,0:0:0:0:
300,4,247798,1,2,0:0:0:0:
111,35,247937,5,4,2:2:0:0:
89,39,248007,1,0,2:0:0:0:
67,39,248076,1,0,2:0:0:0:
45,38,248145,1,0,2:0:0:0:
22,37,248215,1,0,2:0:0:0:
170,114,248353,37,4,2:2:0:0:
162,135,248423,1,0,2:0:0:0:
151,154,248492,1,0,2:0:0:0:
139,172,248561,1,0,2:0:0:0:
127,192,248631,1,0,2:0:0:0:
268,96,248770,5,4,2:2:0:0:
282,113,248840,1,0,2:0:0:0:
293,132,248909,1,0,2:0:0:0:
302,151,248978,1,0,2:0:0:0:
314,172,249047,6,0,B|296:237|296:237|396:187,1,180,4|8,0:2|0:0,0:0:0:0:
360,348,249464,2,0,B|378:283|378:283|278:333,1,180,4|0,0:2|0:0,0:0:0:0:
152,278,249881,2,0,B|187:380|187:380|189:380,1,90,8|0,0:0|0:0,0:0:0:0:
21,361,250159,6,0,B|6:285|6:285|105:345,1,180,4|8,0:2|0:0,0:0:0:0:
170,180,250575,2,0,B|257:233|257:233|242:157,1,180,4|0,0:2|0:0,0:0:0:0:
43,118,250992,2,0,B|78:220|78:220|80:220,1,90,8|0,0:0|0:0,0:0:0:0:
197,86,251270,37,4,0:2:0:0:
304,80,251409,1,0,0:0:0:0:
198,72,251547,1,0,0:0:0:0:
302,93,251686,1,0,0:0:0:0:
364,184,251825,5,4,0:2:0:0:
257,178,251964,1,0,0:0:0:0:
362,170,252103,1,0,0:0:0:0:
258,191,252242,1,0,0:0:0:0:
364,279,252381,5,4,0:0:0:0:
374,287,252520,1,0,0:0:0:0:
222,315,252659,1,0,0:0:0:0:
212,323,252797,1,0,0:0:0:0:
134,211,252936,1,0,0:0:0:0:
121,207,253075,1,0,0:0:0:0:
0,282,253214,1,0,0:0:0:0:
27,116,253353,1,0,0:0:0:0:
198,160,253492,6,4,P|281:177|391:160,1,180,2|0,0:0|0:0,0:0:0:0:
237,259,253909,2,0,P|148:270|60:253,1,180,2|4,0:0|0:0,0:0:0:0:
310,321,254325,2,0,P|353:330|406:312,1,90,2|0,0:0|0:0,0:0:0:0:
434,206,254603,37,2,0:1:0:0:
432,179,254672,1,0,0:0:0:0:
416,156,254742,1,0,0:0:0:0:
389,149,254811,1,0,0:0:0:0:
362,156,254881,1,2,0:1:0:0:
335,156,254950,1,0,0:0:0:0:
307,153,255020,1,0,0:0:0:0:
282,141,255089,1,0,0:0:0:0:
256,131,255159,1,2,0:1:0:0:
232,118,255228,1,0,0:0:0:0:
204,116,255298,1,0,0:0:0:0:
178,124,255367,1,0,0:0:0:0:
159,142,255436,6,0,L|157:226,1,45,2|0,0:1|0:0,0:0:0:0:
261,220,255575,2,0,L|236:290,1,45,2|0,0:1|0:0,0:0:0:0:
144,293,255714,1,4,1:1:0:0:
256,192,255784,12,0,257936,0:0:0:0:
166,92,258214,6,0,P|254:75|356:93,1,180,8|0,0:0|2:0,0:0:0:0:
434,147,258631,1,2,0:0:0:0:
338,197,258770,1,8,0:0:0:0:
423,263,258909,1,2,0:0:0:0:
272,280,259047,6,0,P|226:288|175:279,1,90,2|0,0:0|0:0,0:0:0:0:
81,242,259325,1,8,0:0:0:0:
218,169,259464,1,2,0:0:0:0:
81,242,259603,1,0,2:0:0:0:
67,243,259672,1,0,2:0:0:0:
53,243,259742,1,2,2:1:0:0:
39,244,259811,1,0,2:0:0:0:
25,242,259881,2,0,L|23:338,1,90,8|4,0:0|0:2,0:0:0:0:
169,330,260159,38,2,B|168:247|168:247|257:337|257:337|284:264|284:264|226:200|226:200|310:178,1,450,2|0,0:0|2:1,0:0:0:0:
169,330,260992,1,8,0:0:0:0:
371,314,261131,1,0,0:0:0:0:
299,180,261270,2,0,L|293:76,1,90,2|0,2:1|2:0,2:0:0:0:
169,240,261547,2,0,L|175:136,1,90,2|0,2:1|2:0,2:0:0:0:
181,41,261825,1,0,2:0:0:0:
293,90,261964,1,0,2:0:0:0:
400,97,262103,1,0,2:0:0:0:
415,197,262242,1,0,2:0:0:0:
256,192,262381,6,0,B|171:155|171:155|188:263,1,180,6|2,0:0|0:0,0:0:0:0:
244,268,262751,37,0,0:0:0:0:
310,269,262844,1,0,0:0:0:0:
371,246,262936,1,2,0:0:0:0:
415,197,263029,2,0,L|489:218,1,60
317,116,263214,1,2,0:0:0:0:
273,67,263307,2,0,L|199:88,1,60
112,182,263492,5,2,0:0:0:0:
78,125,263584,1,0,0:0:0:0:
73,58,263677,1,0,0:0:0:0:
7,80,263770,1,2,0:0:0:0:
12,147,263862,1,0,0:0:0:0:
46,204,263955,1,0,0:0:0:0:
82,258,264047,6,0,L|117:302,1,45
68,375,264186,2,0,L|18:312,1,45
189,345,264325,1,2,0:0:0:0:
216,344,264395,1,0,0:0:0:0:
242,343,264464,1,0,0:0:0:0:
267,334,264534,1,0,0:0:0:0:
290,321,264603,1,4,0:0:0:0:
256,192,264672,12,0,266686,2:0:0:0:
255,281,266825,6,0,L|256:177,1,90,2|0,0:0|2:0,0:0:0:0:
175,120,267103,1,0,0:0:0:0:
131,218,267242,1,2,0:0:0:0:
256,192,267381,1,0,0:0:0:0:
337,264,267520,1,0,0:0:0:0:
381,166,267659,1,2,0:0:0:0:
256,192,267797,1,0,0:0:0:0:
180,292,267936,6,0,L|155:382,1,90,0|2,0:0|0:0,0:0:0:0:
11,327,268214,2,0,L|36:237,1,90,0|2,0:0|0:0,0:0:0:0:
77,89,268492,1,0,2:0:0:0:
102,80,268561,1,0,2:0:0:0:
129,78,268631,1,2,2:1:0:0:
155,81,268700,1,0,2:0:0:0:
181,88,268770,2,0,P|228:94|301:86,1,90,0|2,2:0|0:0,0:0:0:0:
165,186,269047,6,0,P|165:231|187:281,1,90,4|2,0:0|0:0,0:0:0:0:
285,241,269325,1,0,0:0:0:0:
386,277,269464,1,2,0:0:0:0:
173,280,269603,37,0,0:0:0:0:
285,249,269742,1,0,0:0:0:0:
394,285,269881,1,2,0:0:0:0:
165,288,270020,5,0,0:0:0:0:
285,257,270159,1,0,0:0:0:0:
402,293,270297,1,2,0:0:0:0:
157,296,270436,5,0,0:0:0:0:
285,265,270575,1,0,0:0:0:0:
410,301,270714,1,2,0:0:0:0:
149,304,270853,5,0,0:0:0:0:
285,273,270992,1,0,0:0:0:0:
413,311,271131,2,0,L|447:185,1,90,2|0,0:0|0:0,0:0:0:0:
466,119,271409,1,2,0:0:0:0:
512,283,271547,1,0,0:0:0:0:
348,163,271686,2,0,P|263:134|175:145,1,180,2|2,0:0|0:0,0:0:0:0:
77,194,272103,1,0,0:0:0:0:
217,251,272242,1,2,0:0:0:0:
236,55,272381,37,4,0:2:0:0:
348,163,272520,1,2,0:0:0:0:
219,148,272659,2,0,L|165:144,2,45,0|0|2,0:0|0:0|0:0,0:0:0:0:
327,257,272936,1,0,2:0:0:0:
353,261,273006,1,0,2:0:0:0:
379,257,273075,1,2,2:1:0:0:
403,245,273145,1,0,2:0:0:0:
428,236,273214,2,0,L|483:328,1,90,4|0,0:2|0:0,0:0:0:0:
309,312,273492,5,0,2:0:0:0:
283,308,273562,1,0,2:0:0:0:
257,312,273631,1,2,2:1:0:0:
233,324,273701,1,0,2:0:0:0:
214,343,273770,1,4,0:2:0:0:
330,323,273909,2,0,P|372:347|431:347,1,90,2|0,0:0|2:0,2:0:0:0:
315,214,274186,2,0,L|304:102,1,90,2|0,0:0|2:0,0:0:0:0:
99,308,274464,6,0,L|110:196,1,90,2|0,0:0|2:0,0:0:0:0:
414,306,274742,2,0,L|403:194,1,90,2|0,0:0|2:0,0:0:0:0:
210,268,275020,2,0,L|221:156,1,90,2|0,0:0|2:0,0:0:0:0:
415,114,275297,2,0,L|294:116,1,90,2|0,0:0|0:0,0:0:0:0:
232,34,275575,1,2,0:0:0:0:
97,71,275714,5,0,0:0:0:0:
99,84,275784,1,0,0:0:0:0:
101,97,275853,1,2,0:0:0:0:
39,185,275992,1,8,0:0:0:0:
202,107,276131,37,0,0:0:0:0:
204,120,276201,1,0,0:0:0:0:
206,133,276270,1,2,0:0:0:0:
144,221,276409,1,8,0:0:0:0:
312,131,276547,5,0,0:0:0:0:
314,144,276617,1,0,0:0:0:0:
316,157,276686,1,2,0:0:0:0:
254,245,276825,5,8,0:0:0:0:
367,272,276964,1,0,0:0:0:0:
264,355,277103,2,0,P|219:360|149:350,1,90,0|2,0:0|0:0,0:0:0:0:
77,307,277381,1,0,0:0:0:0:
70,281,277450,1,0,0:0:0:0:
64,254,277520,1,0,0:0:0:0:
66,227,277589,1,0,0:0:0:0:
70,200,277659,1,4,0:2:0:0:
183,116,277797,5,0,0:0:0:0:
191,141,277867,1,0,0:0:0:0:
191,167,277936,1,4,0:0:0:0:
173,273,278075,1,2,0:0:0:0:
276,242,278214,1,8,0:0:0:0:
381,265,278353,1,0,0:0:0:0:
458,340,278492,2,0,L|480:247,1,90,2|0,0:0|0:0,0:0:0:0:
485,225,278700,1,0,0:0:0:0:
493,199,278770,1,8,0:0:0:0:
420,80,278909,38,0,L|509:84,1,90
336,143,279186,1,0,0:0:0:0:
308,144,279256,1,0,0:0:0:0:
281,146,279325,2,0,L|174:148,1,90,8|2,0:0|0:0,0:0:0:0:
82,148,279603,1,0,0:0:0:0:
106,276,279742,1,2,0:0:0:0:
203,237,279881,1,8,0:0:0:0:
23,211,280020,1,2,0:0:0:0:
60,358,280159,5,0,0:0:0:0:
177,324,280297,1,2,0:0:0:0:
23,211,280436,1,8,0:0:0:0:
203,237,280575,2,0,P|246:245|321:237,1,90,2|0,0:0|2:0,0:0:0:0:
130,100,280853,2,0,P|87:92|12:100,1,90,2|8,0:0|2:1,0:0:0:0:
23,211,281131,1,2,0:0:0:0:
197,156,281270,6,0,P|237:150|311:159,1,90,4|0,0:2|2:0,0:0:0:0:
374,173,281547,1,8,2:1:0:0:
442,231,281686,1,0,2:0:0:0:
333,229,281825,1,0,2:0:0:0:
227,252,281964,1,0,2:0:0:0:
126,291,282103,1,8,0:0:0:0:
99,295,282172,1,0,0:0:0:0:
71,293,282242,1,0,0:0:0:0:
47,280,282311,1,0,0:0:0:0:
31,257,282381,6,0,L|36:132,1,90,4|2,0:0|0:0,0:0:0:0:
157,118,282659,2,0,B|159:197|159:197|280:127,1,180,8|0,0:0|2:0,0:0:0:0:
341,94,283075,1,0,2:0:0:0:
370,197,283214,1,8,2:1:0:0:
277,253,283353,1,0,2:0:0:0:
246,146,283492,37,0,2:0:0:0:
292,28,283631,1,0,2:0:0:0:
408,76,283770,1,8,2:1:0:0:
370,197,283909,1,0,2:0:0:0:
246,146,284047,5,0,2:0:0:0:
353,49,284186,1,0,2:0:0:0:
451,154,284325,1,8,2:1:0:0:
339,244,284464,5,0,0:0:0:0:
339,244,284534,1,0,0:0:0:0:
339,244,284603,1,0,0:0:0:0:
246,146,284742,1,2,0:0:0:0:
226,300,284881,5,8,0:0:0:0:
226,300,284951,1,0,0:0:0:0:
226,300,285020,1,0,0:0:0:0:
133,202,285159,1,2,0:0:0:0:
119,349,285297,37,0,0:0:0:0:
119,349,285367,1,0,0:0:0:0:
119,349,285436,1,8,0:0:0:0:
26,251,285575,1,2,0:0:0:0:
65,127,285714,5,0,0:0:0:0:
65,127,285784,1,0,0:0:0:0:
65,127,285853,1,0,0:0:0:0:
26,251,285992,1,8,0:0:0:0:
191,180,286131,1,2,0:0:0:0:
165,43,286270,1,0,2:0:0:0:
165,43,286339,1,0,2:0:0:0:
165,43,286409,1,0,2:0:0:0:
165,43,286478,1,0,2:0:0:0:
165,43,286547,2,0,P|209:33|272:37,1,90,8|2,0:0|0:0,0:0:0:0:
360,55,286825,5,0,0:0:0:0:
253,142,286964,1,0,0:0:0:0:
445,119,287103,1,8,0:0:0:0:
335,235,287242,2,0,B|247:242|247:242|187:159|187:159|198:310|198:310|336:300,1,450,2|0,0:0|2:0,0:0:0:0:
412,285,288075,5,2,0:0:0:0:
394,166,288214,1,8,0:0:0:0:
305,302,288353,1,2,0:0:0:0:
512,257,288492,1,0,0:0:0:0:
394,166,288631,1,2,0:0:0:0:
274,22,288770,1,8,0:0:0:0:
399,69,288909,1,2,0:0:0:0:
231,119,289047,37,0,0:0:0:0:
123,112,289186,1,0,0:0:0:0:
28,59,289325,1,8,0:0:0:0:
24,212,289464,1,2,0:0:0:0:
189,235,289603,1,0,0:0:0:0:
297,228,289742,1,0,0:0:0:0:
392,175,289881,1,8,0:0:0:0:
396,328,290020,1,2,0:0:0:0:
231,343,290159,6,0,P|185:353|101:343,1,90,2|2,0:0|0:0,0:0:0:0:
115,348,290367,1,0,0:0:0:0:
88,343,290436,2,0,P|86:294|68:255,1,90,8|2,0:0|0:0,0:0:0:0:
51,235,290645,1,0,0:0:0:0:
77,228,290714,2,0,P|114:215|197:223,1,90
190,220,290922,1,0,0:0:0:0:
216,226,290992,1,8,0:0:0:0:
242,228,291061,1,0,0:0:0:0:
269,224,291131,1,2,0:0:0:0:
294,214,291200,1,0,0:0:0:0:
313,195,291270,6,0,L|292:79,1,90,4|2,0:0|0:0,0:0:0:0:
165,91,291547,1,8,0:0:0:0:
329,283,291686,2,0,L|308:167,1,90,2|2,0:0|0:0,0:0:0:0:
177,188,291964,1,0,0:0:0:0:
345,371,292103,2,0,L|324:255,1,90,10|2,0:0|0:0,0:0:0:0:
187,293,292381,5,0,0:0:0:0:
402,244,292520,2,0,L|521:213,1,90,2|8,0:0|0:0,0:0:0:0:
476,98,292797,1,0,0:0:0:0:
314,266,292936,2,0,L|433:235,1,90,2|0,0:0|0:0,0:0:0:0:
476,98,293214,1,8,0:0:0:0:
448,100,293284,1,0,0:0:0:0:
421,96,293353,1,0,0:0:0:0:
395,88,293422,1,0,0:0:0:0:
370,76,293492,6,0,L|272:83,1,60,4|0,0:1|0:0,0:0:0:0:
159,88,293677,1,0,0:0:0:0:
173,152,293770,2,0,L|271:159,1,60,10|0,0:0|0:0,0:0:0:0:
384,171,293955,1,0,0:0:0:0:
349,226,294047,2,0,L|251:233,1,60,2|0,0:0|0:0,0:0:0:0:
138,238,294233,1,0,0:0:0:0:
152,302,294326,2,0,L|250:309,2,60,10|0|0,0:0|0:0|0:0,0:0:0:0:
294,307,294603,21,2,0:0:0:0:
320,307,294672,1,0,0:0:0:0:
347,305,294742,1,2,0:0:0:0:
373,311,294811,1,0,0:0:0:0:
398,322,294881,1,10,0:0:0:0:
424,323,294950,1,0,0:0:0:0:
450,317,295020,1,2,0:0:0:0:
474,305,295089,1,0,0:0:0:0:
485,280,295159,5,0,0:0:0:0:
485,253,295228,1,0,0:0:0:0:
480,226,295297,1,2,0:0:0:0:
461,205,295367,1,0,0:0:0:0:
434,204,295436,1,8,0:0:0:0:
406,206,295506,1,0,0:0:0:0:
379,206,295575,1,2,0:0:0:0:
355,192,295645,1,0,0:0:0:0:
349,165,295714,6,0,B|296:157|239:132|239:132|246:171|226:214,1,180,4|8,0:0|0:0,0:0:0:0:
130,231,296131,1,2,0:0:0:0:
296,271,296270,1,0,0:0:0:0:
147,143,296409,2,0,P|133:186|132:254,1,90,2|8,0:0|0:0,0:0:0:0:
164,332,296686,1,2,0:0:0:0:
296,271,296825,53,0,0:0:0:0:
321,260,296895,1,0,0:0:0:0:
346,252,296964,1,2,0:0:0:0:
197,162,297103,1,8,0:0:0:0:
172,151,297173,1,0,0:0:0:0:
147,143,297242,1,2,0:0:0:0:
217,34,297381,1,0,0:0:0:0:
351,89,297520,1,0,0:0:0:0:
374,102,297590,1,0,0:0:0:0:
397,114,297659,1,10,0:0:0:0:
351,211,297797,1,0,0:0:0:0:
185,250,297936,6,0,P|186:205|197:162,1,90,2|0,0:0|0:0,0:0:0:0:
362,299,298214,2,0,P|361:254|351:211,1,90,8|2,0:0|0:0,0:0:0:0:
260,337,298492,1,0,0:0:0:0:
277,203,298631,1,2,0:0:0:0:
443,278,298770,1,8,0:0:0:0:
235,268,298909,1,0,0:0:0:0:
401,146,299047,5,4,0:2:0:0:
309,59,299186,1,2,0:0:0:0:
193,109,299325,1,8,0:0:0:0:
401,146,299464,5,4,0:2:0:0:
289,85,299603,1,2,0:0:0:0:
190,164,299742,1,0,0:0:0:0:
258,254,299881,1,8,0:0:0:0:
87,225,300020,1,2,0:0:0:0:
243,350,300159,38,0,P|282:362|338:355,1,90,2|0,0:0|0:0,0:0:0:0:
174,232,300436,2,0,P|135:220|79:227,1,90,8|2,0:0|0:0,0:0:0:0:
258,254,300714,2,0,P|299:248|366:219,1,90,0|2,0:0|0:0,0:0:0:0:
364,213,300922,1,0,0:0:0:0:
379,190,300992,1,8,0:0:0:0:
349,75,301131,1,2,0:0:0:0:
507,171,301270,5,0,0:0:0:0:
310,142,301409,1,0,0:0:0:0:
283,138,301478,1,0,0:0:0:0:
256,137,301547,2,0,P|211:129|159:143,1,90,8|2,0:0|0:0,0:0:0:0:
26,72,301825,1,0,0:0:0:0:
17,97,301895,1,0,0:0:0:0:
23,123,301964,2,0,P|41:168|45:228,1,90,2|8,0:0|0:0,0:0:0:0:
184,244,302242,1,2,0:0:0:0:
79,335,302381,37,2,0:0:0:0:
134,313,302473,1,0,0:0:0:0:
194,317,302566,1,0,0:0:0:0:
253,328,302659,1,10,0:0:0:0:
312,323,302751,1,0,0:0:0:0:
363,291,302844,1,0,0:0:0:0:
385,235,302936,1,2,0:0:0:0:
370,176,303029,1,0,0:0:0:0:
370,116,303121,1,0,0:0:0:0:
392,60,303214,1,10,0:0:0:0:
488,146,303353,1,2,0:0:0:0:
272,92,303492,21,0,0:0:0:0:
472,63,303631,1,2,0:0:0:0:
329,35,303770,2,0,P|279:15|216:30,1,90,8|2,0:0|0:0,0:0:0:0:
297,189,304047,1,0,2:0:0:0:
323,193,304117,1,0,2:0:0:0:
349,194,304186,1,0,2:0:0:0:
376,191,304256,1,0,2:0:0:0:
402,186,304325,2,0,L|432:279,1,90,8|2,0:0|0:0,0:0:0:0:
223,317,304603,6,0,L|181:208,1,90,4|0,0:0|0:0,0:0:0:0:
180,207,304811,1,0,0:0:0:0:
169,181,304881,1,8,0:0:0:0:
23,228,305020,1,2,0:0:0:0:
190,232,305159,37,0,0:0:0:0:
245,209,305251,1,0,0:0:0:0:
305,213,305344,1,0,0:0:0:0:
362,227,305436,22,0,P|412:237|454:233,1,90,10|0,0:0|0:0,0:0:0:0:
474,220,305645,1,0,0:0:0:0:
487,196,305714,2,0,P|484:245|486:288,1,90,0|2,0:0|0:0,0:0:0:0:
482,312,305922,1,0,0:0:0:0:
460,328,305992,2,0,P|421:335|348:316,1,90,8|2,0:0|0:0,0:0:0:0:
345,321,306200,1,0,0:0:0:0:
326,300,306270,54,0,L|322:225,2,60
203,186,306547,2,0,L|207:261,2,60
296,117,306825,1,0,0:0:0:0:
349,90,306918,1,0,0:0:0:0:
408,94,307010,1,0,0:0:0:0:
378,161,307103,1,0,0:0:0:0:
325,188,307196,1,0,0:0:0:0:
266,184,307288,1,0,0:0:0:0:
176,135,307381,5,0,0:0:0:0:
111,120,307474,1,0,0:0:0:0:
50,146,307566,1,0,0:0:0:0:
54,218,307659,1,0,0:0:0:0:
118,232,307752,1,0,0:0:0:0:
183,223,307844,1,0,0:0:0:0:
266,184,307936,69,0,0:0:0:0:
303,245,308029,1,0,0:0:0:0:
305,316,308121,1,0,0:0:0:0:
369,284,308214,21,0,0:0:0:0:
392,270,308284,1,0,0:0:0:0:
418,268,308353,1,0,0:0:0:0:
444,271,308422,1,0,0:0:0:0:
469,279,308492,2,0,B|445:221|445:221|515:163,2,135,2|2|2,0:0|0:0|0:0,0:0:0:0:
332,365,309047,5,4,1:2:0:0:
304,363,309117,1,0,2:0:0:0:
277,361,309186,1,0,2:0:0:0:
249,359,309256,1,0,2:0:0:0:
222,356,309325,2,0,L|145:352,1,45,0|0,2:0|2:0,2:0:0:0:
73,279,309464,5,4,1:2:0:0:
101,281,309534,1,0,2:0:0:0:
128,283,309603,1,0,2:0:0:0:
156,285,309673,1,0,2:0:0:0:
183,288,309742,2,0,L|260:292,1,45,0|0,2:0|2:0,2:0:0:0:
345,226,309881,5,4,1:2:0:0:
317,224,309951,1,0,2:0:0:0:
290,222,310020,1,0,2:0:0:0:
262,220,310090,1,0,2:0:0:0:
235,217,310159,2,0,L|158:213,1,45,0|0,2:0|2:0,2:0:0:0:
70,138,310297,2,0,L|121:141,1,45,0|0,1:0|2:0,0:0:0:0:
196,67,310436,38,0,P|270:81|328:71,1,135,4|0,0:2|2:0,0:0:0:0:
394,119,310714,2,0,P|344:176|323:232,1,135,4|0,0:2|2:0,0:0:0:0:
250,262,310992,2,0,P|225:190|187:144,1,135,4|0,0:2|2:0,0:0:0:0:
196,67,311270,1,4,0:2:0:0:
394,119,311409,1,0,0:2:0:0:
347,305,311547,1,0,0:2:0:0:
148,252,311686,1,4,0:2:0:0:
240,323,311964,5,4,0:2:0:0:
137,145,312103,1,0,0:2:0:0:
302,48,312241,1,0,0:2:0:0:
405,225,312380,1,4,0:2:0:0:
137,145,312520,1,4,0:2:0:0:
137,145,312797,6,0,B|176:65|176:65|214:159|214:159|268:85,1,270,4|2,0:2|3:0,0:0:0:0:
284,80,313284,1,0,0:0:0:0:
310,78,313353,1,0,0:0:0:0:
336,79,313422,1,0,0:0:0:0:
362,86,313492,1,0,0:0:0:0:
387,93,313561,1,0,0:0:0:0:
404,114,313631,1,0,0:0:0:0:
413,139,313700,1,0,0:0:0:0:
413,166,313770,6,0,L|450:191,3,30
400,189,313978,1,0,0:0:0:0:
374,198,314047,1,0,0:0:0:0:
346,199,314117,1,0,0:0:0:0:
319,198,314186,1,0,0:0:0:0:
294,186,314256,1,0,0:0:0:0:
272,169,314325,1,8,0:1:0:0:
