osu file format v14

[General]
AudioFilename: Saitama Saisyu Heiki - Horned Enigma.mp3
AudioLeadIn: 1500
PreviewTime: 54111
Countdown: 0
SampleSet: Normal
StackLeniency: 0.7
Mode: 0
LetterboxInBreaks: 0
WidescreenStoryboard: 0

[Editor]
Bookmarks: 54694
DistanceSpacing: 1
BeatDivisor: 4
GridSize: 8
TimelineZoom: 2.3

[Metadata]
Title:Horned Enigma
TitleUnicode:Horned Enigma
Artist:Saitama Saisyu Heiki
ArtistUnicode:埼玉最終兵器
Creator:Tshemmp
Version:Insane
Source:イリスのアトリエ エターナルマナ
Tags:S.S.H. SSH Atelier Iris: Eternal Mana Arranged Tracks DECEITFUL WINGS 平松俊紀 Hiramatsu Toshinori Daisuke Achiwa Ken Nakagawa GUST PS2 Playstation2 phaZ
BeatmapID:839612
BeatmapSetID:79781

[Difficulty]
HPDrainRate:6
CircleSize:4
OverallDifficulty:8
ApproachRate:9
SliderMultiplier:1.8
SliderTickRate:2

[Events]
//Background and Video events
0,0,"Abstract_wallpaper_by_spiedz0rs01.jpg",0,0
//Break Periods
//Storyboard Layer 0 (Background)
//Storyboard Layer 1 (Fail)
//Storyboard Layer 2 (Pass)
//Storyboard Layer 3 (Foreground)
//Storyboard Sound Samples

[TimingPoints]
210,333.240766453763,4,1,1,30,1,0
1376,-100,4,1,1,40,0,0
54195,-83.3333333333333,4,1,1,70,0,0
54694,-83.3333333333333,4,1,1,70,0,1
75355,-83.3333333333333,4,2,1,70,0,1
75439,-83.3333333333333,4,1,1,70,0,1
76022,-100,4,1,1,70,0,0
76355,-100,4,1,1,30,0,0
81020,-100,4,1,1,40,0,0
81853,-100,4,1,1,30,0,0
84020,-100,4,1,1,40,0,0
84519,-100,4,1,1,30,0,0
85353,-100,4,1,1,40,0,0
85852,-100,4,1,1,30,0,0
86685,-100,4,1,1,40,0,0
98682,-100,4,2,1,40,0,0
98849,-100,4,1,1,40,0,0
101348,-100,4,2,1,40,0,0
101515,-100,4,1,1,40,0,0
104014,-100,4,2,1,40,0,0
104181,-100,4,1,1,40,0,0
109346,-100,4,2,1,40,0,0
109512,-100,4,1,1,40,0,0
112012,-100,4,2,1,40,0,0
112178,-100,4,1,1,40,0,0
114678,-100,4,2,1,40,0,0
114844,-100,4,1,1,40,0,0
117677,-100,4,1,1,50,0,0
128173,-100,4,1,1,60,0,0
128840,-100,4,1,1,70,0,0
129340,-100,4,1,1,40,0,0
160832,-83.3333333333333,4,1,1,50,0,0
161331,-83.3333333333333,4,1,1,70,0,1
185325,-100,4,1,1,60,0,0
186657,-100,4,2,1,60,0,0
186824,-100,4,1,1,60,0,0
224814,-83.3333333333333,4,1,1,70,0,0
225314,-83.3333333333333,4,1,1,70,0,1
246141,-83.3333333333333,4,1,1,80,0,0
246641,-83.3333333333333,4,1,1,80,0,1
262637,-100,4,1,1,80,0,0
263302,-100,4,1,1,40,0,0
265136,-100,4,1,1,50,0,0
275966,-100,4,1,1,40,0,0
297627,-125,4,1,1,20,0,0
299293,-125,4,1,1,30,0,0
299460,-100,4,1,1,40,0,0
299960,-200,4,1,1,30,0,0

[Colours]
Combo1 : 0,128,192
Combo2 : 128,128,255
Combo3 : 0,64,128
Combo4 : 128,255,255

[HitObjects]
256,176,210,5,4,0:0:0:0:
256,192,543,1,4,0:0:0:0:
256,208,876,1,0,0:0:0:0:
256,224,959,1,0,0:0:0:0:
256,240,1043,1,0,0:0:0:0:
256,256,1126,1,0,0:0:0:0:
256,272,1209,1,8,0:0:0:0:
136,368,1376,6,2,P|64:312|40:224,1,180,4|0,0:0|0:0,0:0:0:0:
144,144,1876,2,0,L|216:88,1,90,8|0,0:0|0:0,0:0:0:0:
48,128,2209,2,0,L|35:37,1,90,0|0,0:0|0:0,0:0:0:0:
192,200,2542,2,0,L|264:144,1,90,8|0,0:0|0:0,0:0:0:0:
96,184,2875,2,0,L|83:93,1,90,0|0,0:0|0:0,0:0:0:0:
240,256,3209,2,0,L|312:200,1,90,8|0,0:0|0:0,0:0:0:0:
144,240,3542,1,0,0:0:0:0:
224,352,3709,1,0,0:0:0:0:
360,376,3875,1,8,0:0:0:0:
472,296,4042,6,0,P|504:208|488:120,1,180,4|0,0:0|0:0,0:0:0:0:
376,152,4542,2,0,L|296:200,1,90,8|0,0:0|0:0,0:0:0:0:
136,152,4875,2,0,L|216:200,1,90
376,240,5208,2,0,L|296:288,1,90,8|0,0:0|0:0,0:0:0:0:
136,240,5541,2,0,L|216:288,1,90
376,328,5875,2,0,L|296:376,1,90,8|0,0:0|0:0,0:0:0:0:
128,336,6208,1,0,0:0:0:0:
16,264,6374,1,0,0:0:0:0:
16,128,6541,1,8,0:0:0:0:
128,56,6708,6,0,P|216:80|304:56,1,180,4|0,0:0|0:0,0:0:0:0:
369,178,7208,2,0,L|416:256,1,90,8|0,0:0|0:0,0:0:0:0:
292,382,7541,2,0,L|336:304,1,90,0|0,0:0|0:0,0:0:0:0:
505,350,7874,2,0,L|416:352,1,90,8|0,0:0|0:0,0:0:0:0:
164,358,8207,2,0,L|208:280,1,90,0|0,0:0|0:0,0:0:0:0:
241,154,8541,2,0,L|288:232,1,90,8|0,0:0|0:0,0:0:0:0:
377,326,8874,1,0,0:0:0:0:
464,224,9040,1,0,0:0:0:0:
416,96,9207,1,8,0:0:0:0:
296,32,9374,6,0,P|208:24|132:80,1,180,4|0,0:0|0:0,0:0:0:0:
112,208,9873,2,0,L|22:208,1,90,8|0,0:0|0:0,0:0:0:0:
200,208,10207,2,0,L|296:208,1,90,0|0,0:0|0:0,0:0:0:0:
208,312,10540,2,0,L|120:328,1,90,8|0,0:0|0:0,0:0:0:0:
296,296,10874,2,0,L|384:280,1,90,0|0,0:0|0:0,0:0:0:0:
208,104,11206,2,0,L|120:88,1,90,12|0,0:0|0:0,0:0:0:0:
296,120,11540,1,8,0:0:0:0:
432,96,11706,1,12,0:2:0:0:
512,208,11873,1,8,0:0:0:0:
432,320,12040,6,0,P|360:376|272:384,1,180,12|0,0:0|0:0,0:0:0:0:
236,372,12456,1,0,0:0:0:0:
200,360,12539,2,0,P|155:359|113:376,1,90,12|0,0:0|0:0,0:0:0:0:
24,304,12873,2,0,P|68:303|110:287,1,90
200,184,13206,2,0,P|155:183|113:200,1,90,8|0,0:0|0:0,0:0:0:0:
200,272,13539,2,0,P|244:271|286:255,1,90,0|0,0:2|0:0,0:0:0:0:
286,79,13872,2,0,P|241:79|200:95,1,90,8|0,0:0|0:0,0:0:0:0:
352,200,14206,1,0,0:0:0:0:
408,324,14372,1,0,0:0:0:0:
488,216,14539,1,8,0:0:0:0:
416,104,14705,6,0,P|344:48|256:32,1,180,4|0,0:0|0:0,0:0:0:0:
120,48,15205,2,0,L|32:64,1,90,8|0,0:0|0:0,0:0:0:0:
296,176,15539,2,0,L|384:192,1,90,0|0,0:0|0:0,0:0:0:0:
208,152,15872,2,0,L|120:136,1,90,8|0,0:0|0:0,0:0:0:0:
208,280,16206,2,0,L|296:264,1,90,0|0,0:0|0:0,0:0:0:0:
120,296,16538,2,0,L|32:312,1,90,8|0,0:0|0:0,0:0:0:0:
176,360,16872,1,0,0:0:0:0:
212,224,17038,1,0,0:0:0:0:
332,296,17205,1,8,0:0:0:0:
368,160,17371,6,0,P|416:88|504:40,1,180,4|0,0:0|0:0,0:0:0:0:
456,176,17871,2,0,L|368:160,1,90,8|0,0:0|0:0,0:0:0:0:
321,82,18205,2,0,L|367:159,1,90,0|0,0:0|0:0,0:0:0:0:
440,264,18538,2,0,L|352:248,1,90,8|0,0:0|0:0,0:0:0:0:
248,128,18872,2,0,L|293:205,1,90,0|0,0:0|0:0,0:0:0:0:
424,352,19204,2,0,L|336:336,1,90,8|0,0:0|0:0,0:0:0:0:
176,168,19537,1,0,0:0:0:0:
248,288,19704,1,0,0:0:0:0:
128,360,19871,1,8,0:0:0:0:
56,240,20037,6,0,P|40:144|80:64,1,180,4|0,0:0|0:0,0:0:0:0:
208,32,20537,2,0,L|296:16,1,90,8|0,0:0|0:0,0:0:0:0:
392,120,20870,2,0,L|304:104,1,90,0|0,0:0|0:0,0:0:0:0:
104,168,21204,2,0,L|192:152,1,90,12|0,0:0|0:0,0:0:0:0:
288,256,21537,2,0,L|200:240,1,90,0|0,0:0|0:0,0:0:0:0:
0,304,21870,2,0,L|88:288,1,90,8|0,0:0|0:0,0:0:0:0:
200,376,22203,5,2,0:2:0:0:
344,352,22370,1,2,0:2:0:0:
456,264,22537,1,2,0:2:0:0:
464,120,22703,6,2,P|408:56|312:32,1,180,6|0,0:2|0:0,0:0:0:0:
264,104,23203,1,8,0:0:0:0:
184,144,23370,1,0,0:0:0:0:
96,136,23536,2,2,P|48:120|16:96,1,90,2|2,0:0|0:2,0:0:0:0:
16,232,23870,1,10,0:2:0:0:
104,240,24036,2,2,P|200:272|264:320,1,180,2|0,0:2|0:0,0:0:0:0:
336,376,24536,1,8,0:0:0:0:
432,280,24703,1,0,0:0:0:0:
432,280,24786,1,2,0:2:0:0:
432,280,24869,2,2,P|456:248|472:200,1,90,2|2,0:2|0:2,0:0:0:0:
472,112,25203,1,10,0:2:0:0:
344,160,25369,6,2,P|256:176|168:160,1,180,2|2,0:2|0:2,0:0:0:0:
80,136,25869,1,8,0:0:0:0:
104,224,26036,1,0,0:0:0:0:
128,312,26202,2,2,P|163:332|211:332,1,90,2|0,0:0|0:0,0:0:0:0:
296,296,26536,1,8,0:0:0:0:
408,224,26702,2,2,P|432:304|392:392,1,180,2|0,0:0|0:0,0:0:0:0:
304,384,27202,1,10,0:0:0:0:
102,335,27369,1,0,0:0:0:0:
102,335,27452,1,2,0:2:0:0:
102,335,27535,2,2,L|192:328,1,90,2|2,0:2|0:2,0:0:0:0:
264,224,27868,1,10,0:2:0:0:
336,96,28035,6,2,L|152:120,1,180,6|0,0:2|0:0,0:0:0:0:
72,96,28535,1,8,0:0:0:0:
48,184,28702,1,0,0:0:0:0:
136,208,28868,2,0,P|184:208|224:184,2,90,2|2|10,0:0|0:2|0:2,0:0:0:0:
24,272,29368,2,2,P|96:328|184:328,1,180,2|0,0:2|0:0,0:0:0:0:
264,296,29868,1,10,0:2:0:0:
352,288,30035,2,0,P|400:288|448:304,1,90,2|2,0:2|0:0,0:0:0:0:
360,195,30368,2,2,P|408:195|448:208,1,90,2|8,0:2|0:0,0:0:0:0:
464,48,30701,6,2,P|392:104|304:104,1,180,2|0,0:2|0:0,0:0:0:0:
224,72,31201,1,8,0:0:0:0:
168,144,31368,1,0,0:0:0:0:
216,220,31534,1,2,0:0:0:0:
304,192,31701,1,0,0:0:0:0:
306,104,31867,1,10,0:2:0:0:
288,280,32034,2,2,P|240:352|152:384,1,180,2|2,0:2|0:0,0:0:0:0:
64,368,32534,1,14,0:0:0:0:
64,192,32700,5,0,0:2:0:0:
88,152,32783,1,0,0:0:0:0:
128,128,32866,1,6,0:2:0:0:
224,192,33034,1,2,0:2:0:0:
248,232,33117,1,0,0:0:0:0:
288,256,33200,1,2,0:2:0:0:
424,256,33367,6,2,P|488:192|512:104,1,180,6|0,0:2|0:0,0:0:0:0:
432,64,33867,1,8,0:0:0:0:
344,40,34033,1,0,0:0:0:0:
257,31,34200,2,2,P|217:31|168:40,1,90,2|2,0:0|0:2,0:0:0:0:
80,64,34533,1,10,0:2:0:0:
88,196,34700,2,2,P|144:124|168:40,1,180,2|0,0:2|0:0,0:0:0:0:
168,39,35200,1,8,0:0:0:0:
344,40,35366,1,0,0:0:0:0:
344,40,35450,1,2,0:2:0:0:
344,40,35533,2,2,P|392:48|432:64,1,90,2|2,0:2|0:2,0:0:0:0:
512,104,35866,1,10,0:2:0:0:
512,280,36033,6,2,P|432:320|344:344,1,180,2|2,0:2|0:2,0:0:0:0:
256,344,36533,1,8,0:0:0:0:
208,264,36699,1,0,0:0:0:0:
160,184,36866,2,2,P|128:152|88:128,1,90,2|0,0:0|0:0,0:0:0:0:
32,200,37199,1,8,0:0:0:0:
32,336,37366,2,2,P|128:336|208:312,1,180,2|0,0:0|0:0,0:0:0:0:
288,272,37866,1,10,0:0:0:0:
400,152,38032,1,0,0:0:0:0:
400,152,38116,1,2,0:2:0:0:
400,152,38199,2,2,P|448:160|488:176,1,90,2|2,0:2|0:2,0:0:0:0:
512,264,38532,1,10,0:2:0:0:
512,88,38699,6,2,P|424:64|336:56,1,180,6|0,0:2|0:0,0:0:0:0:
256,96,39199,1,8,0:0:0:0:
175,55,39365,1,0,0:0:0:0:
96,16,39532,1,2,0:0:0:0:
6,96,39699,2,0,L|96:96,1,90,2|10,0:0|0:0,0:0:0:0:
176,136,40032,2,2,L|176:320,1,180,2|0,0:2|0:0,0:0:0:0:
256,360,40532,1,10,0:2:0:0:
336,320,40698,2,0,L|416:280,1,90,2|2,0:2|0:0,0:0:0:0:
456,160,41031,2,2,L|376:200,1,90,2|8,0:2|0:0,0:0:0:0:
256,264,41365,6,2,P|160:272|96:224,1,180,2|0,0:2|0:0,0:0:0:0:
72,136,41865,1,8,0:0:0:0:
136,72,42031,1,0,0:0:0:0:
160,160,42198,1,2,0:0:0:0:
56,48,42364,1,0,0:0:0:0:
96,224,42531,1,10,0:2:0:0:
224,96,42698,2,2,P|297:146|348:220,1,180,2|2,0:2|0:0,0:0:0:0:
368,352,43198,1,14,0:0:0:0:
152,312,43364,5,2,0:2:0:0:
48,224,43531,1,10,0:2:0:0:
48,224,43614,1,0,0:0:0:0:
48,224,43697,1,10,0:2:0:0:
176,176,43864,1,10,0:2:0:0:
280,264,44031,6,0,P|368:280|456:264,1,180,12|0,0:0|0:0,0:0:0:0:
456,120,44531,1,8,0:0:0:0:
176,64,44864,1,0,0:0:0:0:
176,320,45197,1,8,0:0:0:0:
48,192,45364,1,2,0:2:0:0:
48,192,45447,1,0,0:0:0:0:
48,192,45530,2,0,L|232:192,1,180,2|10,0:2|0:2,0:0:0:0:
480,104,46197,2,0,P|496:144|504:192,1,90,0|0,0:2|0:2,0:0:0:0:
482,275,46530,1,10,0:0:0:0:
400,312,46697,6,2,P|312:288|224:312,1,180,6|2,0:2|0:2,0:0:0:0:
144,288,47196,2,2,P|104:264|73:233,1,90,10|0,0:2|0:0,0:0:0:0:
112,104,47530,2,0,P|152:128|182:158,2,90,2|2|4,0:0|0:0|0:0,0:0:0:0:
24,80,48030,1,0,0:0:0:0:
176,40,48196,2,0,P|216:63|248:94,1,90,6|0,0:0|0:0,0:0:0:0:
272,184,48529,1,10,0:0:0:0:
296,272,48696,1,0,0:0:0:0:
420,328,48863,5,0,0:0:0:0:
420,328,48946,1,0,0:0:0:0:
420,328,49029,1,2,0:0:0:0:
496,216,49196,1,2,0:2:0:0:
456,88,49363,2,0,P|400:24|304:8,1,180,6|0,0:2|0:0,0:0:0:0:
328,144,49862,2,0,P|272:208|181:225,1,180,8|0,0:0|0:0,0:0:0:0:
200,88,50362,2,0,P|144:24|48:8,1,180,2|2,0:2|0:2,0:0:0:0:
0,120,50862,5,2,0:2:0:0:
120,176,51029,1,2,0:2:0:0:
16,256,51195,1,10,0:2:0:0:
136,312,51362,1,2,0:2:0:0:
240,232,51529,1,2,0:2:0:0:
240,232,51695,1,2,0:2:0:0:
256,368,51862,1,10,0:2:0:0:
400,304,52028,6,0,P|464:240|488:152,1,180,6|0,0:2|0:0,0:0:0:0:
480,64,52528,2,0,L|384:72,1,90,8|0,0:0|0:0,0:0:0:0:
312,184,52861,1,2,0:0:0:0:
312,184,53028,1,2,0:0:0:0:
216,88,53195,1,2,0:0:0:0:
32,192,53361,1,6,0:0:0:0:
88,320,53528,5,0,0:0:0:0:
112,328,53611,1,0,0:0:0:0:
136,336,53695,1,8,0:3:0:0:
160,344,53778,1,8,0:3:0:0:
184,352,53861,1,4,0:2:0:0:
208,360,53945,1,4,0:3:0:0:
232,368,54028,1,4,0:3:0:0:
280,248,54195,5,6,0:0:0:0:
400,296,54361,1,0,0:0:0:0:
448,176,54528,1,6,0:0:0:0:
432,48,54694,6,2,P|328:24|224:56,1,215.999993408203,4|0,0:0|0:0,0:0:0:0:
144,128,55194,2,2,L|72:208,1,107.999996704102,8|0,0:0|0:0,0:0:0:0:
176,232,55527,1,0,0:0:0:0:
280,248,55693,1,2,0:2:0:0:
360,176,55860,1,10,0:2:0:0:
464,192,56027,2,2,P|488:304|424:376,1,215.999993408203,2|0,0:2|0:0,0:0:0:0:
320,352,56527,1,8,0:0:0:0:
192,352,56694,1,2,0:2:0:0:
192,352,56777,1,2,0:2:0:0:
192,352,56860,2,2,P|136:352|88:368,1,107.999996704102,2|2,0:2|0:2,0:0:0:0:
112,264,57194,1,10,0:2:0:0:
8,288,57360,6,0,P|24:240|24:184,2,107.999996704102,6|0|2,0:0|0:0|0:2,0:0:0:0:
200,264,57860,2,2,L|312:240,1,107.999996704102,10|0,0:0|0:0,0:0:0:0:
441,158,58193,2,2,L|336:136,1,107.999996704102,2|0,0:0|0:0,0:0:0:0:
216,344,58527,2,2,L|328:320,1,107.999996704102,10|0,0:0|0:0,0:0:0:0:
464,80,58860,2,2,L|358:57,1,107.999996704102,2|0,0:0|0:0,0:0:0:0:
153,57,59193,2,0,L|48:80,2,107.999996704102,10|0|2,0:0|0:0|0:0,0:0:0:0:
256,136,59693,1,2,0:2:0:0:
256,264,59860,1,10,0:2:0:0:
152,336,60026,6,2,P|40:304|0:216,1,215.999993408203,4|0,0:0|0:0,0:0:0:0:
32,96,60526,1,10,0:2:0:0:
152,56,60693,2,2,L|112:160,1,107.999996704102,2|0,0:2|0:0,0:0:0:0:
256,360,61026,2,2,L|256:240,1,107.999996704102,2|0,0:2|0:0,0:0:0:0:
360,56,61359,2,2,L|400:160,1,107.999996704102,2|0,0:2|0:0,0:0:0:0:
464,360,61692,2,2,P|424:320|376:296,1,107.999996704102,2|10,0:2|0:2,0:0:0:0:
280,256,62026,1,2,0:2:0:0:
184,216,62192,2,2,P|138:192|98:152,1,107.999996704102,2|2,0:2|0:2,0:0:0:0:
176,72,62526,1,10,0:2:0:0:
192,304,62692,6,2,P|96:264|16:184,1,215.999993408203,4|2,0:0|0:0,0:0:0:0:
0,80,63192,1,10,0:0:0:0:
0,80,63359,1,0,0:0:0:0:
144,8,63525,1,2,0:0:0:0:
144,8,63692,1,0,0:0:0:0:
256,192,63858,1,10,0:0:0:0:
368,8,64025,2,2,P|480:24|496:112,1,215.999993408203,6|0,0:0|0:0,0:0:0:0:
456,208,64525,2,0,L|408:312,1,107.999996704102,12|0,0:2|0:0,0:0:0:0:
248,312,64858,5,10,0:0:0:0:
112,224,65025,1,10,0:0:0:0:
104,384,65191,1,14,0:2:0:0:
72,88,65358,6,2,P|168:40|280:32,1,215.999993408203,12|0,0:0|0:0,0:0:0:0:
376,64,65858,2,2,P|344:112|296:136,1,107.999996704102,12|0,0:0|0:0,0:0:0:0:
200,168,66191,2,2,P|232:216|280:240,1,107.999996704102,0|2,0:0|0:2,0:0:0:0:
376,272,66524,1,10,0:2:0:0:
296,344,66691,2,2,P|192:296|120:216,1,215.999993408203,2|0,0:2|0:0,0:0:0:0:
104,120,67191,1,8,0:0:0:0:
0,40,67358,1,2,0:2:0:0:
0,40,67441,1,2,0:2:0:0:
0,40,67524,2,2,L|0:152,1,107.999996704102,2|2,0:2|0:2,0:0:0:0:
0,256,67857,1,10,0:2:0:0:
104,384,68024,6,0,P|200:344|240:240,1,215.999993408203,6|2,0:0|0:2,0:0:0:0:
200,88,68524,2,2,L|104:32,1,107.999996704102,10|0,0:0|0:0,0:0:0:0:
280,88,68857,2,2,L|376:32,1,107.999996704102,2|0,0:0|0:0,0:0:0:0:
200,176,69190,2,2,L|121:97,1,107.999996704102,10|0,0:0|0:0,0:0:0:0:
280,176,69523,2,2,L|358:97,1,107.999996704102,2|0,0:0|0:0,0:0:0:0:
200,264,69857,2,2,L|144:167,1,107.999996704102,10|0,0:0|0:0,0:0:0:0:
280,264,70190,1,2,0:0:0:0:
333,170,70357,1,2,0:2:0:0:
432,128,70523,1,10,0:2:0:0:
472,224,70690,6,2,P|424:320|336:384,1,215.999993408203,4|2,0:0|0:2,0:0:0:0:
240,336,71190,1,10,0:2:0:0:
144,384,71357,2,2,P|104:352|80:296,1,107.999996704102,2|0,0:2|0:0,0:0:0:0:
152,64,71690,2,2,P|192:96|216:152,1,107.999996704102,2|0,0:2|0:0,0:0:0:0:
408,320,72023,2,2,P|448:288|472:232,1,107.999996704102,2|0,0:2|0:0,0:0:0:0:
368,0,72356,2,2,P|312:8|264:32,1,107.999996704102,2|10,0:2|0:2,0:0:0:0:
248,136,72689,1,2,0:2:0:0:
220,239,72856,2,2,P|178:262|116:272,1,107.999996704102,2|2,0:2|0:2,0:0:0:0:
40,200,73189,1,10,0:2:0:0:
144,168,73356,6,2,P|224:240|320:216,1,215.999993408203,4|0,0:0|0:0,0:0:0:0:
400,144,73856,2,0,P|448:120|504:112,1,107.999996704102,8|2,0:0|0:0,0:0:0:0:
501,271,74189,2,2,P|448:264|400:240,1,107.999996704102,0|2,0:2|0:2,0:0:0:0:
304,112,74522,1,10,0:2:0:0:
176,208,74689,2,0,B|192:152|192:152|200:96,1,107.999996704102,2|0,0:0|0:0,0:0:0:0:
432,16,75022,2,0,B|416:72|416:72|408:128,1,107.999996704102,2|0,0:0|0:0,0:0:0:0:
48,280,75355,2,0,P|8:247|1:195,1,107.999996704102,2|0,0:0|0:0,0:0:0:0:
17,159,75605,1,0,0:0:0:0:
44,133,75688,1,0,0:0:0:0:
79,119,75771,1,0,0:0:0:0:
117,119,75855,1,0,0:0:0:0:
319,274,76022,2,0,P|351:191|336:104,1,180,4|0,0:0|0:0,0:0:0:0:
320,72,76438,1,0,0:0:0:0:
295,45,76522,5,0,0:0:0:0:
240,184,76855,1,0,0:0:0:0:
109,152,77188,1,0,0:0:0:0:
248,208,77521,1,0,0:0:0:0:
216,338,77855,1,0,0:0:0:0:
272,200,78188,1,0,0:0:0:0:
402,231,78521,1,0,0:0:0:0:
180,60,78854,5,0,0:0:0:0:
240,168,79188,1,0,0:0:0:0:
124,268,79521,1,0,0:0:0:0:
232,208,79854,1,0,0:0:0:0:
332,323,80187,1,0,0:0:0:0:
272,216,80521,1,0,0:0:0:0:
387,116,80854,1,0,0:0:0:0:
280,176,81020,5,0,0:0:0:0:
280,176,81104,1,0,0:0:0:0:
280,176,81187,1,8,0:0:0:0:
216,56,81354,1,4,0:0:0:0:
256,192,81520,12,12,83853,0:0:0:0:
256,192,84020,12,12,85186,0:0:0:0:
256,192,85353,12,12,86186,0:0:0:0:
256,344,86519,5,14,0:2:0:0:
168,328,86685,2,2,P|96:280|72:192,1,180,4|0,0:0|0:0,0:0:0:0:
200,160,87185,2,0,L|288:136,1,90,8|0,0:0|0:0,0:0:0:0:
120,112,87519,2,0,L|177:40,1,90,0|0,0:0|0:0,0:0:0:0:
240,248,87852,2,0,L|324:279,1,90,8|0,0:0|0:0,0:0:0:0:
24,112,88185,2,0,L|28:20,1,90,0|0,0:0|0:0,0:0:0:0:
152,288,88518,2,0,L|202:364,1,90,8|0,0:0|0:0,0:0:0:0:
72,192,88852,1,0,0:0:0:0:
176,104,89018,1,0,0:0:0:0:
312,104,89185,1,8,0:0:0:0:
416,16,89351,6,0,P|480:80|488:168,1,180,0|0,0:0|0:0,0:0:0:0:
480,256,89851,2,0,L|464:344,1,90,8|0,0:0|0:0,0:0:0:0:
336,184,90185,2,0,L|320:96,1,90,0|0,0:0|0:0,0:0:0:0:
408,256,90518,2,0,L|392:344,1,90,8|0,0:0|0:0,0:0:0:0:
264,184,90852,2,0,L|248:96,1,90,0|0,0:0|0:0,0:0:0:0:
336,256,91184,2,0,L|320:344,1,90,8|0,0:0|0:0,0:0:0:0:
192,184,91517,1,0,0:0:0:0:
96,88,91684,1,0,0:0:0:0:
0,184,91851,1,8,0:0:0:0:
0,320,92017,6,0,P|80:360|160:320,1,180,4|0,0:0|0:0,0:0:0:0:
232,272,92517,2,0,P|272:256|320:256,1,90,8|0,0:0|0:0,0:0:0:0:
352,168,92851,2,0,P|385:194|409:236,1,90,0|0,0:0|0:0,0:0:0:0:
504,224,93184,2,0,P|497:266|473:308,1,90,8|0,0:0|0:0,0:0:0:0:
288,344,93517,2,0,P|248:360|200:360,1,90,0|0,0:0|0:0,0:0:0:0:
176,200,93850,2,0,P|216:184|264:184,1,90,8|0,0:0|0:0,0:0:0:0:
232,272,94183,1,0,0:0:0:0:
96,296,94350,1,0,0:0:0:0:
80,160,94517,1,8,0:0:0:0:
208,112,94683,6,2,P|296:104|376:152,1,180,6|0,0:0|0:0,0:0:0:0:
376,256,95183,2,2,L|376:352,1,90,8|0,0:0|0:0,0:0:0:0:
509,357,95516,2,2,L|464:280,1,90,0|0,0:0|0:0,0:0:0:0:
288,280,95850,2,0,L|240:363,1,90,10|2,0:0|0:0,0:0:0:0:
376,176,96183,2,2,B|381:147|381:147|376:153|376:153|376:130|376:130|381:125|381:125|381:102|381:102|376:108|376:108|376:85|376:85|370:91|370:91|359:68|359:68|364:62|364:62|353:40|353:40|347:45|347:45|325:34|325:34|330:28|330:28|308:17|308:17|302:23|302:23|285:17|285:17|291:11|291:11|268:11|268:11|262:17|262:17|240:17|240:17|245:11|245:11|217:17,1,360,6|0,0:0|0:0,0:0:0:0:
188,16,96934,1,0,0:0:0:0:
144,24,97017,1,4,0:3:0:0:
101,38,97100,1,8,0:3:0:0:
64,64,97183,1,4,0:3:0:0:
40,200,97349,6,2,L|24:379,1,180,6|0,0:2|0:0,0:0:0:0:
120,249,97849,2,2,L|128:160,1,90,10|0,0:0|0:0,0:0:0:0:
215,118,98182,2,2,L|208:208,1,90,2|0,0:0|0:0,0:0:0:0:
200,336,98516,1,10,0:0:0:0:
320,360,98682,2,2,P|408:344|464:272,1,180,2|0,1:2|0:0,0:0:0:0:
432,144,99182,2,2,L|408:57,1,90,10|0,0:0|0:0,0:0:0:0:
343,273,99515,2,2,L|320:360,1,90,2|0,0:0|0:0,0:0:0:0:
200,360,99848,1,10,0:0:0:0:
56,272,100015,6,2,P|88:184|96:96,1,180,6|0,0:2|0:0,0:0:0:0:
0,168,100515,2,2,P|38:183|86:191,1,90,10|0,0:0|0:0,0:0:0:0:
168,224,100848,2,2,P|216:232|254:247,1,90,2|0,0:0|0:0,0:0:0:0:
328,296,101181,1,10,0:0:0:0:
464,288,101348,2,2,P|496:200|480:112,1,180,2|0,1:2|0:0,0:0:0:0:
408,64,101848,2,0,L|320:48,2,90,10|0|2,0:0|0:0|0:0,0:0:0:0:
408,200,102348,1,2,0:2:0:0:
272,176,102514,1,10,0:0:0:0:
272,312,102681,6,2,P|184:344|96:336,1,180,6|0,0:2|0:0,0:0:0:0:
16,296,103181,2,2,L|0:208,1,90,10|0,0:0|0:0,0:0:0:0:
104,104,103514,2,2,L|88:192,1,90,2|0,0:0|0:0,0:0:0:0:
184,248,103847,1,10,0:0:0:0:
272,176,104014,2,2,P|360:152|448:176,1,180,2|0,1:2|0:0,0:0:0:0:
448,264,104514,2,2,L|352:264,1,90,10|0,0:0|0:0,0:0:0:0:
214,336,104847,2,2,L|304:336,1,90,2|0,0:0|0:0,0:0:0:0:
304,192,105180,1,10,0:0:0:0:
256,56,105347,6,2,P|168:24|80:40,1,180,6|0,0:2|0:0,0:0:0:0:
40,240,105847,2,2,L|56:328,1,90,10|0,0:0|0:0,0:0:0:0:
80,144,106180,2,2,L|96:56,1,90,2|0,0:0|0:0,0:0:0:0:
120,240,106513,2,2,L|136:328,1,90,10|0,0:0|0:0,0:0:0:0:
160,144,106847,2,2,L|176:56,1,90,2|0,0:0|0:0,0:0:0:0:
200,240,107180,2,2,L|216:328,1,90,10|0,0:0|0:0,0:0:0:0:
240,144,107513,1,14,0:0:0:0:
360,80,107680,1,14,0:2:0:0:
424,200,107846,1,10,0:2:0:0:
304,264,108013,6,2,P|216:240|128:240,1,180,14|0,0:2|0:0,0:0:0:0:
112,264,108429,1,0,0:0:0:0:
96,288,108513,2,2,P|52:288|8:276,1,90,12|0,0:2|0:0,0:0:0:0:
8,108,108846,2,2,P|52:96|96:96,1,90,2|0,0:0|0:0,0:0:0:0:
192,192,109179,1,10,0:0:0:0:
288,96,109346,2,2,P|376:80|456:120,1,180,2|0,1:2|0:0,0:0:0:0:
464,263,109846,2,2,L|464:353,1,90,10|0,0:0|0:0,0:0:0:0:
320,352,110179,2,2,L|320:255,1,90,2|0,0:0|0:0,0:0:0:0:
392,168,110512,1,10,0:0:0:0:
320,262,110679,6,2,P|240:288|152:248,1,180,6|0,0:2|0:0,0:0:0:0:
80,192,111179,2,2,L|11:134,1,90,10|0,0:0|0:0,0:0:0:0:
184,72,111512,2,2,L|168:160,1,90,2|0,0:0|0:0,0:0:0:0:
72,24,111845,1,10,0:0:0:0:
256,24,112012,2,2,P|344:40|416:96,1,180,2|0,1:2|0:0,0:0:0:0:
456,192,112512,2,0,L|464:288,2,90,10|0|2,0:0|0:0|0:0,0:0:0:0:
320,192,113011,1,2,0:2:0:0:
288,240,113095,1,0,0:0:0:0:
256,288,113178,1,10,0:0:0:0:
192,192,113345,6,2,P|120:140|32:120,1,180,6|0,0:2|0:0,0:0:0:0:
64,208,113845,2,2,P|104:224|144:264,1,90,10|0,0:0|0:0,0:0:0:0:
248,256,114178,2,2,P|282:224|322:208,1,90,2|0,0:0|0:0,0:0:0:0:
456,208,114511,1,10,0:0:0:0:
368,312,114678,2,2,P|296:368|208:384,1,180,2|0,1:2|0:0,0:0:0:0:
80,344,115178,2,2,L|8:288,1,90,10|0,0:0|0:0,0:0:0:0:
88,176,115511,1,2,0:0:0:0:
192,264,115677,1,10,0:0:0:0:
288,168,115844,1,2,0:2:0:0:
368,280,116011,6,2,P|448:240|488:160,1,180,6|0,0:2|0:0,0:0:0:0:
456,80,116511,2,2,L|416:0,1,90,10|0,0:0|0:0,0:0:0:0:
400,152,116844,2,2,L|360:72,1,90,2|0,0:0|0:0,0:0:0:0:
344,224,117177,2,2,L|304:144,1,90,14|0,0:0|0:0,0:0:0:0:
256,48,117510,1,2,0:0:0:0:
152,32,117677,5,2,0:0:0:0:
152,68,117760,1,2,0:0:0:0:
152,104,117843,1,0,0:0:0:0:
152,140,117927,1,2,0:0:0:0:
152,176,118010,1,0,0:0:0:0:
152,212,118093,1,2,0:0:0:0:
152,248,118177,1,0,0:0:0:0:
143,282,118260,1,2,0:0:0:0:
118,308,118343,1,0,0:0:0:0:
85,319,118426,1,2,0:0:0:0:
49,313,118510,1,0,0:0:0:0:
22,290,118593,1,0,0:0:0:0:
8,258,118677,6,2,L|8:72,2,180,4|0|0,0:0|0:0|0:0,0:0:0:0:
80,344,119510,2,0,P|160:312|192:272,1,135,8|0,0:0|0:0,0:0:0:0:
208,240,119843,1,10,0:0:0:0:
272,88,120010,1,10,0:0:0:0:
288,304,120176,6,0,P|368:272|400:232,1,135,8|0,0:0|0:0,0:0:0:0:
416,200,120509,1,10,0:0:0:0:
480,48,120676,1,10,0:0:0:0:
496,264,120843,6,0,P|416:296|384:336,1,135,8|0,0:0|0:0,0:0:0:0:
368,368,121176,1,10,0:0:0:0:
240,152,121343,5,0,0:0:0:0:
240,152,121426,1,2,0:0:0:0:
240,152,121509,2,2,P|159:134|79:190,1,180,6|10,0:0|0:0,0:0:0:0:
24,256,122009,1,2,0:0:0:0:
56,288,122092,1,2,0:0:0:0:
72,328,122176,2,2,L|8:344,2,60,0|2|0,0:0|0:0|0:0,0:0:0:0:
184,304,122509,2,2,L|248:288,2,60,10|0|2,0:0|0:0|0:0,0:0:0:0:
112,216,122842,2,2,P|187:123|263:216,1,270,6|2,0:0|0:0,0:0:0:0:
264,240,123425,1,2,0:0:0:0:
272,264,123509,2,2,P|336:320|400:264,1,180,2|8,0:0|0:0,0:0:0:0:
408,72,124008,6,0,B|320:96|320:96|232:88,1,180,4|2,0:0|0:0,0:0:0:0:
416,152,124508,2,2,B|328:176|328:176|240:168,1,180,8|2,0:0|0:0,0:0:0:0:
96,88,125091,1,2,0:0:0:0:
98,247,125341,5,2,0:0:0:0:
121,274,125424,1,2,0:0:0:0:
150,294,125507,1,0,0:0:0:0:
186,299,125590,1,2,0:0:0:0:
219,285,125674,1,0,0:0:0:0:
248,264,125757,1,2,0:0:0:0:
276,242,125840,1,0,0:0:0:0:
309,227,125924,1,2,0:0:0:0:
344,229,126007,1,0,0:0:0:0:
374,248,126090,1,2,0:0:0:0:
400,276,126174,2,0,L|440:304,3,45,0|2|0|2,0:0|0:0|0:0|0:0,0:0:0:0:
448,224,126508,2,0,L|488:200,3,45,2|2|4|0,0:3|0:0|0:0|0:0,0:0:0:0:
376,208,126841,6,2,P|312:144|288:56,1,180,0|0,0:0|0:0,0:0:0:0:
184,80,127341,1,8,0:0:0:0:
176,104,127424,1,0,0:0:0:0:
168,128,127507,1,8,0:0:0:0:
244,300,127757,1,10,0:0:0:0:
355,147,128007,1,14,0:0:0:0:
189,42,128174,5,8,0:0:0:0:
160,324,128424,1,14,0:0:0:0:
418,209,128674,1,10,0:0:0:0:
288,59,128840,5,4,0:0:0:0:
240,184,129007,1,2,0:2:0:0:
104,192,129174,1,12,0:0:0:0:
40,72,129340,6,2,P|128:80|168:160,1,180,6|0,0:2|0:0,0:0:0:0:
176,248,129840,1,8,0:0:0:0:
240,312,130007,1,0,0:0:0:0:
328,312,130173,2,2,P|368:304|408:272,1,90,2|2,0:0|0:2,0:0:0:0:
440,152,130507,1,10,0:2:0:0:
320,112,130673,2,2,P|240:128|160:192,1,180,2|0,0:2|0:0,0:0:0:0:
112,264,131173,1,8,0:0:0:0:
0,336,131340,1,0,0:0:0:0:
0,336,131423,1,2,0:2:0:0:
0,336,131506,2,2,L|0:240,1,90,2|2,0:2|0:2,0:0:0:0:
0,147,131840,1,10,0:2:0:0:
0,48,132006,6,2,B|56:88|88:72|120:56|176:96,1,180,2|2,0:2|0:2,0:0:0:0:
144,176,132506,1,8,0:0:0:0:
200,248,132673,1,0,0:0:0:0:
280,288,132839,2,2,P|328:296|368:288,1,90,2|0,0:0|0:0,0:0:0:0:
480,192,133173,1,8,0:0:0:0:
512,48,133339,2,2,B|456:88|424:72|392:56|336:96,1,180,2|0,0:0|0:0,0:0:0:0:
280,160,133839,1,10,0:0:0:0:
208,336,134006,1,0,0:0:0:0:
208,336,134088,1,2,0:2:0:0:
208,336,134172,2,2,P|168:360|120:368,1,90,2|2,0:2|0:2,0:0:0:0:
128,256,134506,1,10,0:2:0:0:
128,144,134672,6,2,P|96:64|8:32,1,180,6|0,0:2|0:0,0:0:0:0:
8,152,135172,1,8,0:0:0:0:
40,240,135339,1,0,0:0:0:0:
128,256,135505,2,0,P|168:280|200:312,2,90,2|2|10,0:0|0:2|0:2,0:0:0:0:
128,256,136005,2,2,P|184:184|264:152,1,180,2|0,0:2|0:0,0:0:0:0:
320,224,136505,1,10,0:2:0:0:
408,240,136672,2,0,P|440:208|464:168,1,90,2|2,0:2|0:0,0:0:0:0:
376,152,137005,2,2,P|398:112|411:67,1,90,2|8,0:2|0:0,0:0:0:0:
256,40,137338,6,2,L|256:224,1,180,2|0,0:2|0:0,0:0:0:0:
256,312,137838,1,8,0:0:0:0:
208,384,138005,1,0,0:0:0:0:
304,384,138171,1,2,0:0:0:0:
256,312,138338,1,0,0:0:0:0:
128,312,138504,1,10,0:2:0:0:
32,216,138671,2,2,P|48:128|112:64,1,180,2|2,0:2|0:0,0:0:0:0:
200,48,139171,1,14,0:0:0:0:
256,184,139337,5,0,0:0:0:0:
264,208,139420,1,0,0:0:0:0:
280,224,139503,1,6,0:2:0:0:
392,264,139671,1,2,0:2:0:0:
408,280,139754,1,0,0:0:0:0:
416,304,139837,1,2,0:0:0:0:
256,320,140004,6,2,L|96:232,1,180,6|0,0:2|0:0,0:0:0:0:
96,144,140504,1,8,0:0:0:0:
160,80,140670,1,0,0:0:0:0:
255,171,140837,2,2,P|304:184|352:184,1,90,2|2,0:0|0:2,0:0:0:0:
432,176,141170,1,10,0:2:0:0:
312,104,141337,2,2,P|256:168|240:264,1,180,2|0,0:2|0:0,0:0:0:0:
248,352,141837,1,8,0:0:0:0:
152,264,142003,1,0,0:0:0:0:
152,264,142087,1,2,0:2:0:0:
152,264,142170,2,2,P|143:218|115:186,1,90,2|2,0:2|0:2,0:0:0:0:
32,152,142503,1,10,0:2:0:0:
32,272,142670,6,2,P|64:352|152:384,1,180,2|2,0:2|0:2,0:0:0:0:
240,384,143170,1,8,0:0:0:0:
320,344,143336,1,0,0:0:0:0:
384,280,143503,2,2,P|424:256|472:248,1,90,2|0,0:0|0:0,0:0:0:0:
496,336,143836,1,8,0:0:0:0:
496,160,144003,2,2,P|456:80|376:40,1,180,2|0,0:0|0:0,0:0:0:0:
288,40,144503,1,10,0:0:0:0:
128,104,144669,1,0,0:0:0:0:
128,104,144753,1,2,0:2:0:0:
128,104,144836,2,2,L|48:152,1,90,2|2,0:2|0:2,0:0:0:0:
64,344,145169,1,10,0:2:0:0:
96,224,145336,6,2,B|176:176|176:176|264:176,1,180,6|0,0:2|0:0,0:0:0:0:
352,176,145836,1,8,0:0:0:0:
440,176,146002,1,0,0:0:0:0:
296,264,146169,2,0,L|200:264,2,90,2|2|10,0:0|0:2|0:2,0:0:0:0:
440,352,146669,2,2,L|256:352,1,180,2|0,0:2|0:0,0:0:0:0:
168,352,147169,1,10,0:2:0:0:
64,264,147335,2,0,P|40:224|40:176,1,90,2|2,0:2|0:0,0:0:0:0:
120,108,147669,2,2,P|144:148|144:196,1,90,2|8,0:2|0:0,0:0:0:0:
256,192,148002,6,2,P|248:104|192:24,1,180,2|0,0:2|0:0,0:0:0:0:
64,128,148501,1,8,0:0:0:0:
92,212,148668,1,0,0:0:0:0:
180,240,148835,1,2,0:0:0:0:
212,320,149001,1,0,0:0:0:0:
300,320,149168,1,10,0:2:0:0:
332,240,149335,2,2,P|396:176|484:160,1,180,2|2,0:2|0:0,0:0:0:0:
464,304,149835,1,14,0:0:0:0:
360,384,150001,5,2,0:2:0:0:
256,256,150168,1,10,0:2:0:0:
256,256,150251,1,0,0:0:0:0:
256,256,150334,1,10,0:2:0:0:
152,384,150501,1,10,0:2:0:0:
48,256,150668,6,0,P|48:160|88:88,1,180,12|0,0:0|0:0,0:0:0:0:
168,48,151168,1,8,0:0:0:0:
400,104,151501,1,0,0:0:0:0:
344,336,151834,1,8,0:0:0:0:
112,176,152001,1,2,0:2:0:0:
72,200,152083,1,0,0:0:0:0:
40,232,152167,2,0,P|32:320|104:368,1,180,2|10,0:2|0:2,0:0:0:0:
202,134,152834,2,0,B|256:64|256:64|312:136,1,180,2|10,0:2|0:2,0:0:0:0:
312,72,153334,6,2,B|256:0|256:0|200:72,1,180,6|2,0:2|0:2,0:0:0:0:
136,152,153833,2,2,L|80:223,1,90,10|0,0:2|0:0,0:0:0:0:
96,351,154167,2,0,L|152:280,2,90,2|2|4,0:0|0:0|0:0,0:0:0:0:
24,296,154667,1,0,0:0:0:0:
24,88,154833,2,0,P|64:64|104:48,1,90,6|0,0:0|0:0,0:0:0:0:
192,56,155166,1,10,0:0:0:0:
248,128,155333,1,0,0:0:0:0:
216,256,155500,5,0,0:0:0:0:
216,256,155583,1,0,0:0:0:0:
216,256,155666,1,2,0:0:0:0:
328,328,155832,1,2,0:2:0:0:
432,240,156000,2,0,L|472:64,1,180,6|0,0:2|0:0,0:0:0:0:
344,240,156499,2,0,L|384:64,1,180,8|0,0:0|0:0,0:0:0:0:
256,240,156999,2,0,L|296:64,1,180,2|2,0:2|0:2,0:0:0:0:
160,64,157499,5,2,0:2:0:0:
48,136,157666,1,2,0:2:0:0:
160,208,157832,1,10,0:2:0:0:
48,272,157999,1,2,0:2:0:0:
208,320,158166,1,2,0:2:0:0:
384,256,158332,1,2,0:2:0:0:
224,160,158499,1,10,0:2:0:0:
400,96,158665,6,0,P|480:128|504:216,1,180,6|0,0:2|0:0,0:0:0:0:
464,296,159165,1,8,0:0:0:0:
464,296,159332,1,0,0:0:0:0:
384,344,159499,2,2,P|336:352|296:344,1,90,2|0,0:0|0:0,0:0:0:0:
216,296,159832,1,2,0:0:0:0:
112,96,159998,1,6,0:0:0:0:
0,242,160164,5,0,0:0:0:0:
4,264,160248,1,0,0:0:0:0:
12,284,160332,1,8,0:3:0:0:
26,301,160415,1,8,0:3:0:0:
43,315,160498,1,4,0:2:0:0:
63,325,160581,1,4,0:3:0:0:
85,331,160665,1,4,0:3:0:0:
224,384,160832,5,6,0:0:0:0:
312,264,160998,1,0,0:0:0:0:
448,200,161165,1,6,0:0:0:0:
312,136,161331,6,2,P|312:40|416:40,1,215.999993408203,4|0,0:0|0:0,0:0:0:0:
312,136,161831,2,2,P|264:160|208:152,1,107.999996704102,8|0,0:0|0:0,0:0:0:0:
136,80,162165,1,0,0:0:0:0:
56,152,162331,1,2,0:2:0:0:
56,264,162498,1,10,0:2:0:0:
216,264,162664,2,2,P|312:296|384:384,1,215.999993408203,2|0,0:2|0:0,0:0:0:0:
383,382,163164,1,8,0:0:0:0:
408,232,163331,1,2,0:2:0:0:
408,232,163414,1,2,0:2:0:0:
408,232,163497,2,2,P|368:200|312:176,1,107.999996704102,2|2,0:2|0:2,0:0:0:0:
192,136,163831,1,10,0:2:0:0:
88,208,163997,6,0,P|128:248|184:264,2,107.999996704102,6|0|2,0:0|0:0|0:2,0:0:0:0:
136,40,164497,2,2,L|240:8,1,107.999996704102,10|0,0:0|0:0,0:0:0:0:
376,144,164830,2,2,L|272:112,1,107.999996704102,2|0,0:0|0:0,0:0:0:0:
136,240,165164,2,2,L|240:272,1,107.999996704102,10|0,0:0|0:0,0:0:0:0:
376,344,165497,2,2,L|272:376,1,107.999996704102,2|0,0:0|0:0,0:0:0:0:
112,376,165830,2,0,L|8:344,2,107.999996704102,10|0|2,0:0|0:0|0:0,0:0:0:0:
239,271,166330,1,2,0:2:0:0:
224,96,166497,1,10,0:2:0:0:
376,32,166663,6,2,P|480:56|504:152,1,215.999993408203,4|0,0:0|0:0,0:0:0:0:
480,256,167163,1,10,0:2:0:0:
376,296,167329,2,2,P|336:264|320:208,1,107.999996704102,2|0,0:2|0:0,0:0:0:0:
136,88,167663,2,2,P|176:120|192:176,1,107.999996704102,2|0,0:2|0:0,0:0:0:0:
144,368,167996,2,2,P|113:326|112:268,1,107.999996704102,2|0,0:2|0:0,0:0:0:0:
464,48,168329,2,2,L|464:160,1,107.999996704102,2|10,0:2|0:2,0:0:0:0:
464,264,168663,1,2,0:2:0:0:
360,336,168829,2,2,L|360:224,1,107.999996704102,2|2,0:2|0:2,0:0:0:0:
360,120,169163,1,10,0:2:0:0:
256,48,169329,6,2,B|192:56|160:96|128:136|64:144,1,215.999993408203,4|2,0:0|0:0,0:0:0:0:
24,264,169829,1,10,0:0:0:0:
24,264,169996,1,0,0:0:0:0:
168,372,170162,1,2,0:0:0:0:
248,200,170329,1,0,0:0:0:0:
392,312,170496,1,10,0:0:0:0:
472,140,170662,2,2,P|440:40|336:8,1,215.999993408203,6|0,0:0|0:0,0:0:0:0:
256,72,171162,2,0,L|168:136,1,107.999996704102,12|0,0:2|0:0,0:0:0:0:
80,72,171495,5,10,0:0:0:0:
80,216,171662,1,14,0:2:0:0:
256,184,171828,1,10,0:0:0:0:
256,328,171995,6,2,P|360:352|464:328,1,215.999993408203,12|0,0:0|0:0,0:0:0:0:
412,232,172495,2,2,P|360:248|308:232,1,107.999996704102,12|0,0:0|0:0,0:0:0:0:
256,136,172828,2,2,P|308:120|360:136,1,107.999996704102,0|2,0:0|0:2,0:0:0:0:
310,233,173161,1,10,0:2:0:0:
200,40,173328,2,2,P|304:16|408:40,1,215.999993408203,2|0,0:2|0:0,0:0:0:0:
464,136,173828,1,8,0:0:0:0:
464,328,173995,1,2,0:2:0:0:
464,328,174078,1,2,0:2:0:0:
464,328,174161,2,2,P|416:360|368:368,1,107.999996704102,2|2,0:2|0:2,0:0:0:0:
256,336,174494,1,10,0:2:0:0:
144,304,174661,6,0,B|40:264|40:264|0:368,1,215.999993408203,6|2,0:0|0:2,0:0:0:0:
40,120,175161,2,2,L|1:19,1,107.999996704102,10|0,0:0|0:0,0:0:0:0:
152,112,175494,2,2,L|112:216,1,107.999996704102,2|0,0:0|0:0,0:0:0:0:
264,120,175827,2,2,L|225:19,1,107.999996704102,10|0,0:0|0:0,0:0:0:0:
376,112,176160,2,2,L|336:216,1,107.999996704102,2|0,0:0|0:0,0:0:0:0:
488,120,176494,2,2,L|449:19,1,107.999996704102,10|0,0:0|0:0,0:0:0:0:
488,232,176827,1,2,0:0:0:0:
432,328,176994,1,2,0:2:0:0:
320,328,177160,1,10,0:2:0:0:
264,176,177327,6,2,P|168:136|64:176,1,215.999993408203,4|2,0:0|0:2,0:0:0:0:
40,280,177827,1,10,0:2:0:0:
120,352,177993,2,0,L|232:328,1,107.999996704102,2|0,0:0|0:0,0:0:0:0:
392,248,178326,2,0,L|280:224,1,107.999996704102,2|0,0:0|0:0,0:0:0:0:
120,136,178660,2,0,L|232:112,1,107.999996704102,2|0,0:0|0:0,0:0:0:0:
392,32,178993,2,2,P|440:56|472:104,1,107.999996704102,2|10,0:2|0:2,0:0:0:0:
496,208,179326,1,2,0:2:0:0:
468,313,179493,2,2,P|438:356|392:384,1,107.999996704102,2|2,0:2|0:2,0:0:0:0:
256,312,179826,1,10,0:2:0:0:
216,112,179993,6,2,P|144:40|40:80,1,215.999993408203,4|0,0:0|0:0,0:0:0:0:
0,192,180493,2,0,L|104:232,1,107.999996704102,8|2,0:0|0:0,0:0:0:0:
201,270,180826,2,2,L|101:231,1,107.999996704102,0|2,0:2|0:2,0:0:0:0:
304,308,181159,5,10,0:2:0:0:
376,128,181325,1,2,0:0:0:0:
320,280,181492,1,0,0:2:0:0:
464,192,181659,1,2,0:0:0:0:
256,112,181826,1,0,0:0:0:0:
400,24,181992,2,0,L|400:136,1,107.999996704102,2|0,0:2|0:0,0:0:0:0:
400,344,182325,1,2,0:2:0:0:
420,304,182408,1,8,0:0:0:0:
440,264,182492,1,0,0:0:0:0:
304,200,182659,6,0,L|88:200,1,215.999993408203,4|0,0:0|0:0,0:0:0:0:
0,264,183159,1,8,0:0:0:0:
16,368,183325,1,0,0:0:0:0:
176,384,183492,2,0,P|230:369|270:333,1,107.999996704102,2|2,0:2|0:2,0:0:0:0:
376,304,183825,1,10,0:2:0:0:
480,328,183991,1,2,0:2:0:0:
344,80,184325,1,2,0:2:0:0:
168,304,184658,1,2,0:2:0:0:
32,56,184992,1,2,0:2:0:0:
136,96,185158,1,10,0:2:0:0:
240,56,185325,6,2,P|328:32|416:56,1,180,4|0,0:0|0:0,0:0:0:0:
456,151,185825,2,0,P|411:159|367:151,2,90,10|0|2,0:0|0:0|0:0,0:0:0:0:
416,280,186324,1,2,0:2:0:0:
304,352,186491,1,10,0:0:0:0:
168,352,186657,2,2,P|88:304|64:224,1,180,2|2,1:2|0:2,0:0:0:0:
208,272,187157,2,2,L|152:200,1,90,10|2,0:2|0:2,0:0:0:0:
272,160,187491,1,2,0:0:0:0:
272,160,187656,1,6,0:2:0:0:
376,80,187823,1,10,0:0:0:0:
376,80,187906,1,2,0:2:0:0:
376,80,187990,6,2,B|448:24,1,90,6|2,0:0|0:2,0:0:0:0:
488,16,188241,1,2,0:2:0:0:
501,53,188324,1,2,0:2:0:0:
501,93,188407,1,2,0:2:0:0:
486,130,188490,1,2,0:2:0:0:
457,159,188574,1,2,0:2:0:0:
420,176,188657,1,2,0:2:0:0:
381,179,188740,1,2,0:2:0:0:
342,165,188824,5,2,0:0:0:0:
321,200,188907,1,2,0:2:0:0:
313,239,188990,1,2,0:2:0:0:
321,279,189073,1,2,0:2:0:0:
343,313,189157,5,2,0:0:0:0:
306,328,189240,1,2,0:2:0:0:
267,320,189323,1,2,0:0:0:0:
238,292,189406,1,2,0:2:0:0:
224,248,189490,6,2,L|188:219,3,45,2|2|2|2,0:2|0:2|0:2|0:2,0:0:0:0:
199,116,189823,2,0,L|235:145,3,45,2|2|2|2,0:2|0:2|0:2|0:2,0:0:0:0:
115,149,190157,2,0,L|79:120,3,45,2|2|2|2,0:0|0:2|0:2|0:2,0:0:0:0:
71,228,190490,2,0,L|106:256,1,45,2|2,0:0|0:2,0:0:0:0:
172,312,190657,5,6,0:0:0:0:
209,336,190740,1,2,0:2:0:0:
248,358,190823,1,2,0:2:0:0:
290,374,190906,1,2,0:2:0:0:
335,381,190990,5,2,0:2:0:0:
379,377,191073,1,2,0:2:0:0:
421,360,191156,1,2,0:2:0:0:
455,331,191240,1,2,0:2:0:0:
478,292,191323,1,2,0:2:0:0:
485,248,191406,5,2,0:2:0:0:
478,204,191490,1,2,0:0:0:0:
458,164,191573,1,2,0:2:0:0:
429,129,191656,1,2,0:2:0:0:
392,103,191740,1,2,0:2:0:0:
352,84,191823,1,2,0:2:0:0:
308,72,191906,1,2,0:0:0:0:
264,64,191990,6,2,B|176:88|176:88|87:80,1,180,6|2,0:0|0:2,0:0:0:0:
201,175,192489,2,2,L|288:152,2,90,14|0|6,0:2|0:0|0:0,0:0:0:0:
38,224,192989,5,2,0:0:0:0:
32,256,193073,1,2,0:2:0:0:
32,282,193156,1,6,0:2:0:0:
40,308,193239,1,2,0:2:0:0:
56,329,193322,1,0,0:0:0:0:
79,344,193406,1,0,0:0:0:0:
104,352,193489,5,2,0:2:0:0:
137,329,193572,1,2,0:2:0:0:
175,317,193655,1,2,0:2:0:0:
215,316,193738,1,2,0:2:0:0:
255,324,193822,1,0,0:0:0:0:
291,340,193905,1,0,0:0:0:0:
324,365,193989,5,2,0:2:0:0:
360,347,194072,1,2,0:2:0:0:
389,320,194155,1,2,0:2:0:0:
412,287,194238,1,2,0:2:0:0:
425,249,194322,1,2,0:2:0:0:
427,209,194405,1,0,0:0:0:0:
417,168,194489,5,2,0:2:0:0:
376,170,194572,1,2,0:2:0:0:
337,161,194655,1,2,0:2:0:0:
301,143,194738,1,2,0:2:0:0:
272,116,194822,1,0,0:0:0:0:
249,84,194905,1,0,0:0:0:0:
235,43,194989,5,2,0:2:0:0:
195,41,195072,1,2,0:2:0:0:
156,50,195155,1,2,0:2:0:0:
120,68,195238,1,2,0:2:0:0:
90,95,195322,1,0,0:0:0:0:
68,128,195405,1,0,0:0:0:0:
48,168,195489,6,0,P|40:192|40:216,3,45,2|2|0|2,0:2|0:2|0:2|0:2,0:0:0:0:
112,248,195822,2,0,P|120:224|120:200,3,45,2|2|0|0,0:2|0:2|0:0|0:0,0:0:0:0:
192,168,196155,6,0,P|216:168|234:178,1,45,0|0,0:0|0:2,0:0:0:0:
296,216,196322,2,0,P|300:264|324:300,1,90,10|0,2:0|0:2,0:0:0:0:
352,272,196572,1,0,0:0:0:0:
376,240,196655,2,0,P|416:260|460:260,1,90,10|0,2:0|0:2,0:0:0:0:
456,220,196905,1,0,0:0:0:0:
440,184,196988,2,0,P|476:160|500:120,1,90,10|0,2:0|0:2,0:0:0:0:
468,96,197238,1,0,0:0:0:0:
428,104,197322,2,0,P|392:124|344:124,1,90,10|0,2:0|0:2,0:0:0:0:
296,88,197571,1,0,0:0:0:0:
264,40,197655,2,0,P|220:20|176:20,1,90,10|0,2:0|0:2,0:0:0:0:
120,48,197905,1,0,0:0:0:0:
80,96,197988,2,0,P|64:116|56:140,3,45,10|2|2|0,0:2|0:2|0:2|0:0,0:0:0:0:
128,160,198321,2,2,P|164:188|180:228,1,90,2|10,0:2|0:2,0:0:0:0:
48,272,198654,5,12,0:0:0:0:
48,272,198821,1,10,0:2:0:0:
160,336,198988,1,10,0:0:0:0:
160,208,199154,1,0,0:0:0:0:
336,336,199321,1,10,0:2:0:0:
448,272,199488,1,10,0:0:0:0:
336,208,199654,1,0,0:0:0:0:
336,208,199821,5,10,0:2:0:0:
448,144,199988,1,2,0:0:0:0:
336,80,200154,1,8,0:0:0:0:
160,144,200321,1,2,0:0:0:0:
48,80,200488,1,10,0:2:0:0:
48,208,200654,1,8,0:0:0:0:
264,312,200820,2,2,P|304:296|352:296,1,90,10|10,0:0|0:2,0:0:0:0:
376,184,201154,1,6,0:2:0:0:
400,72,201320,6,2,P|472:120|488:208,1,180,4|0,0:0|0:0,0:0:0:0:
412,292,201820,1,10,0:2:0:0:
288,376,201987,2,0,L|200:344,1,90,2|2,0:2|0:0,0:0:0:0:
43,145,202320,2,0,L|128:176,1,90,2|8,0:2|0:0,0:0:0:0:
312,192,202653,2,2,P|400:176|480:128,1,180,2|2,0:2|0:2,0:0:0:0:
408,72,203153,2,2,P|368:96|320:104,1,90,10|0,0:2|0:0,0:0:0:0:
240,88,203486,1,2,0:0:0:0:
152,72,203653,2,0,P|109:79|69:103,1,90,2|8,0:0|0:0,0:0:0:0:
56,312,203986,6,2,P|139:360|227:368,1,180,6|2,0:0|0:0,0:0:0:0:
259,368,204403,1,2,0:0:0:0:
293,358,204486,1,0,0:0:0:0:
326,343,204569,1,2,0:0:0:0:
356,323,204652,1,0,0:0:0:0:
383,299,204736,1,2,0:0:0:0:
405,271,204819,5,2,0:0:0:0:
405,271,204903,1,2,0:0:0:0:
405,271,204986,2,0,L|427:232,1,45,0|2,0:0|0:0,0:0:0:0:
320,232,205153,1,0,0:0:0:0:
320,232,205235,1,2,0:0:0:0:
320,232,205320,2,0,L|298:193,1,45,0|2,0:0|0:0,0:0:0:0:
312,88,205486,5,2,0:0:0:0:
312,88,205570,1,2,0:0:0:0:
312,88,205653,2,0,L|299:44,1,45,0|2,0:0|0:0,0:0:0:0:
224,120,205818,1,0,0:0:0:0:
224,120,205903,1,2,0:0:0:0:
224,120,205985,2,0,L|178:107,1,45,0|2,0:0|0:0,0:0:0:0:
120,24,206152,5,2,0:0:0:0:
120,24,206236,1,2,0:0:0:0:
120,24,206319,2,0,L|81:2,1,45,0|2,0:0|0:0,0:0:0:0:
81,109,206486,1,0,0:0:0:0:
81,109,206568,1,2,0:0:0:0:
81,109,206653,2,0,L|42:131,1,45,0|2,0:0|0:0,0:0:0:0:
124,176,206819,6,0,L|184:248,1,90,12|2,0:0|0:0,0:0:0:0:
284,316,207069,2,0,L|226:246,1,90,10|0,0:0|0:0,0:0:0:0:
216,176,207319,2,0,L|276:248,1,90,8|2,0:0|0:0,0:0:0:0:
376,316,207569,2,0,L|318:246,1,90,10|0,0:0|0:0,0:0:0:0:
312,176,207818,2,0,L|372:248,1,90,8|2,0:0|0:0,0:0:0:0:
472,316,208068,2,0,L|414:246,1,90,10|2,0:0|0:0,0:0:0:0:
416,200,208318,6,0,L|473:130,1,90,10|2,0:0|0:0,0:0:0:0:
472,96,208568,1,2,0:0:0:0:
455,64,208651,1,2,0:0:0:0:
427,41,208734,1,2,0:0:0:0:
393,32,208817,1,0,0:0:0:0:
358,37,208901,1,2,0:0:0:0:
327,56,208984,1,6,0:0:0:0:
307,85,209067,1,2,0:0:0:0:
296,120,209151,1,2,0:0:0:0:
275,149,209234,1,2,0:0:0:0:
245,168,209317,1,2,0:0:0:0:
210,173,209401,1,2,0:0:0:0:
176,160,209485,6,2,B|96:120|96:120|72:32,1,180,6|10,0:0|0:0,0:0:0:0:
0,88,209985,2,2,B|24:176|24:176|104:216,1,180,0|0,0:0|0:0,0:0:0:0:
184,256,210484,1,0,0:0:0:0:
252,316,210651,1,2,0:0:0:0:
336,280,210818,2,2,P|400:264|464:288,1,135,0|0,0:0|0:0,0:0:0:0:
456,152,211318,2,2,P|384:112|376:16,1,180,2|0,0:0|0:0,0:0:0:0:
456,60,211817,1,10,0:0:0:0:
400,224,211984,5,2,0:0:0:0:
400,224,212067,1,2,0:0:0:0:
400,224,212151,2,2,P|328:280|240:272,1,180,6|10,0:0|0:0,0:0:0:0:
99,233,212650,2,0,P|171:177|256:184,1,180,0|2,0:0|0:0,0:0:0:0:
288,200,213067,1,2,0:0:0:0:
323,201,213150,1,0,0:0:0:0:
354,184,213233,1,0,0:0:0:0:
372,152,213317,2,2,P|344:64|272:16,1,180,2|0,0:0|0:0,0:0:0:0:
228,20,213734,1,0,0:0:0:0:
192,48,213817,2,2,L|200:144,1,90,14|0,0:0|0:0,0:0:0:0:
96,152,214150,2,0,L|104:248,2,90,6|2|12,0:0|0:0|0:0,0:0:0:0:
16,80,214650,5,10,0:0:0:0:
16,80,214817,1,10,0:0:0:0:
16,248,214983,1,10,0:0:0:0:
16,248,215150,1,10,0:0:0:0:
176,304,215316,1,10,0:0:0:0:
176,304,215483,1,10,0:0:0:0:
176,136,215649,1,10,0:0:0:0:
176,136,215816,1,10,0:0:0:0:
336,136,215983,1,10,0:0:0:0:
336,136,216150,1,10,0:0:0:0:
336,304,216316,1,10,0:0:0:0:
336,304,216483,1,10,0:0:0:0:
496,248,216649,1,10,0:0:0:0:
496,248,216816,1,10,0:0:0:0:
496,80,216982,1,10,0:0:0:0:
496,80,217149,1,10,0:0:0:0:
336,136,217316,6,2,P|248:141|179:86,1,180,6|0,0:0|0:0,0:0:0:0:
1,242,217816,2,0,L|6:331,1,90,10|0,0:0|0:0,0:0:0:0:
167,255,218149,2,2,L|241:205,1,90
96,104,218482,2,2,L|16:64,1,90,10|0,0:0|0:0,0:0:0:0:
88,196,218815,1,2,0:0:0:0:
152,320,218982,1,2,0:0:0:0:
144,344,219065,1,2,0:0:0:0:
136,368,219149,1,2,0:0:0:0:
280,360,219315,1,2,0:0:0:0:
272,336,219398,1,2,0:0:0:0:
264,312,219482,1,2,0:0:0:0:
360,176,219649,1,6,0:0:0:0:
368,200,219732,1,2,0:0:0:0:
376,224,219815,1,0,0:0:0:0:
384,248,219898,1,2,0:0:0:0:
392,272,219981,1,4,0:0:0:0:
400,296,220065,1,2,0:0:0:0:
408,320,220148,6,2,L|478:154,1,180,6|8,0:0|0:0,0:0:0:0:
430,34,220648,2,2,L|360:200,1,180,2|0,0:0|0:0,0:0:0:0:
336,224,221065,1,2,0:0:0:0:
304,232,221148,2,0,P|256:232|216:216,1,90,10|2,0:0|0:0,0:0:0:0:
96,104,221481,2,2,P|160:64|264:56,1,180,0|10,0:0|0:0,0:0:0:0:
217,216,221981,2,2,P|153:256|49:264,1,180,0|0,0:0|0:0,0:0:0:0:
120,352,222481,2,0,P|168:344|208:328,1,90,8|6,0:0|0:0,0:0:0:0:
308,280,222814,6,2,P|400:272|464:336,1,180,6|8,0:0|0:0,0:0:0:0:
504,176,223314,2,2,P|412:184|348:120,1,180,2|0,0:0|0:0,0:0:0:0:
328,40,223814,1,8,0:0:0:0:
184,40,223981,1,6,0:0:0:0:
88,144,224147,1,4,0:2:0:0:
98,173,224230,1,2,0:0:0:0:
112,201,224313,1,0,0:0:0:0:
130,227,224396,1,2,0:0:0:0:
152,249,224480,1,12,0:2:0:0:
256,192,224647,1,0,0:2:0:0:
256,344,224814,5,2,0:0:0:0:
408,296,224980,1,6,0:2:0:0:
464,144,225147,1,6,0:2:0:0:
328,56,225314,6,2,P|216:40|120:72,1,215.999993408203,4|0,0:0|0:0,0:0:0:0:
16,80,225813,2,2,P|72:88|120:72,1,107.999996704102,8|0,0:0|0:0,0:0:0:0:
256,108,226147,1,0,0:0:0:0:
340,192,226313,1,2,0:2:0:0:
256,276,226480,1,10,0:2:0:0:
172,192,226647,2,2,P|64:216|0:296,1,215.999993408203,2|0,0:2|0:0,0:0:0:0:
64,384,227146,1,8,0:0:0:0:
200,344,227312,1,0,0:0:0:0:
200,344,227396,1,2,0:2:0:0:
200,344,227480,2,2,P|256:336|312:344,1,107.999996704102,2|2,0:2|0:2,0:0:0:0:
408,376,227813,1,10,0:2:0:0:
384,272,227980,6,0,P|376:216|382:165,2,107.999996704102,6|0|2,0:0|0:0|0:2,0:0:0:0:
488,168,228479,2,2,P|472:112|432:72,1,107.999996704102,10|0,0:0|0:0,0:0:0:0:
321,76,228813,2,2,P|288:112|272:168,1,107.999996704102,2|0,0:0|0:0,0:0:0:0:
256,284,229146,2,2,P|240:340|206:375,1,107.999996704102,10|0,0:0|0:0,0:0:0:0:
89,375,229480,2,2,P|56:340|40:284,1,107.999996704102,2|0,0:0|0:0,0:0:0:0:
148,176,229812,2,0,L|148:284,2,107.999996704102,10|0|2,0:0|0:0|0:0,0:0:0:0:
256,56,230312,1,2,0:2:0:0:
416,56,230479,1,10,0:2:0:0:
504,192,230645,6,2,P|472:296|376:344,1,215.999993408203,4|0,0:0|0:0,0:0:0:0:
272,344,231145,1,10,0:2:0:0:
160,344,231312,2,0,L|112:248,1,107.999996704102,2|0,0:0|0:0,0:0:0:0:
360,192,231645,2,0,L|408:96,1,107.999996704102,2|0,0:0|0:0,0:0:0:0:
160,40,231978,2,0,L|112:136,1,107.999996704102,2|0,0:0|0:0,0:0:0:0:
360,192,232312,2,2,L|472:192,1,107.999996704102,2|10,0:2|0:2,0:0:0:0:
468,192,232645,1,2,0:2:0:0:
360,304,232812,2,2,L|248:304,1,107.999996704102,2|2,0:2|0:2,0:0:0:0:
252,304,233145,1,10,0:2:0:0:
88,304,233311,6,2,P|24:216|24:112,1,215.999993408203,4|2,0:0|0:0,0:0:0:0:
88,24,233811,1,10,0:0:0:0:
88,24,233978,1,0,0:0:0:0:
168,164,234145,1,2,0:0:0:0:
168,164,234311,1,0,0:0:0:0:
248,24,234478,1,10,0:0:0:0:
408,24,234644,2,2,P|480:112|440:192,1,215.999993408203,6|0,0:0|0:0,0:0:0:0:
344,248,235144,2,0,P|304:288|288:336,1,107.999996704102,12|0,0:2|0:0,0:0:0:0:
392,344,235477,5,10,0:0:0:0:
256,192,235644,1,14,0:2:0:0:
120,40,235811,1,10,0:0:0:0:
260,36,235977,6,2,L|116:196,1,215.999993408203,12|0,0:0|0:0,0:0:0:0:
120,352,236477,2,2,L|192:272,1,107.999996704102,12|0,0:0|0:0,0:0:0:0:
336,112,236810,2,2,L|264:192,1,107.999996704102,0|2,0:0|0:2,0:0:0:0:
296,296,237144,1,10,0:2:0:0:
456,336,237310,2,2,B|512:240|512:240|496:136,1,215.999993408203,2|0,0:2|0:0,0:0:0:0:
472,32,237810,1,8,0:0:0:0:
312,32,237977,1,2,0:2:0:0:
312,32,238060,1,2,0:2:0:0:
312,32,238143,2,2,L|200:32,1,107.999996704102,2|2,0:2|0:2,0:0:0:0:
96,64,238477,1,10,0:2:0:0:
0,192,238643,6,0,P|80:272|184:272,1,215.999993408203,6|2,0:0|0:2,0:0:0:0:
232,168,239143,2,2,L|192:64,1,107.999996704102,10|0,0:0|0:0,0:0:0:0:
323,69,239476,2,2,L|280:168,1,107.999996704102,2|0,0:0|0:0,0:0:0:0:
312,200,239810,2,2,L|416:160,1,107.999996704102,10|0,0:0|0:0,0:0:0:0:
418,264,240143,2,2,L|312:248,1,107.999996704102,2|0,0:0|0:0,0:0:0:0:
288,296,240476,2,2,L|374:366,1,107.999996704102,10|0,0:0|0:0,0:0:0:0:
216,376,240809,1,2,0:0:0:0:
136,240,240976,1,2,0:2:0:0:
296,240,241143,1,10,0:2:0:0:
216,376,241309,6,2,P|104:352|32:280,1,215.999993408203,4|2,0:0|0:2,0:0:0:0:
32,176,241809,1,10,0:2:0:0:
112,104,241975,2,0,B|160:104|160:124|160:144|208:144,1,107.999996704102,2|0,0:0|0:0,0:0:0:0:
256,352,242309,2,0,B|232:310|249:300|266:290|240:248,1,107.999996704102,2|0,0:0|0:0,0:0:0:0:
400,104,242642,2,0,B|376:145|358:135|341:125|317:167,1,107.999996704102,2|0,0:0|0:0,0:0:0:0:
112,320,242975,2,2,L|168:223,1,107.999996704102,2|10,0:2|0:2,0:0:0:0:
220,132,243309,1,2,0:2:0:0:
472,56,243475,2,2,L|416:152,1,107.999996704102,2|2,0:2|0:2,0:0:0:0:
364,243,243809,1,10,0:2:0:0:
148,244,243975,6,2,P|104:144|8:96,1,215.999993408203,4|0,0:0|0:0,0:0:0:0:
40,256,244475,2,0,P|64:312|104:344,1,107.999996704102,8|2,0:0|0:0,0:0:0:0:
248,288,244808,2,2,P|255:227|236:179,1,107.999996704102,0|2,0:2|0:2,0:0:0:0:
208,40,245141,5,14,0:2:0:0:
256,48,245225,1,2,0:0:0:0:
304,40,245308,2,2,P|400:72|432:176,1,215.999993408203,6|2,0:0|0:0,0:0:0:0:
385,186,245725,1,2,0:0:0:0:
342,208,245808,1,8,0:0:0:0:
304,239,245891,1,2,0:0:0:0:
273,276,245975,1,0,0:0:0:0:
250,319,246058,1,2,0:0:0:0:
240,368,246141,5,2,0:2:0:0:
80,320,246308,1,8,0:3:0:0:
200,208,246474,1,4,0:3:0:0:
44,160,246641,6,2,P|72:56|168:16,1,215.999993408203,4|2,0:0|0:0,0:0:0:0:
212,44,247058,1,2,0:0:0:0:
264,56,247141,2,2,P|320:64|376:56,1,107.999996704102,10|2,0:0|0:0,0:0:0:0:
464,192,247474,1,2,0:0:0:0:
320,240,247641,1,2,0:2:0:0:
280,384,247807,1,10,0:2:0:0:
320,240,247974,2,2,P|272:152|160:136,1,215.999993408203,2|0,0:2|0:0,0:0:0:0:
112,152,248391,1,2,0:0:0:0:
64,176,248474,1,10,0:0:0:0:
64,304,248640,1,2,0:0:0:0:
112,328,248724,1,2,0:2:0:0:
160,352,248807,2,2,P|216:360|272:352,1,107.999996704102,2|2,0:2|0:2,0:0:0:0:
368,320,249140,1,10,0:2:0:0:
440,176,249307,6,0,P|448:120|432:72,2,107.999996704102,6|0|2,0:0|0:0|0:2,0:0:0:0:
256,168,249807,2,2,L|144:160,1,107.999996704102,10|0,0:0|0:0,0:0:0:0:
256,216,250140,2,2,L|368:224,1,107.999996704102,2|0,0:0|0:0,0:0:0:0:
208,120,250473,2,2,L|101:83,1,107.999996704102,10|0,0:0|0:0,0:0:0:0:
304,264,250807,2,2,L|410:300,1,107.999996704102,2|0,0:0|0:0,0:0:0:0:
160,72,251140,2,0,L|67:9,2,107.999996704102,10|0|2,0:0|0:0|0:0,0:0:0:0:
272,64,251640,1,2,0:2:0:0:
328,64,251723,1,2,0:0:0:0:
384,72,251806,1,10,0:2:0:0:
432,240,251973,6,2,P|352:312|248:328,1,215.999993408203,4|2,0:0|0:2,0:0:0:0:
196,316,252389,1,2,0:0:0:0:
144,296,252473,1,10,0:2:0:0:
104,260,252555,1,2,0:0:0:0:
72,216,252639,2,0,P|56:192|48:168,3,53.9999983520508,2|2|0|2,0:2|0:0|0:0|0:0,0:0:0:0:
128,152,252973,2,0,P|156:150|181:155,3,53.9999983520508,2|2|8|2,0:2|0:0|0:0|0:0,0:0:0:0:
232,176,253305,1,2,0:2:0:0:
284,189,253388,1,2,0:0:0:0:
338,194,253472,1,0,0:0:0:0:
391,192,253556,1,2,0:0:0:0:
440,216,253639,2,0,P|464:264|464:320,1,107.999996704102,2|10,0:0|0:2,0:0:0:0:
360,288,253972,1,2,0:2:0:0:
280,360,254139,2,2,P|256:312|256:256,1,107.999996704102,2|2,0:2|0:0,0:0:0:0:
360,288,254472,1,10,0:2:0:0:
280,360,254639,6,2,L|64:360,1,215.999993408203,4|2,0:0|0:0,0:0:0:0:
0,272,255139,1,10,0:0:0:0:
28,224,255222,1,2,0:0:0:0:
64,184,255305,1,0,0:0:0:0:
172,112,255472,1,2,0:2:0:0:
320,80,255639,1,2,0:2:0:0:
492,80,255805,1,10,0:2:0:0:
492,304,255972,2,2,P|384:288|296:224,1,215.999993408203,0|2,0:0|0:0,0:0:0:0:
136,352,256472,2,0,P|184:344|232:312,1,107.999996704102,14|2,0:0|0:0,0:0:0:0:
344,128,256805,5,14,0:2:0:0:
256,32,256972,1,10,0:2:0:0:
128,32,257138,1,10,0:0:0:0:
40,128,257305,6,2,P|8:232|37:331,1,215.999993408203,12|0,0:0|0:0,0:0:0:0:
244,288,257805,2,2,P|260:236|244:184,1,107.999996704102,8|0,0:0|0:0,0:0:0:0:
136,184,258138,2,2,P|120:236|134:285,1,107.999996704102,6|2,0:2|0:2,0:0:0:0:
340,336,258471,1,10,0:2:0:0:
340,336,258638,2,2,P|372:232|342:132,1,215.999993408203,2|0,0:2|0:0,0:0:0:0:
256,64,259138,1,10,0:2:0:0:
424,64,259304,1,2,0:2:0:0:
424,64,259388,1,2,0:2:0:0:
424,64,259471,2,2,P|472:80|504:128,1,107.999996704102,2|2,0:2|0:2,0:0:0:0:
503,258,259804,1,10,0:2:0:0:
432,368,259971,6,0,P|344:304|240:304,1,215.999993408203,2|2,0:2|0:2,0:0:0:0:
136,344,260471,2,0,L|96:240,1,107.999996704102,8|0,0:0|0:0,0:0:0:0:
136,40,260804,2,0,L|97:140,2,107.999996704102,0|2|10,0:0|0:0|0:0,0:0:0:0:
208,240,261304,2,0,L|246:340,2,107.999996704102,0|2|2,0:0|0:0|0:0,0:0:0:0:
208,144,261804,2,0,L|246:43,2,107.999996704102,10|0|2,0:0|0:0|0:0,0:0:0:0:
292,192,262303,1,2,0:0:0:0:
400,128,262470,1,10,0:0:0:0:
400,256,262637,2,2,P|352:336|272:368,1,180,4|2,0:0|0:0,0:0:0:0:
184,360,263136,1,10,0:0:0:0:
104,312,263302,5,2,2:0:0:0:
368,192,263635,1,2,2:0:0:0:
104,72,263969,1,2,2:0:0:0:
368,192,264302,1,2,2:0:0:0:
304,280,264469,2,0,P|272:312|224:320,1,90,10|2,2:0|0:2,1:1:0:0:
128,256,264802,1,2,0:2:0:0:
104,144,264968,1,2,0:2:0:0:
168,48,265136,5,10,0:0:0:0:
168,48,265303,2,2,P|256:32|344:48,1,180,4|0,0:0|0:0,0:0:0:0:
212,128,265802,2,2,P|256:120|300:128,1,90,8|0,0:0|0:0,0:0:0:0:
256,208,266136,1,4,0:0:0:0:
296,288,266302,1,4,0:3:0:0:
176,248,266469,1,12,0:0:0:0:
336,168,266635,1,2,0:2:0:0:
96,88,266969,1,6,0:2:0:0:
416,328,267302,1,6,0:2:0:0:
368,56,267635,1,2,0:2:0:0:
288,96,267802,1,14,0:2:0:0:
208,56,267968,6,2,P|120:32|32:56,1,180,4|0,0:0|0:0,0:0:0:0:
72,136,268468,2,2,L|112:224,1,90,8|0,0:0|0:0,0:0:0:0:
114,377,268802,1,2,0:2:0:0:
152,296,268968,1,2,0:0:0:0:
232,256,269135,1,10,0:2:0:0:
312,296,269301,1,2,0:2:0:0:
352,8,269635,1,2,0:2:0:0:
352,376,269968,1,2,0:2:0:0:
440,8,270301,2,2,L|464:96,1,90,2|10,0:2|0:2,0:0:0:0:
463,289,270634,6,2,P|376:264|312:200,1,180,4|0,0:0|0:0,0:0:0:0:
256,136,271134,2,2,P|224:105|181:92,1,90,8|0,0:0|0:0,0:0:0:0:
176,184,271467,2,2,P|133:173|89:184,1,90,2|0,0:2|0:0,0:0:0:0:
132,264,271801,2,2,P|90:275|57:307,1,90,8|2,0:0|0:2,0:0:0:0:
132,356,272134,2,2,P|173:344|206:312,1,90,0|2,0:0|0:2,0:0:0:0:
286,180,272467,2,2,P|244:192|212:224,1,90,8|2,0:0|0:2,0:0:0:0:
288,272,272800,1,2,0:0:0:0:
408,336,272967,1,6,0:2:0:0:
472,216,273134,1,10,0:2:0:0:
408,96,273300,6,2,P|328:48|240:48,1,180,4|0,0:0|0:0,0:0:0:0:
160,80,273800,2,2,P|112:72|80:48,1,90,8|0,0:0|0:0,0:0:0:0:
24,168,274133,1,2,0:2:0:0:
64,248,274300,1,2,0:0:0:0:
24,328,274467,1,10,0:2:0:0:
152,248,274633,2,2,B|200:224|240:248|280:272|328:248,1,180,2|2,0:2|0:2,0:0:0:0:
327,248,275050,1,0,0:0:0:0:
327,248,275133,1,0,0:0:0:0:
504,344,275300,2,2,B|456:368|416:344|376:320|328:344,1,180,6|2,0:2|0:2,0:0:0:0:
240,368,275800,1,10,0:2:0:0:
464,168,275966,6,2,B|424:88|424:88|336:48,1,180,6|0,0:2|0:0,0:0:0:0:
176,48,276466,2,0,L|258:85,1,90,8|0,0:0|0:0,0:0:0:0:
336,336,276799,2,0,L|253:298,1,90,0|0,0:0|0:0,0:0:0:0:
136,128,277132,2,0,L|218:165,1,90,8|0,0:0|0:0,0:0:0:0:
376,256,277466,2,0,L|293:218,1,90,0|0,0:0|0:0,0:0:0:0:
96,208,277799,2,0,L|178:245,1,90,8|0,0:0|0:0,0:0:0:0:
416,176,278132,1,0,0:0:0:0:
376,56,278299,1,0,0:0:0:0:
256,96,278466,1,8,0:0:0:0:
136,56,278632,6,0,P|48:72|0:144,1,180,4|0,0:0|0:0,0:0:0:0:
24,232,279132,2,0,L|112:264,1,90,8|0,0:0|0:0,0:0:0:0:
320,296,279465,2,0,L|235:265,1,90,0|0,0:0|0:0,0:0:0:0:
108,262,279799,2,0,L|72:352,1,90,8|0,0:0|0:0,0:0:0:0:
235,265,280132,2,0,L|271:175,1,90,0|0,0:0|0:0,0:0:0:0:
328,112,280465,2,0,P|368:88|416:88,1,90,8|0,0:0|0:0,0:0:0:0:
408,224,280798,1,0,0:0:0:0:
240,96,280964,1,0,0:0:0:0:
72,224,281131,1,8,0:0:0:0:
240,352,281298,6,0,P|336:344|424:328,1,180,4|0,0:0|0:0,0:0:0:0:
492,224,281798,2,0,P|448:232|400:236,1,90,8|0,0:0|0:0,0:0:0:0:
448,72,282131,2,0,P|422:108|393:143,1,90,0|0,0:0|0:0,0:0:0:0:
312,0,282464,2,0,P|320:44|323:89,1,90,8|0,0:0|0:0,0:0:0:0:
176,24,282798,2,0,P|204:58|230:95,1,90,0|0,0:0|0:0,0:0:0:0:
76,112,283131,2,0,P|118:127|159:146,1,90,8|0,0:0|0:0,0:0:0:0:
28,240,283464,1,0,0:0:0:0:
208,224,283631,1,0,0:2:0:0:
128,320,283797,1,8,0:0:0:0:
308,304,283964,6,0,P|360:232|448:200,1,180,4|0,0:0|0:0,0:0:0:0:
448,336,284464,2,0,L|364:372,1,90,8|0,0:0|0:0,0:0:0:0:
184,344,284797,2,0,L|266:379,1,90,0|0,0:0|0:0,0:0:0:0:
360,264,285130,2,0,L|276:300,1,90,8|0,0:0|0:0,0:0:0:0:
96,272,285463,2,0,L|178:307,1,90,0|0,0:0|0:0,0:0:0:0:
272,192,285797,2,0,L|188:228,1,90,12|0,0:0|0:0,0:0:0:0:
8,200,286130,1,8,0:0:0:0:
128,152,286297,1,12,0:2:0:0:
248,104,286463,1,8,0:0:0:0:
368,56,286630,6,4,P|408:56|456:80,1,90,12|8,0:0|0:3,0:0:0:0:
484,108,286880,1,0,0:0:0:0:
496,150,286963,1,4,0:0:0:0:
483,193,287046,1,0,0:0:0:0:
452,224,287130,2,0,P|407:245|367:245,1,90,12|0,0:2|0:0,0:0:0:0:
256,355,287463,2,0,P|260:306|280:272,1,90,0|0,0:0|0:0,0:0:0:0:
240,120,287797,2,0,P|280:147|300:182,1,90,8|0,0:0|0:0,0:0:0:0:
256,355,288130,2,0,P|215:327|195:292,1,90,0|0,0:0|0:0,0:0:0:0:
44,253,288463,2,0,P|88:231|128:231,1,90,8|0,0:0|0:0,0:0:0:0:
240,120,288796,1,0,0:0:0:0:
328,16,288963,1,0,0:0:0:0:
152,16,289129,1,8,0:0:0:0:
328,16,289296,6,0,P|416:32|496:80,1,180,4|0,0:0|0:0,0:0:0:0:
428,140,289796,2,0,P|384:112|344:104,1,90,8|0,0:0|0:0,0:0:0:0:
84,140,290129,2,0,P|128:112|168:104,1,90,0|0,0:0|0:0,0:0:0:0:
384,240,290462,2,0,P|340:212|300:204,1,90,8|0,0:0|0:0,0:0:0:0:
128,240,290795,2,0,P|172:212|212:204,1,90,0|0,0:0|0:0,0:0:0:0:
300,348,291129,2,0,P|256:340|212:348,1,90,8|0,0:0|0:0,0:0:0:0:
76,368,291462,1,0,0:0:0:0:
128,240,291629,1,0,0:0:0:0:
76,112,291795,1,8,0:0:0:0:
200,64,291962,6,0,P|280:96|376:80,1,180,4|0,0:0|0:0,0:0:0:0:
408,168,292462,2,0,L|320:200,1,90,8|0,0:0|0:0,0:0:0:0:
416,256,292795,2,0,L|328:288,1,90,0|0,0:0|0:0,0:0:0:0:
424,344,293128,2,0,L|336:376,1,90,8|0,0:0|0:0,0:0:0:0:
160,344,293461,2,0,L|244:314,1,90,0|0,0:0|0:0,0:0:0:0:
168,256,293795,2,0,L|252:226,1,90,8|0,0:0|0:0,0:0:0:0:
320,168,294128,1,0,0:0:0:0:
176,168,294294,1,0,0:0:0:0:
328,80,294461,1,8,0:0:0:0:
168,80,294628,6,0,P|80:112|40:184,1,180,4|0,0:0|0:0,0:0:0:0:
64,328,295128,2,0,B|100:356|100:356|142:367,1,90,8|0,0:0|0:0,0:0:0:0:
256,336,295461,2,0,B|284:300|284:300|296:256,1,90,0|0,0:0|0:0,0:0:0:0:
264,144,295794,2,0,B|228:116|228:116|186:104,1,90,12|0,0:2|0:0,0:0:0:0:
128,216,296127,2,0,B|164:244|164:244|208:256,1,90
376,240,296461,2,0,B|404:204|404:204|416:160,1,90,8|0,0:0|0:0,0:0:0:0:
360,48,296794,1,0,0:0:0:0:
315,49,296877,1,0,0:0:0:0:
273,66,296960,1,0,0:0:0:0:
240,96,297043,1,0,0:0:0:0:
218,135,297127,1,0,0:0:0:0:
328,160,297294,6,0,P|384:224|384:320,1,180,4|0,0:0|0:0,0:0:0:0:
192,352,297794,2,0,L|160:288,1,72,8|0,0:0|0:0,0:0:0:0:
72,176,298127,2,0,L|104:240,1,72,0|0,0:0|0:0,0:0:0:0:
256,320,298460,2,0,L|224:256,1,72,8|0,0:0|0:0,0:0:0:0:
136,144,298793,2,0,L|168:208,1,72,0|0,0:0|0:0,0:0:0:0:
320,288,299126,2,0,L|288:224,1,72,8|0,0:0|0:0,0:0:0:0:
288,168,299376,2,0,L|264:160,1,18
312,120,299460,5,4,0:2:0:0:
448,136,299626,1,4,0:0:0:0:
184,184,299960,2,0,P|166:286|261:328,1,225,4|0,0:0|2:0,0:0:0:0:
