osu file format v14

[General]
AudioFilename: audio.mp3
AudioLeadIn: 0
PreviewTime: 120319
Countdown: 0
SampleSet: Normal
StackLeniency: 0.5
Mode: 0
LetterboxInBreaks: 0
WidescreenStoryboard: 0
SamplesMatchPlaybackRate: 1

[Editor]
Bookmarks: 30319,36319
DistanceSpacing: 3.6
BeatDivisor: 4
GridSize: 4
TimelineZoom: 2.599998

[Metadata]
Title:Juno (Short Ver.)
TitleUnicode:Juno (Short Ver.)
Artist:Saiph
ArtistUnicode:Saiph
Creator:Circle
Version:Insane
Source:Unisphere
Tags:grimgroove rock bass instrumental EDM
BeatmapID:1102111
BeatmapSetID:518727

[Difficulty]
HPDrainRate:5
CircleSize:4.2
OverallDifficulty:8
ApproachRate:9
SliderMultiplier:1
SliderTickRate:1

[Events]
//Background and Video events
0,0,"unsp0015.jpg",0,0
//Break Periods
//Storyboard Layer 0 (Background)
//Storyboard Layer 1 (Fail)
//Storyboard Layer 2 (Pass)
//Storyboard Layer 3 (Foreground)
//Storyboard Sound Samples

[TimingPoints]
320,333.333333333333,4,1,1,100,1,0
320,-133.333333333333,4,1,1,33,0,0
10986,-133.333333333333,4,1,1,60,0,0
20986,-100,4,1,1,100,0,0
42986,-100,4,1,1,50,0,0
45653,-100,4,1,1,60,0,0
48319,-100,4,1,1,70,0,0
50986,-100,4,1,1,80,0,0
52319,-100,4,1,1,90,0,0
53319,-50,4,1,1,100,0,0
53653,-66.6666666666667,4,1,1,100,0,0
95986,333.333333333333,4,1,1,100,1,0
95986,-25,4,1,1,100,0,0
96319,333.333333333333,4,1,1,100,1,0
96319,-100,4,1,1,100,0,0
112319,-66.6666666666667,4,1,1,100,0,0
117652,-100,4,1,1,100,0,0
130986,-80,4,1,1,100,0,0
133653,-66.6666666666667,4,1,1,100,0,0
138986,-100,4,1,1,100,0,0

[HitObjects]
1,280,320,5,0,0:0:0:0:
76,320,486,1,0,0:0:0:0:
96,216,653,2,0,L|53:245,1,37.5000014305115
160,275,986,5,0,0:0:0:0:
247,264,1153,1,0,0:0:0:0:
200,172,1319,2,0,L|179:214,1,37.5000014305115
280,196,1653,6,0,B|302:186|302:186|294:177,1,37.5000014305115
232,112,1986,2,0,B|211:89|211:89|206:99,1,37.5000014305115
168,176,2319,2,0,B|155:202|155:202|166:202,1,37.5000014305115
264,176,2653,2,0,L|312:160,1,37.5000014305115
424,124,2986,5,0,0:0:0:0:
404,208,3153,1,0,0:0:0:0:
348,144,3319,2,0,L|312:108,1,37.5000014305115
420,104,3653,5,0,0:0:0:0:
378,179,3820,1,0,0:0:0:0:
341,103,3986,2,0,L|315:58,1,37.5000014305115
424,52,4319,6,0,B|452:49|452:49|447:61,1,37.5000014305115
424,148,4653,2,0,B|410:179|410:179|401:169,1,37.5000014305115
336,116,4986,2,0,B|314:96|314:96|326:92,1,37.5000014305115
424,68,5319,2,0,L|472:56,1,37.5000014305115
308,104,5653,5,0,0:0:0:0:
308,104,5819,1,0,0:0:0:0:
241,178,5986,2,0,L|205:216,1,37.5000014305115
301,238,6319,2,0,L|285:282,1,37.5000014305115
381,274,6653,2,0,L|389:322,1,37.5000014305115
449,196,6986,5,0,0:0:0:0:
449,196,7153,1,0,0:0:0:0:
301,238,7319,2,0,L|285:282,1,37.5000014305115
346,139,7653,1,0,0:0:0:0:
346,139,7820,1,0,0:0:0:0:
301,238,7986,1,0,0:0:0:0:
364,320,8153,5,0,0:0:0:0:
354,346,8236,1,0,0:0:0:0:
344,372,8319,1,0,0:0:0:0:
248,104,8653,6,0,L|285:126,1,37.5000014305115
190,170,8986,2,0,L|212:206,1,37.5000014305115
108,191,9319,2,0,L|100:232,1,37.5000014305115
128,101,9653,5,0,0:0:0:0:
128,101,9820,1,0,0:0:0:0:
189,170,9986,2,0,L|211:206,1,37.5000014305115
248,104,10319,1,0,0:0:0:0:
248,104,10486,1,0,0:0:0:0:
302,191,10653,2,0,L|324:227,1,37.5000014305115
75,202,10986,6,0,L|97:238,1,37.5000014305115
144,312,11319,1,0,0:0:0:0:
144,312,11486,1,0,0:0:0:0:
178,196,11653,1,0,0:0:0:0:
178,196,11819,1,0,0:0:0:0:
226,265,11986,5,0,0:0:0:0:
240,286,12070,1,0,0:0:0:0:
254,308,12153,1,0,0:0:0:0:
269,330,12236,1,0,0:0:0:0:
283,352,12320,2,0,L|304:383,1,37.5000014305115
275,118,12653,5,0,0:0:0:0:
289,139,12737,1,0,0:0:0:0:
303,161,12820,1,0,0:0:0:0:
318,183,12903,1,0,0:0:0:0:
332,205,12987,2,0,L|353:236,1,37.5000014305115
419,143,13319,5,0,0:0:0:0:
433,164,13403,1,0,0:0:0:0:
447,186,13486,1,0,0:0:0:0:
462,208,13569,1,0,0:0:0:0:
476,230,13653,2,0,L|497:261,1,37.5000014305115
144,344,13986,5,0,0:0:0:0:
144,344,14153,1,0,0:0:0:0:
248,316,14319,1,0,0:0:0:0:
248,316,14486,1,0,0:0:0:0:
352,284,14653,5,0,0:0:0:0:
366,263,14737,1,0,0:0:0:0:
380,241,14820,1,0,0:0:0:0:
395,219,14903,1,0,0:0:0:0:
409,197,14987,2,0,L|430:165,1,37.5000014305115
125,200,15319,5,0,0:0:0:0:
139,179,15403,1,0,0:0:0:0:
153,157,15486,1,0,0:0:0:0:
168,135,15569,1,0,0:0:0:0:
182,113,15653,2,0,L|203:81,1,37.5000014305115
293,154,15986,5,0,0:0:0:0:
307,133,16070,1,0,0:0:0:0:
321,111,16153,1,0,0:0:0:0:
336,89,16236,1,0,0:0:0:0:
350,67,16320,2,0,L|371:35,1,37.5000014305115
391,210,16653,6,0,L|369:241,1,37.5000014305115
450,124,16986,2,0,L|474:92,1,37.5000014305115
228,80,17319,5,0,0:0:0:0:
202,77,17403,1,0,0:0:0:0:
176,74,17486,1,0,0:0:0:0:
150,71,17569,1,0,0:0:0:0:
124,68,17653,2,0,L|86:64,1,37.5000014305115
156,156,17986,5,0,0:0:0:0:
133,167,18070,1,0,0:0:0:0:
109,178,18153,1,0,0:0:0:0:
84,189,18236,1,0,0:0:0:0:
62,200,18319,2,0,L|26:217,1,37.5000014305115,0|0,0:0|0:0,0:0:0:0:
128,256,18653,5,0,0:0:0:0:
114,277,18737,1,0,0:0:0:0:
98,299,18820,1,0,0:0:0:0:
84,321,18903,1,0,0:0:0:0:
68,341,18986,2,0,L|45:373,1,37.5000014305115,0|0,0:0|0:0,0:0:0:0:
176,332,19319,6,0,L|222:307,1,37.5000014305115
301,280,19653,1,0,0:0:0:0:
301,280,19819,1,0,0:0:0:0:
128,256,19986,1,0,0:0:0:0:
128,256,20153,1,0,0:0:0:0:
176,332,20319,5,0,0:0:0:0:
176,332,20485,1,0,0:0:0:0:
32,229,20652,1,0,0:0:0:0:
32,229,20819,1,0,0:0:0:0:
110,170,20986,6,0,P|133:166|150:174,1,25,0|0,2:0|2:0,2:0:0:0:
194,316,21153,6,0,P|176:331|157:333,1,25,0|0,2:0|2:0,2:0:0:0:
132,344,21319,1,0,0:0:0:0:
83,338,21403,1,0,0:0:0:0:
55,299,21486,1,0,0:0:0:0:
64,251,21569,1,0,0:0:0:0:
104,228,21653,6,0,L|173:229,1,50
285,236,21986,1,0,0:0:0:0:
285,236,22069,1,0,0:0:0:0:
285,236,22152,1,0,0:0:0:0:
434,333,22319,6,0,L|370:333,1,50
269,335,22652,1,0,0:0:0:0:
273,339,22735,1,0,0:0:0:0:
273,339,22818,1,0,0:0:0:0:
183,225,22986,6,0,B|153:184,1,50
318,266,23319,2,0,B|349:309,1,50
190,330,23653,2,0,B|234:294,1,50
364,179,23986,2,0,B|408:143,1,50
262,130,24319,6,0,B|224:162,1,50
143,240,24652,1,0,0:0:0:0:
143,240,24735,1,0,0:0:0:0:
143,240,24818,1,0,0:0:0:0:
188,354,24986,6,0,B|226:322,1,50
373,213,25319,1,0,0:0:0:0:
373,213,25402,1,0,0:0:0:0:
373,213,25485,1,0,0:0:0:0:
143,240,25653,6,0,B|105:272,1,50
234,293,25986,2,0,B|272:261,1,50
355,198,26319,2,0,B|393:166,1,50
414,61,26653,2,0,B|452:29,1,50
333,118,26986,5,0,0:0:0:0:
316,133,27152,1,0,0:0:0:0:
234,86,27319,1,0,0:0:0:0:
222,80,27402,1,0,0:0:0:0:
211,74,27485,1,0,0:0:0:0:
128,48,27653,2,0,L|116:-1,1,50
48,72,27986,2,0,L|38:120,1,50
133,250,28319,6,0,B|95:218,1,50
237,203,28653,2,0,B|275:235,1,50
361,302,28986,2,0,B|393:264,1,50
462,184,29319,1,0,0:0:0:0:
464,196,29402,1,0,0:0:0:0:
466,208,29485,1,0,0:0:0:0:
485,308,29653,5,0,0:0:0:0:
488,324,29819,1,0,0:0:0:0:
317,189,29986,2,0,L|305:140,1,50
220,250,30319,2,0,L|208:299,1,50
95,313,30653,2,0,L|83:362,1,50
57,190,30986,6,0,B|25:152,1,50
220,250,31319,2,0,B|252:288,1,50
211,135,31653,2,0,B|249:103,1,50
370,204,31986,2,0,B|402:242,1,50
299,343,32319,5,0,0:0:0:0:
287,331,32485,1,0,0:0:0:0:
188,216,32653,1,0,0:0:0:0:
180,207,32736,1,0,0:0:0:0:
172,198,32819,1,0,0:0:0:0:
329,240,32986,5,0,0:0:0:0:
317,228,33152,1,0,0:0:0:0:
218,113,33320,1,0,0:0:0:0:
210,104,33403,1,0,0:0:0:0:
202,95,33486,1,0,0:0:0:0:
393,169,33653,6,0,L|381:120,1,50
463,84,33986,2,0,L|451:35,1,50
260,195,34319,2,0,L|272:146,1,50
190,110,34652,2,0,L|202:61,1,50
94,130,34986,5,0,0:0:0:0:
89,146,35152,1,0,0:0:0:0:
50,293,35320,1,0,0:0:0:0:
47,304,35403,1,0,0:0:0:0:
44,316,35486,1,0,0:0:0:0:
166,209,35653,5,0,0:0:0:0:
161,225,35819,1,0,0:0:0:0:
122,372,35987,1,0,0:0:0:0:
119,384,36070,1,0,0:0:0:0:
116,395,36153,1,0,0:0:0:0:
336,288,36319,6,0,L|313:343,1,50
260,280,36652,2,0,L|244:232,1,50
184,284,36986,2,0,L|180:340,1,50
108,288,37319,2,0,L|91:225,1,50
246,145,37653,5,0,0:0:0:0:
229,135,37819,1,0,0:0:0:0:
123,73,37986,1,0,0:0:0:0:
112,67,38069,1,0,0:0:0:0:
101,61,38152,1,0,0:0:0:0:
163,187,38319,2,0,L|137:230,1,50
86,321,38652,2,0,L|60:364,1,50
48,197,38986,5,0,0:0:0:0:
118,237,39152,1,0,0:0:0:0:
187,277,39319,2,0,L|243:309,1,50
241,151,39653,1,0,0:0:0:0:
311,191,39819,1,0,0:0:0:0:
384,228,39986,1,0,0:0:0:0:
394,221,40069,1,0,0:0:0:0:
405,215,40152,1,0,0:0:0:0:
416,208,40236,1,0,0:0:0:0:
426,202,40319,5,0,0:0:0:0:
372,144,40485,1,0,0:0:0:0:
315,87,40652,2,0,L|269:41,1,50
208,92,40986,2,0,L|165:116,1,50
88,156,41320,2,0,L|131:180,1,50
280,144,41653,5,0,0:0:0:0:
350,184,41819,1,0,0:0:0:0:
419,224,41986,2,0,L|475:256,1,50
280,224,42319,1,0,0:0:0:0:
210,264,42485,1,0,0:0:0:0:
141,304,42652,2,0,L|85:336,1,50
56,176,42986,6,0,B|112:176|112:176|168:144,1,100
368,288,43653,2,0,B|312:288|312:288|248:288,1,100
220,200,44319,2,0,B|268:172|268:172|323:140,1,100
324,52,44986,2,0,B|372:24|372:24|427:-7,1,100
248,152,45653,6,0,B|248:224|248:224|216:264,1,100
152,344,46319,2,0,B|92:313|96:247,1,100
439,206,46986,2,0,B|442:272|383:303,1,100
176,25,47653,2,0,B|232:-10|288:25,1,100
92,228,48319,5,0,0:0:0:0:
176,25,48653,1,0,0:0:0:0:
248,148,48986,2,0,B|302:241,1,100
236,336,49653,2,0,B|182:242,1,100
416,212,50319,2,0,B|362:118,1,100
288,64,50986,6,0,B|288:128,1,50
288,200,51319,1,0,0:0:0:0:
288,344,51653,2,0,L|256:280,1,50
192,132,51986,2,0,L|160:196,1,50
124,252,52319,1,0,0:0:0:0:
64,108,52653,1,0,0:0:0:0:
0,248,52986,1,0,0:0:0:0:
64,108,53319,6,0,L|64:236,1,100
196,108,53653,5,0,0:0:0:0:
271,108,53819,1,0,0:0:0:0:
346,108,53986,1,0,0:0:0:0:
421,108,54153,1,0,0:0:0:0:
244,248,54486,2,0,L|284:248,2,37.5000014305115
168,248,54819,1,0,0:0:0:0:
169,168,54986,6,0,L|263:168,1,75.0000028610231
317,168,55319,1,0,0:0:0:0:
394,168,55486,2,0,L|475:168,1,75.0000028610231
394,248,55819,1,0,0:0:0:0:
319,248,55986,2,4,L|244:248,1,75.0000028610231
297,148,56319,5,0,0:0:0:0:
222,148,56485,1,0,0:0:0:0:
147,148,56652,1,0,0:0:0:0:
72,148,56819,1,0,0:0:0:0:
281,64,57153,1,0,0:0:0:0:
356,64,57319,1,0,0:0:0:0:
431,64,57486,1,0,0:0:0:0:
433,140,57653,6,0,B|411:132|411:132|395:148|395:148|367:136,1,75.0000028610231
289,140,57986,1,0,0:0:0:0:
214,140,58153,1,0,0:0:0:0:
12,40,58486,2,0,L|76:40,1,37.5000014305115
87,40,58653,1,0,0:0:0:0:
236,208,58986,5,0,0:0:0:0:
311,208,59153,1,0,0:0:0:0:
386,208,59319,1,0,0:0:0:0:
461,208,59486,1,0,0:0:0:0:
264,316,59819,1,0,0:0:0:0:
184,316,59986,1,0,0:0:0:0:
104,316,60153,1,0,0:0:0:0:
104,240,60319,6,0,L|152:240,1,37.5000014305115
179,240,60486,1,0,0:0:0:0:
254,240,60653,1,0,0:0:0:0:
329,240,60819,1,0,0:0:0:0:
328,16,61153,1,0,0:0:0:0:
403,16,61319,2,4,L|478:16,1,75.0000028610231
480,128,61653,5,0,0:0:0:0:
405,128,61819,1,0,0:0:0:0:
330,128,61986,1,0,0:0:0:0:
255,128,62153,1,0,0:0:0:0:
136,316,62486,1,0,0:0:0:0:
248,316,62652,5,0,0:0:0:0:
285,316,62736,1,0,0:0:0:0:
322,316,62819,1,0,0:0:0:0:
360,316,62902,1,0,0:0:0:0:
398,316,62986,6,0,L|334:256,1,75.0000028610231
276,172,63319,5,0,0:0:0:0:
313,172,63403,1,0,0:0:0:0:
350,172,63486,1,0,0:0:0:0:
388,172,63569,1,0,0:0:0:0:
426,172,63653,6,0,L|362:112,1,75.0000028610231
304,28,63986,5,0,0:0:0:0:
341,28,64069,1,0,0:0:0:0:
379,28,64153,1,0,0:0:0:0:
416,28,64236,1,0,0:0:0:0:
454,28,64319,5,0,0:0:0:0:
432,100,64486,1,0,0:0:0:0:
357,100,64653,1,0,0:0:0:0:
282,100,64819,1,0,0:0:0:0:
208,232,65153,1,0,0:0:0:0:
133,232,65319,5,0,0:0:0:0:
95,232,65403,1,0,0:0:0:0:
58,232,65486,1,0,0:0:0:0:
20,232,65569,1,0,0:0:0:0:
280,128,65986,5,0,0:0:0:0:
242,128,66069,1,0,0:0:0:0:
205,128,66153,1,0,0:0:0:0:
167,128,66236,1,0,0:0:0:0:
396,296,66653,5,0,0:0:0:0:
358,296,66736,1,0,0:0:0:0:
320,296,66819,1,0,0:0:0:0:
283,296,66903,1,0,0:0:0:0:
228,296,66986,5,0,0:0:0:0:
153,296,67153,1,0,0:0:0:0:
78,296,67319,1,0,0:0:0:0:
3,296,67486,1,0,0:0:0:0:
400,160,67819,1,0,0:0:0:0:
325,160,67986,5,0,0:0:0:0:
288,160,68070,1,0,0:0:0:0:
250,160,68153,1,0,0:0:0:0:
212,160,68236,1,0,0:0:0:0:
174,160,68319,5,0,0:0:0:0:
245,240,68653,5,0,0:0:0:0:
208,240,68737,1,0,0:0:0:0:
170,240,68820,1,0,0:0:0:0:
132,240,68903,1,0,0:0:0:0:
94,240,68986,5,0,0:0:0:0:
196,72,69319,5,0,0:0:0:0:
159,72,69403,1,0,0:0:0:0:
121,72,69486,1,0,0:0:0:0:
83,72,69569,1,0,0:0:0:0:
45,72,69652,5,0,0:0:0:0:
88,172,69819,1,0,0:0:0:0:
163,172,69986,1,0,0:0:0:0:
238,172,70153,1,0,0:0:0:0:
352,80,70486,1,0,0:0:0:0:
309,208,70653,5,0,0:0:0:0:
272,208,70736,1,0,0:0:0:0:
234,208,70819,1,0,0:0:0:0:
196,208,70903,1,0,0:0:0:0:
168,76,71319,5,0,0:0:0:0:
131,76,71402,1,0,0:0:0:0:
93,76,71485,1,0,0:0:0:0:
55,76,71569,1,0,0:0:0:0:
260,268,71986,5,0,0:0:0:0:
223,268,72069,1,0,0:0:0:0:
185,268,72152,1,0,0:0:0:0:
147,268,72236,1,0,0:0:0:0:
108,268,72319,5,0,0:0:0:0:
108,192,72486,1,0,0:0:0:0:
183,192,72653,1,0,0:0:0:0:
252,192,72819,1,0,0:0:0:0:
252,196,73153,5,0,0:0:0:0:
327,196,73319,1,0,0:0:0:0:
401,196,73486,2,0,L|465:196,2,37.5000014305115
248,64,73986,6,0,L|312:64,2,37.5000014305115
156,312,74486,6,4,L|220:312,2,37.5000014305115
48,48,74986,5,0,0:0:0:0:
128,48,75153,1,0,0:0:0:0:
208,48,75319,2,0,L|256:48,1,37.5000014305115
288,48,75486,1,0,0:0:0:0:
112,192,75653,6,0,L|208:192,1,75.0000028610231
272,192,75986,2,0,L|378:192,1,75.0000028610231
480,328,76319,6,0,L|432:328,1,37.5000014305115
400,328,76486,1,0,0:0:0:0:
320,328,76653,2,0,L|278:328,1,37.5000014305115
240,328,76819,1,0,0:0:0:0:
80,224,76986,6,0,L|128:224,1,37.5000014305115
160,224,77153,1,0,0:0:0:0:
240,224,77319,1,0,0:0:0:0:
320,224,77486,1,0,0:0:0:0:
480,112,77653,6,0,L|405:112,1,75.0000028610231
320,112,77986,2,0,L|245:112,1,75.0000028610231
88,8,78319,6,0,L|128:8,1,37.5000014305115
168,8,78486,1,0,0:0:0:0:
248,8,78653,2,0,L|285:8,1,37.5000014305115
328,8,78819,1,0,0:0:0:0:
320,136,78986,6,0,L|240:136,1,75.0000028610231
160,136,79319,1,0,0:0:0:0:
120,136,79402,1,0,0:0:0:0:
80,136,79485,1,0,0:0:0:0:
156,268,79653,6,0,L|196:268,1,37.5000014305115
236,268,79819,1,0,0:0:0:0:
316,268,79986,1,0,0:0:0:0:
396,268,80153,1,0,0:0:0:0:
236,120,80319,5,0,0:0:0:0:
316,120,80486,1,0,0:0:0:0:
396,120,80653,2,0,L|444:120,1,37.5000014305115
476,120,80819,1,0,0:0:0:0:
448,248,80986,6,0,L|408:248,1,37.5000014305115
368,248,81153,1,0,0:0:0:0:
288,248,81319,1,0,0:0:0:0:
208,248,81486,1,0,0:0:0:0:
272,64,81653,6,0,L|197:64,1,75.0000028610231
112,64,81986,2,0,L|37:64,1,75.0000028610231
40,248,82319,5,0,0:0:0:0:
120,248,82486,1,0,0:0:0:0:
200,248,82653,2,0,L|248:248,1,37.5000014305115
280,248,82819,1,0,0:0:0:0:
432,144,82986,6,0,L|432:69,1,75.0000028610231
352,144,83319,2,0,L|352:69,1,75.0000028610231
352,272,83653,6,0,L|304:272,1,37.5000014305115
272,272,83819,1,0,0:0:0:0:
192,272,83986,1,0,0:0:0:0:
112,272,84153,1,0,0:0:0:0:
16,112,84319,5,0,0:0:0:0:
96,112,84486,1,0,0:0:0:0:
176,112,84653,2,0,L|224:112,2,37.5000014305115
344,200,84986,5,0,0:0:0:0:
264,200,85152,1,0,0:0:0:0:
184,200,85319,1,0,0:0:0:0:
144,200,85403,1,0,0:0:0:0:
104,200,85486,1,0,0:0:0:0:
272,288,85653,6,0,L|192:288,1,75.0000028610231
112,288,85986,1,0,0:0:0:0:
32,288,86153,1,0,0:0:0:0:
32,112,86319,6,0,L|32:32,1,75.0000028610231
112,32,86653,2,0,L|112:128,1,75.0000028610231
272,112,86986,6,0,L|352:112,1,75.0000028610231
432,112,87319,2,0,L|512:112,1,75.0000028610231
384,248,87653,5,0,0:0:0:0:
304,248,87819,1,0,0:0:0:0:
224,248,87986,1,0,0:0:0:0:
184,248,88069,1,0,0:0:0:0:
144,248,88153,1,0,0:0:0:0:
16,120,88319,6,0,L|96:120,1,75.0000028610231
176,120,88652,2,0,L|256:120,1,75.0000028610231
176,288,88986,5,0,0:0:0:0:
256,288,89153,1,0,0:0:0:0:
336,288,89319,1,0,0:0:0:0:
373,288,89402,1,0,0:0:0:0:
411,288,89485,1,0,0:0:0:0:
448,288,89568,1,0,0:0:0:0:
432,192,89653,6,0,L|392:192,3,37.5000014305115
396,100,89986,6,0,L|360:100,6,18.7500007152558
284,100,90319,5,0,0:0:0:0:
204,100,90486,1,0,0:0:0:0:
124,100,90653,1,0,0:0:0:0:
48,100,90819,1,0,0:0:0:0:
48,12,90986,5,0,0:0:0:0:
128,12,91153,1,0,0:0:0:0:
208,12,91319,2,0,L|256:12,1,37.5000014305115
288,12,91486,1,0,0:0:0:0:
368,12,91653,6,0,L|411:12,1,37.5000014305115
448,12,91819,1,0,0:0:0:0:
316,84,91986,5,0,0:0:0:0:
280,96,92069,1,0,0:0:0:0:
244,108,92153,1,0,0:0:0:0:
208,120,92236,1,0,0:0:0:0:
172,132,92319,2,0,L|88:164,1,75.0000028610231
252,184,92653,5,0,0:0:0:0:
216,196,92736,1,0,0:0:0:0:
180,208,92820,1,0,0:0:0:0:
144,220,92903,1,0,0:0:0:0:
108,232,92986,2,0,L|24:264,1,75.0000028610231
184,296,93319,5,0,0:0:0:0:
148,308,93402,1,0,0:0:0:0:
112,320,93486,1,0,0:0:0:0:
76,332,93569,1,0,0:0:0:0:
40,344,93653,2,0,L|40:306,1,37.5000014305115
40,256,93819,6,0,L|40:218,1,37.5000014305115
87,218,93986,1,0,0:0:0:0:
127,218,94069,1,0,0:0:0:0:
167,218,94153,1,0,0:0:0:0:
252,244,94319,5,0,0:0:0:0:
332,244,94486,1,0,0:0:0:0:
412,244,94653,1,0,0:0:0:0:
492,244,94819,1,0,0:0:0:0:
416,116,94986,6,0,L|336:116,1,75.0000028610231
256,116,95319,2,0,L|176:116,1,75.0000028610231
96,116,95653,6,0,L|57:116,1,37.5000014305115
21,116,95819,1,0,0:0:0:0:
128,320,95986,6,0,B|164:244|164:244|164:116,1,200
268,300,96319,5,0,0:0:0:0:
344,224,96485,1,0,0:0:0:0:
344,224,96652,1,0,0:0:0:0:
344,224,96819,1,0,0:0:0:0:
268,300,96985,5,0,0:0:0:0:
252,172,97152,1,0,0:0:0:0:
252,172,97319,1,0,0:0:0:0:
252,172,97485,1,0,0:0:0:0:
268,300,97652,5,0,0:0:0:0:
384,144,97819,1,0,0:0:0:0:
384,144,97986,1,0,0:0:0:0:
384,144,98152,1,0,0:0:0:0:
352,264,98319,6,0,L|332:332,1,50
256,176,98652,6,0,L|236:108,1,50
388,200,98985,5,0,0:0:0:0:
264,300,99152,1,0,0:0:0:0:
264,300,99319,1,0,0:0:0:0:
264,300,99486,1,0,0:0:0:0:
336,268,99652,5,0,0:0:0:0:
178,292,99819,1,0,0:0:0:0:
178,292,99986,1,0,0:0:0:0:
178,292,100153,1,0,0:0:0:0:
260,308,100319,5,0,0:0:0:0:
131,213,100486,1,0,0:0:0:0:
131,213,100653,1,0,0:0:0:0:
131,213,100820,1,0,0:0:0:0:
168,292,100985,6,0,L|104:320,1,50
84,128,101319,6,0,L|68:60,1,50
64,276,101652,5,0,0:0:0:0:
64,276,101819,1,0,0:0:0:0:
152,116,101985,2,0,L|210:158,1,50
156,208,102319,2,0,L|199:262,1,50
140,308,102652,2,0,L|162:360,1,50
248,196,102985,6,0,L|270:143,1,50
332,204,103319,2,0,L|384:228,1,50
380,136,103652,2,0,L|402:83,1,50
280,136,103986,2,0,L|252:196,1,50
192,336,104318,5,0,0:0:0:0:
140,136,104652,2,0,L|188:112,1,50
208,192,104985,2,0,L|260:216,1,50
208,280,105318,2,0,L|240:328,1,50
228,80,105652,6,0,L|256:36,1,50
300,112,105985,2,0,L|328:156,1,50
384,100,106319,5,0,0:0:0:0:
396,121,106402,1,0,0:0:0:0:
409,143,106485,1,0,0:0:0:0:
421,164,106568,1,0,0:0:0:0:
434,186,106652,1,0,0:0:0:0:
433,210,106735,1,0,0:0:0:0:
431,235,106818,1,0,0:0:0:0:
412,360,106985,5,0,0:0:0:0:
412,360,107152,1,0,0:0:0:0:
300,304,107318,2,0,L|240:324,1,50
412,360,107652,5,0,0:0:0:0:
412,360,107819,1,0,0:0:0:0:
228,244,107985,2,0,L|176:232,1,50
412,360,108318,6,0,L|344:352,1,50
344,268,108652,2,0,L|288:232,1,50
348,164,108985,2,0,L|308:104,1,50
400,68,109318,2,0,L|392:8,1,50
320,124,109652,5,0,0:0:0:0:
320,124,109818,1,0,0:0:0:0:
240,220,109985,2,0,L|192:276,1,50
176,136,110318,5,0,2:0:0:0:
176,136,110484,1,0,2:0:0:0:
300,156,110651,2,0,L|360:132,1,50,0|0,2:0|2:0,2:0:0:0:
380,260,110985,6,0,L|432:312,1,50
328,328,111318,2,0,L|304:396,1,50
240,320,111652,2,0,L|180:348,1,50
176,248,111985,2,0,L|156:240,6,12.5
96,96,112319,5,0,0:0:0:0:
176,96,112486,1,0,0:0:0:0:
256,96,112653,2,0,L|296:96,1,37.5000014305115
336,96,112819,1,0,0:0:0:0:
240,240,112986,6,0,L|280:240,1,37.5000014305115
320,240,113153,1,0,0:0:0:0:
400,240,113320,1,0,0:0:0:0:
440,240,113403,1,0,0:0:0:0:
480,240,113486,1,0,0:0:0:0:
328,328,113653,5,0,0:0:0:0:
248,328,113819,2,0,L|208:328,1,37.5000014305115
168,328,113986,1,0,0:0:0:0:
128,328,114069,1,0,0:0:0:0:
88,328,114153,1,0,0:0:0:0:
264,224,114319,5,0,0:0:0:0:
224,224,114403,2,0,L|184:224,1,37.5000014305115
104,224,114653,1,0,0:0:0:0:
64,224,114736,2,0,L|24:224,1,37.5000014305115
104,72,114986,5,0,0:0:0:0:
184,72,115153,1,0,0:0:0:0:
264,72,115320,1,0,0:0:0:0:
304,72,115403,1,0,0:0:0:0:
344,72,115486,1,0,0:0:0:0:
224,200,115653,5,0,0:0:0:0:
304,200,115818,1,0,0:0:0:0:
384,200,115987,1,0,0:0:0:0:
424,200,116070,1,0,0:0:0:0:
464,200,116153,1,0,0:0:0:0:
180,352,116319,5,0,0:0:0:0:
260,352,116486,2,0,L|297:352,1,37.5000014305115
336,352,116653,1,0,0:0:0:0:
412,352,116819,1,0,0:0:0:0:
352,192,116985,5,0,0:0:0:0:
272,192,117153,1,0,0:0:0:0:
192,192,117318,2,0,L|102:192,1,75.0000028610231
132,336,117652,6,0,L|196:300,1,50
308,344,117985,1,0,0:0:0:0:
308,344,118152,1,0,0:0:0:0:
236,256,118318,6,0,L|276:200,1,50
308,344,118651,1,0,0:0:0:0:
308,344,118818,1,0,0:0:0:0:
304,144,118985,6,0,L|320:76,1,50
308,344,119318,1,0,0:0:0:0:
240,76,119652,6,0,L|231:6,1,50
160,56,119985,2,0,L|112:8,1,50
96,144,120318,6,0,L|80:216,1,50
12,288,120652,1,0,0:0:0:0:
12,288,120818,1,0,0:0:0:0:
164,224,120985,6,0,L|196:276,1,50
12,288,121318,1,0,0:0:0:0:
12,288,121484,1,0,0:0:0:0:
272,244,121652,6,0,L|328:268,1,50
312,136,121985,2,0,L|272:96,1,50
156,160,122318,2,0,L|196:200,1,50
220,56,122652,2,0,L|240:0,1,50
292,200,122985,6,0,L|312:256,1,50
336,48,123319,1,0,0:0:0:0:
336,48,123485,1,0,0:0:0:0:
376,208,123652,2,0,L|396:264,1,50
460,220,123985,2,0,L|480:276,1,50
336,48,124318,5,0,0:0:0:0:
336,48,124484,1,0,0:0:0:0:
256,148,124652,2,0,L|216:204,1,50
336,48,124985,5,0,0:0:0:0:
336,48,125151,1,0,0:0:0:0:
300,216,125319,2,0,L|280:284,1,50
372,264,125653,5,0,0:0:0:0:
372,264,125818,1,0,0:0:0:0:
396,140,125985,2,0,L|436:96,1,50
348,76,126318,2,0,L|292:108,1,50
324,176,126652,2,0,L|316:248,1,50
228,140,126985,5,0,0:0:0:0:
228,140,127152,1,0,0:0:0:0:
196,260,127318,2,0,L|152:292,1,50
80,212,127652,5,0,0:0:0:0:
80,212,127819,1,0,0:0:0:0:
196,260,127985,1,0,0:0:0:0:
218,271,128068,1,0,0:0:0:0:
241,282,128151,1,0,0:0:0:0:
263,294,128234,1,0,0:0:0:0:
288,304,128318,6,0,L|224:313,1,50
352,232,128653,1,0,0:0:0:0:
352,232,128819,1,0,0:0:0:0:
288,304,128985,6,0,L|224:313,1,50
268,172,129318,1,0,0:0:0:0:
268,172,129484,1,0,0:0:0:0:
288,304,129652,6,0,L|224:313,1,50
208,236,129985,2,0,L|148:196,1,50
100,256,130318,2,0,L|40:216,1,50
96,128,130652,2,0,L|36:88,1,50
54,100,130985,6,0,L|96:128,1,50
264,216,131319,1,0,0:0:0:0:
264,216,131403,1,0,0:0:0:0:
264,216,131485,1,0,0:0:0:0:
224,124,131653,1,0,0:0:0:0:
224,124,131736,1,0,0:0:0:0:
224,124,131819,1,0,0:0:0:0:
304,80,131986,1,0,0:0:0:0:
304,80,132069,1,0,0:0:0:0:
304,80,132153,1,0,0:0:0:0:
345,264,132320,5,0,0:0:0:0:
345,264,132402,1,0,0:0:0:0:
345,264,132485,1,0,0:0:0:0:
272,192,132652,1,0,0:0:0:0:
272,192,132735,1,0,0:0:0:0:
272,192,132818,1,0,0:0:0:0:
352,148,132986,1,0,0:0:0:0:
352,148,133068,1,0,0:0:0:0:
352,148,133152,1,0,0:0:0:0:
194,91,133318,1,0,0:0:0:0:
32,152,133653,5,0,0:0:0:0:
107,152,133819,1,0,0:0:0:0:
182,152,133986,2,0,L|288:152,1,75.0000028610231
384,48,134319,6,0,L|288:48,1,75.0000028610231
234,48,134653,2,0,L|128:48,1,75.0000028610231
264,160,134986,5,0,0:0:0:0:
339,160,135153,1,0,0:0:0:0:
414,160,135319,2,0,L|520:160,1,75.0000028610231
400,288,135653,6,0,L|304:288,1,75.0000028610231
250,288,135986,1,0,0:0:0:0:
212,288,136069,2,0,L|160:288,1,37.5000014305115
72,176,136319,5,0,0:0:0:0:
147,176,136486,1,0,0:0:0:0:
222,176,136653,2,0,B|328:176,1,75.0000028610231
392,64,136986,6,0,L|300:64,1,75.0000028610231
242,64,137319,2,0,L|153:64,1,75.0000028610231
80,184,137653,5,0,0:0:0:0:
155,184,137819,1,0,0:0:0:0:
230,184,137986,2,0,L|311:184,1,75.0000028610231
305,334,138319,6,0,L|230:334,1,75.0000028610231
155,334,138653,1,0,0:0:0:0:
79,334,138819,1,0,0:0:0:0:
80,96,138986,5,0,0:0:0:0:
