osu file format v14

[General]
AudioFilename: audio.mp3
AudioLeadIn: 0
PreviewTime: 53431
Countdown: 0
SampleSet: Normal
StackLeniency: 1
Mode: 0
LetterboxInBreaks: 0
WidescreenStoryboard: 0

[Editor]
DistanceSpacing: 1.3
BeatDivisor: 4
GridSize: 4
TimelineZoom: 1

[Metadata]
Title:Self Control
TitleUnicode:Self Control
Artist:Saint Snow
ArtistUnicode:Saint Snow
Creator:-Alne-
Version:Lost Control
Source:ラブライブ!サンシャイン!!
Tags:love live sunshine
BeatmapID:1144632
BeatmapSetID:539753

[Difficulty]
HPDrainRate:6
CircleSize:4
OverallDifficulty:8
ApproachRate:9.5
SliderMultiplier:1.6
SliderTickRate:1

[Events]
//Background and Video events
0,0,"saintsnow.png",0,0
Video,0,"selfcontrol.mp4"
//Break Periods
//Storyboard Layer 0 (Background)
//Storyboard Layer 1 (Fail)
//Storyboard Layer 2 (Pass)
//Storyboard Layer 3 (Foreground)
//Storyboard Sound Samples

[TimingPoints]
2181,500,4,1,0,80,1,0
5459,-76.9230769230769,4,1,0,80,0,0
8709,-76.9230769230769,4,1,0,80,0,0
9459,-55.5555555555556,4,1,1,75,0,0
14959,-55.5555555555556,4,1,1,100,0,0
15459,-55.5555555555556,4,1,1,75,0,0
17459,-55.5555555555556,4,1,1,100,0,0
19459,-100,4,1,1,100,0,0
20209,-100,4,1,1,100,0,0
20709,-100,4,1,1,80,0,0
21959,-55.5555555555556,4,1,1,100,0,0
22084,-100,4,1,1,80,0,0
22959,-55.5555555555556,4,1,1,100,0,0
23209,-100,4,1,1,80,0,0
23959,-76.9230769230769,4,1,1,100,0,0
24209,-100,4,1,1,80,0,0
24459,-100,4,1,1,80,0,0
24709,-100,4,1,1,85,0,0
24959,-100,4,1,1,100,0,0
25209,-55.5555555555556,4,1,1,95,0,0
25459,-100,4,1,1,80,0,0
25709,-76.9230769230769,4,1,1,80,0,0
25959,-76.9230769230769,4,1,1,100,0,0
26209,-76.9230769230769,4,1,1,80,0,0
26459,-100,4,1,1,80,0,0
26959,-66.6666666666667,4,1,1,100,0,0
27209,-76.9230769230769,4,1,1,80,0,0
27959,-76.9230769230769,4,1,1,100,0,0
28209,-76.9230769230769,4,1,1,80,0,0
28709,-76.9230769230769,4,1,1,100,0,0
29209,-76.9230769230769,4,1,1,100,0,0
29459,-76.9230769230769,4,1,1,80,0,0
29709,-100,4,1,1,80,0,0
30209,-100,4,1,1,100,0,0
30709,-100,4,1,1,100,0,0
30959,-100,4,1,1,80,0,0
32459,-76.9230769230769,4,1,1,80,0,0
32959,-100,4,1,1,80,0,0
33209,-100,4,1,1,85,0,0
33459,-100,4,1,1,90,0,0
33709,-100,4,1,1,80,0,0
34959,-100,4,1,1,100,0,0
35209,-100,4,1,1,80,0,0
42459,-66.6666666666667,4,1,1,80,0,0
42959,-100,4,1,1,80,0,0
44709,-100,4,1,1,80,0,0
45209,-100,4,1,1,100,0,0
45459,-100,4,1,1,80,0,0
46209,-133.333333333333,4,1,1,80,0,0
46584,-76.9230769230769,4,1,1,80,0,0
47334,-66.6666666666667,4,1,1,80,0,0
47834,-100,4,1,1,80,0,0
48209,-66.6666666666667,4,1,1,80,0,0
48584,-100,4,1,1,80,0,0
48959,-66.6666666666667,4,1,1,80,0,0
53459,-55.5555555555556,4,1,1,80,0,1
56959,-55.5555555555556,4,1,1,100,0,1
57209,-55.5555555555556,4,1,1,80,0,1
57459,-55.5555555555556,4,1,1,100,0,1
57709,-55.5555555555556,4,1,1,80,0,1
58459,-55.5555555555556,4,1,1,100,0,1
59459,-55.5555555555556,4,1,1,80,0,1
64709,-55.5555555555556,4,1,1,100,0,1
64959,-55.5555555555556,4,1,1,100,0,1
65209,-55.5555555555556,4,1,1,100,0,1
65459,-55.5555555555556,4,1,1,100,0,1
65709,-55.5555555555556,4,1,1,80,0,1
66209,-66.6666666666667,4,1,1,80,0,1
66459,-55.5555555555556,4,1,1,80,0,1
70959,-55.5555555555556,4,1,1,100,0,1
71084,-55.5555555555556,4,1,1,80,0,1
71209,-55.5555555555556,4,1,1,100,0,1
71459,-55.5555555555556,4,1,1,80,0,1
71709,-55.5555555555556,4,1,1,80,0,1
72959,-55.5555555555556,4,1,1,100,0,1
73459,-55.5555555555556,4,1,1,80,0,1
79459,-55.5555555555556,4,1,1,100,0,1
80209,-100,4,1,1,80,0,0

[HitObjects]
156,104,2181,6,0,P|128:156|132:164,1,40
120,344,2556,1,0,0:0:0:0:
376,224,2806,2,0,L|328:228,2,40
416,48,3306,1,0,0:0:0:0:
236,132,3556,2,0,P|196:152|184:176,1,40
88,160,3806,2,0,L|60:120,2,40
156,264,4181,5,0,0:0:0:0:
312,328,4306,1,0,0:0:0:0:
152,216,4556,1,0,0:0:0:0:
448,152,4806,2,0,L|392:128,1,40
252,88,5056,1,0,0:0:0:0:
88,244,5306,1,0,0:0:0:0:
120,72,5556,2,0,L|60:60,4,51.999997619629
216,116,6181,5,0,0:0:0:0:
224,236,6306,2,0,L|276:276,1,51.999997619629
364,292,6556,1,0,0:0:0:0:
348,176,6681,1,0,0:0:0:0:
168,188,6806,6,0,L|136:140,1,51.999997619629
72,40,7056,1,0,0:0:0:0:
92,208,7181,1,0,0:0:0:0:
40,128,7306,1,0,0:0:0:0:
192,64,7431,1,0,0:0:0:0:
272,116,7556,1,0,0:0:0:0:
160,48,7681,1,0,0:0:0:0:
268,80,7806,1,0,0:0:0:0:
140,40,7931,1,0,0:0:0:0:
104,200,8181,6,0,P|144:248|172:244,1,51.999997619629
248,304,8431,1,0,0:0:0:0:
376,216,8556,1,0,0:0:0:0:
248,304,8681,1,0,0:0:0:0:
192,136,8806,2,0,P|136:152|132:160,1,51.999997619629
36,176,9056,2,0,L|48:236,1,51.999997619629
124,332,9306,5,0,0:0:0:0:
404,72,9431,1,0,0:0:0:0:
88,276,9556,1,0,0:0:0:0:
444,120,9681,2,0,B|428:200|428:200|360:180,1,143.999995605469
228,108,10181,5,0,0:0:0:0:
120,252,10431,1,0,0:0:0:0:
240,308,10556,1,0,0:0:0:0:
152,200,10681,1,0,0:0:0:0:
104,116,10806,2,0,P|48:168|48:180,1,71.9999978027344
44,312,11056,1,0,0:0:0:0:
196,296,11181,2,0,P|276:292|276:296,1,71.9999978027344
336,296,11431,1,0,0:0:0:0:
428,164,11556,1,0,0:0:0:0:
300,164,11681,1,0,0:0:0:0:
452,288,11806,2,0,L|376:256,1,71.9999978027344
220,232,12056,5,0,0:0:0:0:
144,192,12181,2,0,P|104:256|112:260,1,71.9999978027344
36,332,12431,1,0,0:0:0:0:
204,280,12556,1,0,0:0:0:0:
160,364,12681,1,0,0:0:0:0:
356,316,12806,2,0,P|432:296|432:288,1,71.9999978027344
480,252,13056,1,0,0:0:0:0:
396,100,13181,1,0,0:0:0:0:
440,304,13306,1,0,0:0:0:0:
460,112,13431,1,0,0:0:0:0:
328,212,13556,1,0,0:0:0:0:
476,180,13681,2,0,P|400:188|392:200,1,71.9999978027344
336,284,13931,1,0,0:0:0:0:
224,216,14056,1,0,0:0:0:0:
248,68,14181,1,0,0:0:0:0:
128,180,14306,5,0,0:0:0:0:
40,352,14431,2,0,L|28:272,1,71.9999978027344
48,144,14681,1,0,0:0:0:0:
340,172,14806,1,0,0:0:0:0:
272,52,14931,1,0,0:0:0:0:
296,280,15056,1,0,0:0:0:0:
356,88,15181,1,0,0:0:0:0:
260,224,15306,1,0,0:0:0:0:
324,28,15431,1,0,0:0:0:0:
296,280,15556,1,0,0:0:0:0:
356,88,15681,1,0,0:0:0:0:
228,296,15806,1,0,0:0:0:0:
424,272,15931,2,0,L|384:204,1,71.9999978027344
192,100,16181,5,0,0:0:0:0:
76,188,16431,2,0,L|36:268,2,71.9999978027344
216,280,16931,1,0,0:0:0:0:
304,120,17056,1,0,0:0:0:0:
184,208,17181,1,0,0:0:0:0:
252,64,17306,1,0,0:0:0:0:
264,332,17431,1,0,0:0:0:0:
296,192,17556,1,0,0:0:0:0:
360,64,17681,1,0,0:0:0:0:
200,264,17806,6,0,P|112:248|112:240,2,71.9999978027344
216,152,18181,1,0,0:0:0:0:
180,40,18306,1,0,0:0:0:0:
304,208,18556,1,0,0:0:0:0:
72,168,18806,1,0,0:0:0:0:
184,172,18931,1,0,0:0:0:0:
92,108,19056,1,0,0:0:0:0:
284,76,19306,1,0,0:0:0:0:
132,164,19556,2,0,L|88:200,2,40
156,76,19931,1,0,0:0:0:0:
216,244,20056,1,0,0:0:0:0:
56,272,20181,6,0,P|72:316|80:324,1,40
224,352,20556,1,0,0:0:0:0:
312,88,20806,1,0,0:0:0:0:
220,176,20931,1,0,0:0:0:0:
396,48,21056,1,0,0:0:0:0:
400,196,21306,2,0,P|412:248|400:272,1,80
348,304,21681,1,0,0:0:0:0:
140,228,21806,1,0,0:0:0:0:
348,304,21931,1,0,0:0:0:0:
140,228,22056,1,0,0:0:0:0:
284,192,22181,6,0,P|232:172|224:152,1,80
288,24,22681,1,0,0:0:0:0:
88,64,22931,2,0,L|48:112,1,40
112,264,23431,1,0,0:0:0:0:
232,272,23681,2,0,P|268:324|304:328,1,80
372,124,24181,2,0,L|268:140,1,103.999995239258
104,216,24681,1,0,0:0:0:0:
252,328,24931,1,0,0:0:0:0:
408,268,25056,1,0,0:0:0:0:
296,100,25306,1,0,0:0:0:0:
144,192,25556,1,0,0:0:0:0:
284,272,25681,1,0,0:0:0:0:
188,288,25806,1,0,0:0:0:0:
328,168,25931,1,0,0:0:0:0:
64,276,26056,1,0,0:0:0:0:
68,192,26181,6,0,P|32:152|36:128,1,51.999997619629
84,32,26431,1,0,0:0:0:0:
224,80,26681,2,0,P|184:116|188:136,1,80
220,264,27056,2,0,L|296:296,1,60.0000022888184
488,224,27431,1,0,0:0:0:0:
384,216,27556,1,0,0:0:0:0:
88,280,27806,1,0,0:0:0:0:
76,172,27931,1,0,0:0:0:0:
216,240,28181,6,0,P|232:304|264:296,1,103.999995239258
400,104,28681,1,0,0:0:0:0:
128,260,28931,1,0,0:0:0:0:
216,36,29056,1,0,0:0:0:0:
128,260,29181,1,0,0:0:0:0:
216,36,29306,1,0,0:0:0:0:
128,260,29431,1,0,0:0:0:0:
348,248,29681,2,0,P|316:288|292:284,1,51.999997619629
208,312,29931,1,0,0:0:0:0:
116,200,30056,1,0,0:0:0:0:
200,224,30181,1,0,0:0:0:0:
332,132,30431,6,0,L|300:164,1,40
108,304,30681,1,0,0:0:0:0:
144,140,30931,1,0,0:0:0:0:
280,240,31056,1,0,0:0:0:0:
84,120,31181,2,0,P|56:156|60:164,1,40
48,312,31431,1,0,0:0:0:0:
100,32,31556,1,0,0:0:0:0:
268,112,31681,2,0,L|336:128,1,40
332,220,31931,2,0,P|284:244|248:244,1,80
136,208,32306,5,0,0:0:0:0:
172,96,32431,1,0,0:0:0:0:
260,44,32556,1,0,0:0:0:0:
252,216,32681,1,0,0:0:0:0:
264,336,32806,6,0,P|320:348|368:332,1,103.999995239258
412,260,33181,1,0,0:0:0:0:
184,144,33306,1,0,0:0:0:0:
128,240,33431,1,0,0:0:0:0:
288,224,33556,1,0,0:0:0:0:
188,320,33681,1,0,0:0:0:0:
288,320,33806,1,0,0:0:0:0:
316,144,33931,2,0,P|272:112|276:84,1,80
388,32,34431,5,0,0:0:0:0:
128,212,34681,1,0,0:0:0:0:
224,92,34931,1,0,0:0:0:0:
360,228,35056,1,0,0:0:0:0:
192,308,35306,1,0,0:0:0:0:
308,108,35431,1,0,0:0:0:0:
132,268,35681,1,0,0:0:0:0:
376,120,35931,1,0,0:0:0:0:
68,92,36181,6,0,P|76:152|92:164,1,80
288,224,36681,1,0,0:0:0:0:
392,84,36931,2,0,L|336:88,1,40
144,192,37306,1,0,0:0:0:0:
96,280,37431,1,0,0:0:0:0:
160,160,37556,1,0,0:0:0:0:
76,312,37681,1,0,0:0:0:0:
172,128,37806,1,0,0:0:0:0:
64,336,37931,1,0,0:0:0:0:
188,100,38056,1,0,0:0:0:0:
44,368,38181,1,0,0:0:0:0:
220,336,38431,6,0,P|268:336|312:312,1,80
372,124,38931,1,0,0:0:0:0:
112,168,39181,2,0,P|84:204|104:232,1,80
368,324,39681,1,0,0:0:0:0:
316,64,39931,1,0,0:0:0:0:
112,184,40181,2,0,P|144:228|184:244,1,80
396,244,40681,5,0,0:0:0:0:
144,108,40931,1,0,0:0:0:0:
72,316,41056,1,0,0:0:0:0:
212,160,41181,1,0,0:0:0:0:
212,320,41306,1,0,0:0:0:0:
256,48,41431,1,0,0:0:0:0:
296,248,41556,1,0,0:0:0:0:
348,92,41681,1,0,0:0:0:0:
432,336,41931,1,0,0:0:0:0:
200,180,42181,6,0,P|184:228|140:232,1,80
80,308,42681,2,0,P|40:248|64:200,1,120.000004577637
256,56,43181,2,0,P|308:92|336:128,1,80
272,272,43681,2,0,L|184:316,1,80
96,208,44181,2,0,L|124:128,1,80
392,180,44681,1,0,0:0:0:0:
160,340,44931,5,0,0:0:0:0:
8,200,45056,1,0,0:0:0:0:
180,232,45181,1,0,0:0:0:0:
88,72,45306,1,0,0:0:0:0:
300,256,45431,1,0,0:0:0:0:
336,116,45681,2,0,L|376:156,3,40
240,152,46181,5,0,0:0:0:0:
72,252,46431,1,0,0:0:0:0:
232,352,46681,2,0,P|320:348|340:332,1,103.999995239258
468,164,47181,1,0,0:0:0:0:
108,252,47431,1,0,0:0:0:0:
92,68,47681,2,0,P|128:120|156:124,1,60.0000022888184
216,128,47931,1,0,0:0:0:0:
460,272,48181,6,0,P|416:300|364:296,1,80
156,308,48681,1,0,0:0:0:0:
252,52,48931,1,0,0:0:0:0:
296,272,49056,1,0,0:0:0:0:
312,120,49181,1,0,0:0:0:0:
152,172,49306,1,0,0:0:0:0:
380,208,49431,1,0,0:0:0:0:
88,80,49681,1,0,0:0:0:0:
48,280,49931,2,0,P|92:336|148:340,1,120.000004577637
168,184,50431,5,0,0:0:0:0:
424,80,50681,1,0,0:0:0:0:
340,288,50931,2,0,L|216:336,1,120.000004577637
116,224,51431,1,0,0:0:0:0:
256,68,51681,1,0,0:0:0:0:
424,188,51931,1,0,0:0:0:0:
312,144,52056,1,0,0:0:0:0:
352,280,52181,1,0,0:0:0:0:
168,152,52431,5,0,0:0:0:0:
228,328,52556,1,0,0:0:0:0:
100,132,52681,1,0,0:0:0:0:
184,380,52806,1,0,0:0:0:0:
112,192,52931,1,0,0:0:0:0:
164,320,53056,1,0,0:0:0:0:
248,220,53181,1,0,0:0:0:0:
400,84,53681,6,0,B|384:172|384:172|296:172|296:172|216:88,1,287.999991210938
188,232,54431,2,0,P|128:288|184:292,1,143.999995605469
284,364,54931,1,0,0:0:0:0:
416,148,55181,1,0,0:0:0:0:
292,232,55431,1,0,0:0:0:0:
168,88,55556,1,0,0:0:0:0:
196,304,55681,1,0,0:0:0:0:
96,184,55806,1,0,0:0:0:0:
316,332,55931,1,0,0:0:0:0:
336,176,56181,6,0,P|256:180|240:120,1,143.999995605469
388,48,56681,1,0,0:0:0:0:
192,116,56931,2,0,L|148:188,1,71.9999978027344
80,300,57181,1,0,0:0:0:0:
312,320,57306,2,0,P|384:288|372:268,1,71.9999978027344
460,220,57556,1,0,0:0:0:0:
372,128,57681,1,0,0:0:0:0:
136,76,57931,2,0,P|68:108|56:132,1,71.9999978027344
40,224,58181,1,0,0:0:0:0:
168,300,58431,5,0,0:0:0:0:
408,144,58681,1,0,0:0:0:0:
272,56,58931,1,0,0:0:0:0:
188,240,59056,1,0,0:0:0:0:
104,56,59306,2,0,L|152:116,1,71.9999978027344
248,184,59556,1,0,0:0:0:0:
100,288,59681,1,0,0:0:0:0:
452,100,59931,1,0,0:0:0:0:
136,64,60181,1,0,0:0:0:0:
344,268,60431,6,0,P|252:280|220:240,1,143.999995605469
223,247,60806,2,0,P|226:153|270:117,1,143.999995605469
259,122,61181,2,0,P|349:124|352:188,1,143.999995605469
368,168,61556,2,0,P|384:232|312:260,1,143.999995605469
292,196,61931,1,0,0:0:0:0:
292,196,62181,1,0,0:0:0:0:
68,72,62431,6,0,P|28:144|64:188,1,143.999995605469
200,212,62931,1,0,0:0:0:0:
408,104,63181,1,0,0:0:0:0:
132,308,63431,1,0,0:0:0:0:
276,116,63556,1,0,0:0:0:0:
104,196,63681,1,0,0:0:0:0:
276,116,63806,1,0,0:0:0:0:
120,68,63931,1,0,0:0:0:0:
296,268,64181,6,0,P|276:344|284:352,1,71.9999978027344
368,364,64431,1,0,0:0:0:0:
456,156,64681,1,0,0:0:0:0:
240,72,64931,1,0,0:0:0:0:
108,188,65056,1,0,0:0:0:0:
340,136,65181,1,0,0:0:0:0:
124,92,65306,1,0,0:0:0:0:
304,216,65431,1,0,0:0:0:0:
88,296,65681,1,0,0:0:0:0:
184,132,65931,1,0,0:0:0:0:
400,88,66056,1,0,0:0:0:0:
208,192,66181,1,0,0:0:0:0:
400,188,66431,6,0,P|372:248|344:252,1,60.0000022888184
252,248,66681,1,0,0:0:0:0:
148,144,66931,1,0,0:0:0:0:
92,232,67056,1,0,0:0:0:0:
360,80,67306,1,0,0:0:0:0:
424,224,67431,1,0,0:0:0:0:
256,60,67556,1,0,0:0:0:0:
488,152,67681,1,0,0:0:0:0:
144,36,67806,1,0,0:0:0:0:
144,216,67931,2,0,P|108:280|160:320,1,143.999995605469
352,232,68431,6,0,L|212:296,1,143.999995605469
156,240,68806,2,0,L|84:208,1,71.9999978027344
332,76,69181,2,0,L|184:56,1,143.999995605469
120,108,69556,2,0,L|32:148,1,71.9999978027344
28,220,69806,1,0,0:0:0:0:
92,296,69931,1,0,0:0:0:0:
192,320,70056,1,0,0:0:0:0:
288,264,70181,6,0,P|368:264|400:208,1,143.999995605469
372,120,70556,1,0,0:0:0:0:
268,96,70681,1,0,0:0:0:0:
180,132,70806,1,0,0:0:0:0:
140,228,70931,1,0,0:0:0:0:
108,328,71056,2,0,P|176:360|240:332,1,143.999995605469
384,228,71556,1,0,0:0:0:0:
300,96,71681,1,0,0:0:0:0:
120,160,71931,1,0,0:0:0:0:
64,248,72181,6,0,L|120:300,1,71.9999978027344
224,304,72431,1,0,0:0:0:0:
324,232,72556,1,0,0:0:0:0:
208,100,72681,1,0,0:0:0:0:
392,128,72806,1,0,0:0:0:0:
208,204,72931,1,0,0:0:0:0:
320,60,73056,1,0,0:0:0:0:
324,232,73181,6,0,P|280:304|280:316,1,71.9999978027344
404,360,73431,1,0,0:0:0:0:
448,256,73556,1,0,0:0:0:0:
236,128,73681,2,0,P|156:156|120:208,1,143.999995605469
172,336,74181,6,0,P|248:332|264:324,1,71.9999978027344
392,268,74431,1,0,0:0:0:0:
232,80,74556,1,0,0:0:0:0:
88,268,74681,1,0,0:0:0:0:
392,268,74806,1,0,0:0:0:0:
232,80,74931,1,0,0:0:0:0:
88,268,75056,1,0,0:0:0:0:
252,208,75181,6,0,P|212:280|216:288,1,71.9999978027344
272,344,75431,1,0,0:0:0:0:
440,352,75556,1,0,0:0:0:0:
364,188,75681,2,0,P|416:128|384:64,1,143.999995605469
128,128,76181,6,0,P|136:212|220:240,1,143.999995605469
156,40,76556,1,0,0:0:0:0:
128,128,76681,2,0,P|96:216|144:256,1,143.999995605469
156,40,77056,1,0,0:0:0:0:
128,128,77181,2,0,P|56:208|92:256,1,143.999995605469
156,40,77556,1,0,0:0:0:0:
248,60,77681,5,0,0:0:0:0:
324,120,77806,1,0,0:0:0:0:
368,196,77931,1,0,0:0:0:0:
392,292,78056,1,0,0:0:0:0:
248,304,78181,2,0,P|172:316|116:276,1,143.999995605469
104,116,78681,5,0,0:0:0:0:
352,168,78931,1,0,0:0:0:0:
288,40,79181,1,0,0:0:0:0:
104,300,79431,1,0,0:0:0:0:
376,304,79681,2,0,P|292:336|240:296,1,143.999995605469
328,64,80431,5,0,0:0:0:0:
76,296,80681,1,0,0:0:0:0:
104,104,81181,5,0,0:0:0:0:
212,276,81556,1,0,0:0:0:0:
256,192,81931,1,0,0:0:0:0:
256,192,82181,12,0,84181,0:0:0:0:
332,212,85181,5,0,0:0:0:0:
328,80,85347,1,0,0:0:0:0:
68,92,85514,1,0,0:0:0:0:
252,268,85681,1,0,0:0:0:0:
