osu file format v14

[General]
AudioFilename: audio.mp3
AudioLeadIn: 0
PreviewTime: 54250
Countdown: 0
SampleSet: Soft
StackLeniency: 0.2
Mode: 0
LetterboxInBreaks: 0
WidescreenStoryboard: 1

[Editor]
DistanceSpacing: 1
BeatDivisor: 4
GridSize: 4
TimelineZoom: 1

[Metadata]
Title:SELF CONTROL!!
TitleUnicode:SELF CONTROL!!
Artist:Saint Snow
ArtistUnicode:Saint Snow
Creator:ktgster
Version:Insane
Source:ラブライブ!サンシャイン!!
Tags:hata aki kawada takao lantis 2016 sailing to the sunshine Lovelive! Love Live! School idol project Sunshine!! オリジナルサウンドトラック ost Original Soundtrack season1 episode8 insert song full size フルサイズ ver. version rivals Kazuno Sarah 鹿角聖良 Leah 鹿角理亞 Tano Asami 田野アサミ Satō Satou Hinata 佐藤日向 Aqours Anime Japanese
BeatmapID:2046872
BeatmapSetID:880205

[Difficulty]
HPDrainRate:4.5
CircleSize:4
OverallDifficulty:7
ApproachRate:8.5
SliderMultiplier:1.6
SliderTickRate:1

[Events]
//Background and Video events
0,0,"SS.png",0,0
//Break Periods
2,82950,88000
2,90825,92000
2,158950,162250
//Storyboard Layer 0 (Background)
//Storyboard Layer 1 (Fail)
//Storyboard Layer 2 (Pass)
//Storyboard Layer 3 (Foreground)
//Storyboard Sound Samples

[TimingPoints]
750,500,4,2,1,40,1,0
9875,-100,4,2,1,50,0,0
10750,-100,4,2,1,70,0,0
22750,-100,4,2,1,60,0,0
34750,-100,4,2,1,70,0,0
54250,-333.333333333333,4,2,1,60,0,0
54750,-100,4,2,1,80,0,1
55000,-66.6666666666667,4,2,1,80,0,1
56750,-100,4,2,1,80,0,1
59000,-66.6666666666667,4,2,1,80,0,1
62250,-100,4,2,1,80,0,1
63000,-66.6666666666667,4,2,1,80,0,1
64750,-100,4,2,1,80,0,1
67000,-66.6666666666667,4,2,1,80,0,1
70750,-83.3333333333333,4,2,1,80,0,1
78750,-100,4,2,1,80,0,1
81250,-100,4,2,1,80,0,0
82750,-100,4,2,1,60,0,0
90250,-100,4,2,1,60,0,0
90750,-500,4,2,1,40,0,0
94750,-100,4,2,1,60,0,0
96000,-200,4,2,1,60,0,0
96750,-100,4,2,1,60,0,0
99000,-66.6666666666667,4,2,1,70,0,0
110500,-100,4,2,1,70,0,0
130250,-333.333333333333,4,2,1,60,0,0
130750,-100,4,2,1,80,0,1
131000,-66.6666666666667,4,2,1,80,0,1
132750,-100,4,2,1,80,0,1
135000,-66.6666666666667,4,2,1,80,0,1
138250,-100,4,2,1,80,0,1
139000,-66.6666666666667,4,2,1,80,0,1
140750,-100,4,2,1,80,0,1
143000,-66.6666666666667,4,2,1,80,0,1
146750,-83.3333333333333,4,2,1,80,0,1
154750,-100,4,2,1,80,0,1
157250,-66.6666666666667,4,2,1,80,0,0
158750,-66.6666666666667,4,2,1,60,0,0
163000,-100,4,2,1,60,0,0
166750,-66.6666666666667,4,2,1,70,0,0
178000,-66.6666666666667,4,2,1,70,0,0
189750,-100,4,2,1,70,0,0
192250,-1000,4,2,1,60,0,0
193000,-200,4,2,1,60,0,0
194250,-66.6666666666667,4,2,1,70,0,0
194750,-100,4,2,1,80,0,1
197000,-66.6666666666667,4,2,1,80,0,1
200250,-100,4,2,1,80,0,1
201000,-66.6666666666667,4,2,1,80,0,1
203000,-100,4,2,1,80,0,1
205000,-66.6666666666667,4,2,1,80,0,1
208750,-83.3333333333333,4,2,1,80,0,1
216750,-100,4,2,1,80,0,1
225250,-50,4,2,1,80,0,0
225750,-100,4,2,1,60,0,0
226750,-100,4,2,1,60,0,0
229500,-100,4,2,1,70,0,0
230750,-333.333333333333,4,2,1,5,0,0

[Colours]
Combo1 : 255,136,196
Combo2 : 217,0,217
Combo3 : 255,34,145
Combo4 : 163,70,255

[HitObjects]
70,55,2750,5,0,3:0:0:0:
70,55,2875,1,0,0:0:0:0:
101,128,3125,1,0,3:0:0:0:
54,193,3375,2,0,L|12:199,2,40,0|0|0,0:0|3:0|0:0,0:0:0:0:
114,253,3875,1,0,3:0:0:0:
181,209,4125,1,0,0:0:0:0:
187,169,4250,1,0,3:0:0:0:
217,195,4375,1,0,0:0:0:0:
233,231,4500,1,0,3:0:0:0:
233,270,4625,1,0,0:0:0:0:
212,304,4750,5,0,3:0:0:0:
251,300,4875,1,0,3:0:0:0:
313,351,5125,1,0,3:0:0:0:
360,286,5375,2,0,L|402:280,2,40,0|0|0,0:0|3:0|0:0,0:0:0:0:
300,226,5875,1,0,3:0:0:0:
233,270,6125,1,0,0:0:0:0:
227,310,6250,1,0,3:0:0:0:
197,284,6375,1,0,0:0:0:0:
181,248,6500,1,0,3:0:0:0:
181,209,6625,1,0,0:0:0:0:
202,175,6750,1,0,3:0:0:0:
88,110,7000,6,0,L|73:20,2,80,0|0|0,0:0|0:0|0:0,0:0:0:0:
88,110,7625,1,0,3:0:0:0:
183,211,7875,5,0,0:0:0:0:
228,244,8000,1,0,3:0:0:0:
284,244,8125,1,0,0:0:0:0:
329,211,8250,1,0,0:0:0:0:
256,88,8500,1,0,0:0:0:0:
424,110,9000,6,0,L|439:20,2,80,0|0|0,0:0|0:0|0:0,0:0:0:0:
424,110,9625,1,0,1:0:0:0:
329,211,9875,5,8,1:3:0:0:
275,185,10000,1,8,1:3:0:0:
223,214,10125,1,8,1:3:0:0:
169,188,10250,2,0,P|152:152|164:96,1,80,8|0,1:2|0:0,0:0:0:0:
354,74,10750,6,0,P|375:149|329:211,1,160,4|8,1:0|0:0,0:0:0:0:
218,163,11500,1,2,0:3:0:0:
176,206,11625,2,0,B|132:220|121:191|111:167|66:184,1,120,2|2,0:3|0:3,0:0:0:0:
15,293,12250,1,8,0:0:0:0:
15,293,12500,1,0,0:0:0:0:
171,347,12750,6,0,P|245:368|307:322,1,160,2|8,0:3|0:0,0:0:0:0:
222,237,13500,1,2,0:3:0:0:
265,195,13625,2,0,B|279:151|250:140|226:130|243:85,1,120,2|2,0:3|0:3,0:0:0:0:
352,36,14250,1,8,0:0:0:0:
477,149,14500,5,8,0:3:0:0:
477,149,14625,1,8,0:3:0:0:
477,149,14750,2,0,P|496:234|471:315,1,160,4|8,1:0|0:0,0:0:0:0:
365,347,15500,1,2,0:3:0:0:
323,304,15625,2,0,B|279:290|268:319|258:343|213:326,1,120,2|2,0:3|0:3,0:0:0:0:
163,215,16250,1,8,0:0:0:0:
163,215,16500,1,0,0:0:0:0:
293,84,16750,6,0,P|367:62|429:108,1,160,2|8,0:3|0:0,0:0:0:0:
344,194,17500,1,2,0:3:0:0:
387,236,17625,2,0,B|401:280|372:291|348:301|365:346,1,120,2|8,0:3|0:3,0:0:0:0:
419,372,18125,1,8,0:3:0:0:
474,348,18250,6,0,L|480:306,1,40,8|8,0:0|0:3,0:0:0:0:
465,229,18500,2,0,L|471:187,1,40,8|8,0:0|0:0,0:0:0:0:
456,110,18750,5,4,1:0:0:0:
456,110,18875,2,0,P|412:97|371:108,1,80,0|0,0:0|0:0,0:0:0:0:
296,133,19375,1,0,0:0:0:0:
296,133,19500,1,0,0:0:0:0:
296,133,19625,2,0,P|256:139|219:126,1,80,0|0,0:0|0:0,0:0:0:0:
142,83,20125,1,0,0:0:0:0:
110,114,20250,2,0,L|116:156,1,40,0|0,0:0|0:0,0:0:0:0:
84,184,20500,2,0,L|90:226,1,40,0|0,0:0|0:0,0:0:0:0:
58,254,20750,5,0,1:0:0:0:
64,297,20875,1,0,0:0:0:0:
135,348,21125,1,0,0:0:0:0:
197,285,21375,1,0,0:0:0:0:
203,242,21500,1,8,1:2:0:0:
209,199,21625,1,2,0:3:0:0:
271,136,21875,1,2,0:3:0:0:
333,198,22125,1,2,0:3:0:0:
339,241,22250,5,8,1:2:0:0:
375,217,22375,1,8,1:2:0:0:
391,176,22500,1,8,1:2:0:0:
386,132,22625,1,8,1:2:0:0:
359,96,22750,1,4,1:0:0:0:
181,52,23000,6,0,L|78:37,2,80,0|8|2,0:0|1:2|0:3,0:0:0:0:
223,94,23625,2,0,B|237:138|208:149|184:159|201:204,1,120,2|2,0:3|0:3,0:0:0:0:
269,303,24250,1,8,1:2:0:0:
269,303,24500,1,0,0:0:0:0:
330,134,24750,6,0,P|369:126|412:137,1,80,2|0,0:3|0:0,0:0:0:0:
492,219,25250,1,8,1:2:0:0:
447,332,25500,1,2,0:3:0:0:
447,332,25625,2,0,L|367:342,1,80,2|0,0:3|0:0,0:0:0:0:
312,319,26000,2,0,P|290:284|287:247,1,80,2|8,0:3|1:2,0:0:0:0:
347,146,26500,1,2,0:3:0:0:
347,146,26625,1,8,0:3:0:0:
347,146,26750,1,2,0:3:0:0:
198,85,27000,6,0,L|213:-18,2,80,0|8|2,0:0|1:2|0:3,0:0:0:0:
155,127,27625,2,0,B|111:141|100:112|90:88|45:105,1,120,2|2,0:3|0:3,0:0:0:0:
10,220,28250,1,8,1:2:0:0:
10,220,28500,1,0,0:0:0:0:
149,341,28750,6,0,P|189:346|243:328,2,80,2|0|8,0:3|0:0|1:2,0:0:0:0:
50,272,29500,1,2,0:3:0:0:
92,229,29625,2,0,L|102:149,1,80,2|0,0:3|0:0,0:0:0:0:
144,107,30000,1,2,0:3:0:0:
221,198,30250,1,8,1:2:0:0:
324,135,30500,1,8,1:2:0:0:
358,183,30625,1,8,1:2:0:0:
335,238,30750,1,4,1:0:0:0:
474,253,31000,6,0,L|459:356,2,80,0|8|2,0:0|1:2|0:3,0:0:0:0:
431,210,31625,2,0,B|417:166|446:155|470:145|453:100,1,120,2|2,0:3|0:3,0:0:0:0:
369,12,32250,1,8,1:2:0:0:
369,12,32500,1,0,0:0:0:0:
304,159,32750,6,0,L|289:262,1,80,2|0,0:3|0:0,0:0:0:0:
207,323,33250,1,8,1:2:0:0:
147,218,33500,1,2,0:3:0:0:
104,260,33625,2,0,L|94:340,1,80,2|0,0:3|0:0,0:0:0:0:
51,381,34000,1,8,0:3:0:0:
6,265,34250,1,8,1:2:0:0:
71,95,34500,5,0,0:0:0:0:
71,95,34625,1,8,0:3:0:0:
71,95,34750,2,0,P|124:37|212:42,1,160,4|8,1:0|1:2,0:0:0:0:
305,96,35500,1,2,0:3:0:0:
355,128,35625,2,0,P|393:143|444:133,2,80,2|0|0,0:3|0:0|0:0,0:0:0:0:
305,96,36250,1,8,1:2:0:0:
190,130,36500,1,0,0:0:0:0:
141,239,36750,6,0,L|152:319,1,80,4|0,1:0|0:0,0:0:0:0:
259,371,37250,1,8,1:2:0:0:
331,277,37500,1,2,0:3:0:0:
311,220,37625,2,0,P|277:213|215:227,1,80,4|2,1:0|0:3,0:0:0:0:
190,176,38000,2,0,L|197:120,1,40,2|2,0:3|0:3,0:0:0:0:
209,65,38250,5,8,1:2:0:0:
278,44,38375,1,8,1:2:0:0:
347,61,38500,1,8,1:2:0:0:
390,118,38625,1,8,1:2:0:0:
401,189,38750,6,0,L|390:269,2,80,4|0|8,1:0|0:0|1:2,0:0:0:0:
503,86,39500,1,2,0:3:0:0:
503,86,39625,1,2,0:3:0:0:
503,86,40000,1,2,0:3:0:0:
382,54,40250,2,0,P|342:56|290:87,1,80,8|0,1:2|0:0,0:0:0:0:
111,189,40750,6,0,L|122:269,2,80,4|0|8,1:0|0:0|1:2,0:0:0:0:
9,86,41500,1,2,0:3:0:0:
9,86,41625,1,2,0:3:0:0:
9,86,42000,1,2,0:3:0:0:
130,54,42250,2,0,P|170:56|222:87,1,80,8|8,1:2|0:3,0:0:0:0:
273,111,42625,1,8,0:3:0:0:
273,111,42750,6,0,P|289:74|291:35,1,80,4|0,1:0|0:0,0:0:0:0:
469,161,43250,2,0,P|429:162|393:179,1,80,8|4,1:2|0:3,0:0:0:0:
343,213,43625,2,0,P|303:227|210:218,1,120,4|0,1:0|3:0,0:0:0:0:
117,174,44250,1,8,1:2:0:0:
117,174,44500,1,0,0:0:0:0:
62,314,44750,6,0,L|142:303,1,80,4|0,1:0|0:0,0:0:0:0:
253,346,45250,1,8,1:2:0:0:
224,207,45500,1,2,0:3:0:0:
182,163,45625,2,0,P|175:126|186:78,1,80,4|8,1:0|1:2,0:0:0:0:
225,42,46000,2,0,L|265:47,1,40,2|2,0:3|0:3,0:0:0:0:
335,62,46250,5,8,1:2:0:0:
391,106,46375,1,8,1:2:0:0:
410,175,46500,1,8,1:2:0:0:
381,240,46625,1,8,1:2:0:0:
313,265,46750,6,0,L|233:254,1,80,4|0,1:0|0:0,0:0:0:0:
182,202,47125,1,0,0:0:0:0:
182,202,47250,1,8,1:2:0:0:
54,292,47500,6,0,L|62:351,1,40,2|2,0:3|0:3,0:0:0:0:
132,358,47750,1,0,0:0:0:0:
132,358,47875,1,0,0:0:0:0:
357,353,48250,5,8,1:2:0:0:
357,353,48500,1,0,0:0:0:0:
439,222,48750,6,0,B|383:202|363:234|351:274|291:251,1,160,4|8,1:0|1:2,0:0:0:0:
203,169,49500,1,2,0:3:0:0:
203,169,49625,1,2,0:3:0:0:
203,169,49750,1,0,0:0:0:0:
317,134,50000,1,2,0:3:0:0:
229,52,50250,2,0,P|188:40|144:49,1,80,8|8,1:2|0:3,0:0:0:0:
93,88,50625,1,8,0:3:0:0:
93,88,50750,6,0,L|13:77,2,80,4|0|8,1:0|0:0|1:2,0:0:0:0:
194,189,51500,1,2,0:3:0:0:
236,231,51625,2,0,B|250:275|221:286|197:296|214:341,1,120,2|2,0:3|0:3,0:0:0:0:
330,372,52250,1,8,1:2:0:0:
446,342,52500,1,0,0:0:0:0:
473,275,52625,1,8,0:0:0:0:
450,206,52750,5,4,1:0:0:0:
309,175,53000,1,8,1:2:0:0:
405,73,53250,2,0,L|388:152,1,80,8|2,1:2|0:3,0:0:0:0:
372,230,53625,1,8,1:2:0:0:
372,230,54250,5,8,1:2:0:0:
372,230,54750,1,4,1:0:0:0:
162,330,55000,6,0,B|117:322|117:322|88:338|88:338|36:330,2,120.000004577637,0|8|2,0:0|1:2|0:3,0:0:0:0:
217,274,55625,1,2,0:3:0:0:
161,218,55750,2,0,B|128:170|128:170|165:105,1,120.000004577637,0|2,0:0|0:3,0:0:0:0:
208,56,56125,1,0,0:0:0:0:
263,111,56250,2,0,B|308:119|308:119|337:103|337:103|389:111,2,120.000004577637,8|0|2,1:2|0:0|0:3,0:0:0:0:
101,43,57000,6,0,L|-2:28,2,80,0|8|2,0:0|1:2|0:3,0:0:0:0:
143,85,57625,2,0,B|157:129|128:140|104:150|121:195,1,120,2|2,0:3|0:3,0:0:0:0:
173,303,58250,1,8,1:2:0:0:
173,303,58500,1,0,0:0:0:0:
241,204,58750,1,4,1:0:0:0:
440,245,59000,6,0,B|448:290|448:290|432:319|432:319|440:371,2,120.000004577637,0|8|2,0:0|1:2|0:3,0:0:0:0:
491,185,59625,2,0,B|442:152|442:152|377:192,1,120.000004577637,2|0,0:3|0:0,0:0:0:0:
326,230,60000,1,0,0:0:0:0:
257,266,60125,1,0,0:0:0:0:
189,226,60250,2,0,B|144:218|144:218|115:234|115:234|63:226,2,120.000004577637,8|0|2,1:2|0:2|0:3,0:0:0:0:
320,352,61000,6,0,B|365:360|365:360|394:344|394:344|446:352,1,120.000004577637,0|0,0:3|1:0,0:0:0:0:
428,271,61375,2,0,B|387:264|387:264|358:280|358:280|313:272,1,120.000004577637,0|2,0:0|0:3,0:0:0:0:
320,352,61750,2,0,B|252:335|252:335|223:262,1,120.000004577637,0|2,0:0|0:3,0:0:0:0:
259,214,62125,1,0,0:0:0:0:
259,214,62250,6,0,P|281:177|285:128,1,80,8|8,1:2|0:3,0:0:0:0:
281,68,62625,1,8,0:3:0:0:
281,68,62750,1,4,1:0:0:0:
91,223,63000,6,0,B|99:268|99:268|83:297|83:297|91:349,2,120.000004577637,0|8|2,0:0|1:2|0:3,0:0:0:0:
147,168,63625,1,2,0:3:0:0:
205,116,63750,2,0,B|238:164|238:164|201:229,1,120.000004577637,0|2,0:0|0:3,0:0:0:0:
168,286,64125,1,0,0:0:0:0:
223,341,64250,2,0,B|268:333|268:333|297:349|297:349|349:341,2,120.000004577637,8|0|2,1:2|0:0|0:3,0:0:0:0:
62,201,65000,6,0,L|47:98,2,80,0|8|2,0:0|1:2|0:3,0:0:0:0:
104,243,65625,2,0,B|148:257|159:228|169:204|214:221,1,120,2|2,0:3|0:3,0:0:0:0:
322,273,66250,1,8,1:2:0:0:
322,273,66500,1,0,0:0:0:0:
223,341,66750,1,4,1:0:0:0:
313,153,67000,6,0,B|321:108|321:108|305:79|305:79|313:27,2,120.000004577637,0|8|0,0:0|1:2|0:0,0:0:0:0:
368,208,67625,2,0,B|399:259|399:259|366:308,1,120.000004577637,2|0,0:3|0:0,0:0:0:0:
236,264,68000,2,0,L|339:249,1,60.0000022888184,2|0,0:3|0:0,0:0:0:0:
247,354,68250,1,8,1:2:0:0:
247,354,68375,2,0,B|202:362|202:362|173:346|173:346|121:354,1,120.000004577637,0|0,0:0|0:0,0:0:0:0:
76,296,68750,1,2,0:3:0:0:
268,193,69000,6,0,B|313:201|313:201|342:185|342:185|394:193,1,120.000004577637,0|0,0:3|1:0,0:0:0:0:
376,112,69375,2,0,B|335:105|335:105|306:121|306:121|261:113,1,120.000004577637,0|2,0:0|0:3,0:0:0:0:
268,193,69750,2,0,L|283:296,1,60.0000022888184,0|2,0:0|0:3,0:0:0:0:
203,281,70000,2,0,L|188:178,1,60.0000022888184,2|2,0:3|0:3,0:0:0:0:
128,178,70250,1,8,1:2:0:0:
128,178,70375,1,8,1:2:0:0:
72,233,70500,1,8,1:2:0:0:
72,233,70625,1,8,1:2:0:0:
31,162,70750,6,0,P|21:103|35:45,1,95.9999970703126,4|0,1:0|0:0,0:0:0:0:
93,29,71125,1,0,0:0:0:0:
147,83,71250,2,0,L|158:162,1,47.9999985351563,8|0,1:2|0:0,0:0:0:0:
207,184,71500,1,2,0:3:0:0:
261,129,71625,2,0,P|281:85|279:38,2,95.9999970703126,2|0|0,0:3|0:0|0:0,0:0:0:0:
207,184,72250,2,0,L|220:268,1,47.9999985351563,8|0,1:2|0:0,0:0:0:0:
314,269,72500,2,0,L|322:209,1,47.9999985351563,0|0,0:0|0:0,0:0:0:0:
481,162,72750,6,0,P|491:103|477:45,1,95.9999970703126,2|0,0:3|0:0,0:0:0:0:
419,29,73125,1,0,0:0:0:0:
365,83,73250,2,0,L|354:162,1,47.9999985351563,8|0,1:2|0:0,0:0:0:0:
305,184,73500,1,2,0:3:0:0:
251,129,73625,2,0,P|231:85|233:38,2,95.9999970703126,2|0|0,0:3|0:0|0:0,0:0:0:0:
305,184,74250,2,0,L|292:268,1,47.9999985351563,8|0,1:2|0:0,0:0:0:0:
198,269,74500,2,0,L|190:209,1,47.9999985351563,0|0,0:0|0:0,0:0:0:0:
141,58,74750,6,0,L|132:117,1,47.9999985351563,4|0,1:0|0:0,0:0:0:0:
79,160,75000,2,0,L|70:220,1,47.9999985351563,0|0,0:0|0:0,0:0:0:0:
126,261,75250,1,8,1:2:0:0:
192,221,75375,1,0,0:0:0:0:
266,239,75500,1,2,0:3:0:0:
315,297,75625,2,0,P|357:332|396:337,2,95.9999970703126,2|0|0,0:3|0:0|0:0,0:0:0:0:
266,239,76250,2,0,L|253:155,1,47.9999985351563,8|0,1:2|0:0,0:0:0:0:
175,314,76500,2,0,L|162:398,1,47.9999985351563,0|0,0:0|0:0,0:0:0:0:
128,192,76750,5,2,0:3:0:0:
384,192,77250,1,8,1:2:0:0:
282,90,77500,1,2,0:3:0:0:
282,90,77625,1,2,0:3:0:0:
282,90,77750,1,0,0:0:0:0:
224,147,77875,6,0,L|211:231,2,47.9999985351563,2|2|2,0:3|0:3|0:3,0:0:0:0:
166,89,78250,1,8,1:2:0:0:
166,89,78375,1,8,1:2:0:0:
108,146,78500,1,8,1:2:0:0:
108,146,78625,1,8,1:2:0:0:
133,223,78750,5,4,1:0:0:0:
379,161,79250,1,8,1:2:0:0:
382,347,79500,5,0,0:0:0:0:
283,313,79750,1,8,1:2:0:0:
197,372,80000,1,0,0:0:0:0:
98,338,80250,1,8,1:2:0:0:
176,269,80500,1,8,1:2:0:0:
176,269,80625,1,4,0:0:0:0:
176,269,81000,5,2,1:3:0:0:
336,115,81250,1,2,1:3:0:0:
256,192,82750,5,4,0:0:0:0:
256,192,88750,5,8,1:2:0:0:
157,244,89500,5,0,1:2:0:0:
165,304,89625,1,8,1:2:0:0:
258,351,89875,1,0,1:2:0:0:
347,304,90125,1,0,1:0:0:0:
355,244,90250,2,0,L|361:202,1,40,8|8,1:2|1:2,0:0:0:0:
436,231,90500,2,0,L|442:189,1,40,8|8,1:2|1:2,0:0:0:0:
256,192,92750,12,0,94750,1:0:0:0:
251,153,96000,6,0,L|262:233,1,80,0|0,0:0|0:0,0:0:0:0:
386,344,96750,5,4,1:2:0:0:
386,344,97000,1,4,1:2:0:0:
476,265,97250,2,0,P|482:233|474:180,1,80,8|8,1:2|1:2,0:0:0:0:
440,124,97625,1,4,1:0:0:0:
316,197,97875,6,0,L|309:245,2,40,0|8|0,1:0|1:2|1:0,0:0:0:0:
281,133,98250,1,0,1:0:0:0:
213,108,98375,1,0,1:0:0:0:
147,137,98500,1,8,1:2:0:0:
122,204,98625,1,8,1:2:0:0:
159,265,98750,1,4,1:0:0:0:
405,209,99000,6,0,B|413:164|413:164|397:135|397:135|405:83,1,120.000004577637,0|8,0:0|1:2,0:0:0:0:
324,94,99375,2,0,B|293:147|293:147|311:206,1,120.000004577637,0|2,0:0|0:3,0:0:0:0:
396,305,99750,1,0,0:0:0:0:
396,305,99875,2,0,B|343:279|343:279|280:293,1,120.000004577637,0|0,0:0|0:0,0:0:0:0:
191,246,100250,2,0,B|183:291|183:291|199:320|199:320|191:372,2,120.000004577637,8|0|2,1:2|0:0|0:3,0:0:0:0:
138,75,101000,6,0,B|191:49|191:49|254:63,1,120.000004577637,0|8,0:0|1:2,0:0:0:0:
171,156,101416,2,0,B|124:164|124:164|77:140,1,100.000003814697,0|2,0:0|0:3,0:0:0:0:
41,70,101750,1,0,0:0:0:0:
41,70,101875,1,0,0:0:0:0:
41,70,102000,2,0,L|30:-3,1,60.0000022888184,2|0,3:0|0:0,0:0:0:0:
4,182,102250,2,0,B|-4:227|-4:227|12:256|12:256|4:308,1,120.000004577637,8|8,1:2|0:3,0:0:0:0:
56,357,102625,1,8,0:3:0:0:
131,339,102750,1,2,0:3:0:0:
144,177,103000,6,0,B|197:151|197:151|260:165,1,120.000004577637,0|8,0:0|1:2,0:0:0:0:
340,81,103375,2,0,B|332:126|332:126|348:155|348:155|340:207,1,120.000004577637,0|2,0:0|0:3,0:0:0:0:
286,251,103750,1,0,0:0:0:0:
341,306,103875,2,0,B|400:319|400:319|453:293,1,120.000004577637,0|0,0:0|0:0,0:0:0:0:
508,238,104250,1,8,1:2:0:0:
442,59,104500,5,0,0:0:0:0:
442,59,104625,1,0,0:0:0:0:
386,114,104750,2,0,B|341:122|341:122|312:106|312:106|260:114,2,120.000004577637,2|0|8,0:3|0:0|1:2,0:0:0:0:
209,50,105416,2,0,B|185:97|185:97|193:144,1,100.000003814697,0|2,0:0|0:3,0:0:0:0:
210,220,105750,5,0,0:0:0:0:
287,231,105875,1,0,0:0:0:0:
364,243,106000,1,2,0:3:0:0:
441,254,106125,1,0,0:0:0:0:
496,199,106250,2,0,L|485:126,1,60.0000022888184,8|0,1:2|0:0,0:0:0:0:
431,84,106500,1,8,1:2:0:0:
431,84,106625,1,8,1:2:0:0:
375,139,106750,1,4,1:0:0:0:
356,293,107000,6,0,L|345:366,1,60.0000022888184,0|0,0:0|0:0,0:0:0:0:
270,371,107250,1,8,1:2:0:0:
247,296,107375,2,0,B|194:270|194:270|135:283,1,120.000004577637,0|2,0:0|0:3,0:0:0:0:
48,363,107750,2,0,B|93:355|93:355|122:371|122:371|174:363,2,120.000004577637,0|2|8,0:0|0:3|1:2,0:0:0:0:
26,191,108500,5,0,0:0:0:0:
26,191,108625,1,0,0:0:0:0:
81,135,108750,2,0,B|134:109|134:109|193:122,1,120.000004577637,2|0,0:3|0:0,0:0:0:0:
249,177,109125,1,0,0:0:0:0:
327,177,109250,1,8,1:2:0:0:
382,232,109375,2,0,B|441:245|441:245|494:219,1,120.000004577637,0|2,0:0|0:3,0:0:0:0:
494,140,109750,5,0,0:0:0:0:
453,73,109875,1,0,0:0:0:0:
376,57,110000,2,0,L|303:68,1,60.0000022888184,2|0,0:3|0:0,0:0:0:0:
255,115,110250,1,8,1:2:0:0:
249,292,110500,5,8,0:3:0:0:
249,292,110625,1,8,0:3:0:0:
249,292,110750,2,0,P|301:349|378:350,1,160,4|8,1:0|1:2,0:0:0:0:
461,272,111500,1,2,0:3:0:0:
493,221,111625,2,0,P|507:185|503:145,2,80,2|0|0,0:3|0:0|0:0,0:0:0:0:
461,272,112250,1,8,1:2:0:0:
379,194,112500,1,0,0:0:0:0:
273,232,112750,6,0,L|262:312,1,80,4|0,1:0|0:0,0:0:0:0:
155,364,113250,1,8,1:2:0:0:
83,270,113500,1,2,0:3:0:0:
103,212,113625,2,0,P|142:205|181:212,1,80,4|2,1:0|0:3,0:0:0:0:
224,169,114000,2,0,L|217:113,1,40,2|2,0:3|0:3,0:0:0:0:
209,58,114250,5,8,1:2:0:0:
140,37,114375,1,8,1:2:0:0:
71,54,114500,1,8,1:2:0:0:
28,111,114625,1,8,1:2:0:0:
17,182,114750,6,0,L|28:262,2,80,4|0|8,1:0|0:0|1:2,0:0:0:0:
137,172,115500,1,2,0:3:0:0:
137,172,115625,1,2,0:3:0:0:
137,172,116000,1,2,0:3:0:0:
214,263,116250,2,0,P|253:270|292:263,1,80,8|0,1:2|0:0,0:0:0:0:
495,182,116750,6,0,L|484:262,2,80,4|0|8,1:0|0:0|1:2,0:0:0:0:
375,172,117500,1,2,0:3:0:0:
375,172,117625,1,2,0:3:0:0:
375,172,118000,1,2,0:3:0:0:
298,263,118250,2,0,P|259:270|220:263,1,80,8|0,1:2|0:0,0:0:0:0:
168,211,118625,1,8,0:3:0:0:
168,211,118750,6,0,P|128:204|89:211,1,80,4|0,1:0|0:0,0:0:0:0:
2,345,119250,2,0,P|41:352|80:345,1,80,8|4,1:2|0:3,0:0:0:0:
138,328,119625,2,0,P|195:312|254:318,1,120,4|0,1:0|3:0,0:0:0:0:
368,356,120250,1,8,1:2:0:0:
368,356,120500,1,0,0:0:0:0:
473,209,120750,6,0,L|462:129,1,80,4|0,1:0|0:0,0:0:0:0:
505,18,121250,1,8,1:2:0:0:
366,47,121500,1,2,0:3:0:0:
322,89,121625,2,0,P|285:96|237:85,1,80,4|8,1:0|1:2,0:0:0:0:
201,45,122000,2,0,L|161:50,1,40,2|2,0:3|0:3,0:0:0:0:
91,66,122250,5,8,1:2:0:0:
35,110,122375,1,8,1:2:0:0:
16,179,122500,1,8,1:2:0:0:
45,244,122625,1,8,1:2:0:0:
113,269,122750,6,0,L|193:258,1,80,4|0,1:0|0:0,0:0:0:0:
243,206,123125,1,0,0:0:0:0:
243,206,123250,1,8,1:2:0:0:
320,370,123500,6,0,L|309:290,1,80,2|0,0:3|0:0,0:0:0:0:
360,240,123875,1,0,0:0:0:0:
357,31,124250,5,8,1:2:0:0:
357,31,124500,1,0,0:0:0:0:
439,162,124750,6,0,B|383:182|363:150|351:110|291:133,1,160,4|8,1:0|1:2,0:0:0:0:
203,215,125500,1,2,0:3:0:0:
203,215,125625,1,2,0:3:0:0:
203,215,125750,1,0,0:0:0:0:
317,250,126000,1,2,0:3:0:0:
229,332,126250,2,0,P|188:344|144:335,1,80,8|8,1:2|0:3,0:0:0:0:
93,296,126625,1,8,0:3:0:0:
93,296,126750,6,0,L|13:307,2,80,4|0|8,1:0|0:0|1:2,0:0:0:0:
194,195,127500,1,2,0:3:0:0:
236,153,127625,2,0,B|250:109|221:98|197:88|214:43,1,120,2|2,0:3|0:3,0:0:0:0:
330,12,128250,1,8,1:2:0:0:
446,42,128500,1,0,0:0:0:0:
473,109,128625,1,8,0:0:0:0:
450,178,128750,5,4,1:0:0:0:
361,342,129125,1,2,0:3:0:0:
292,319,129250,2,0,P|280:278|289:234,1,80,4|2,1:0|0:3,0:0:0:0:
317,177,129625,1,4,1:0:0:0:
317,177,130250,5,8,1:2:0:0:
317,177,130750,1,4,1:0:0:0:
200,42,131000,6,0,B|170:33|170:33|132:43,1,60.0000022888184,0|0,0:0|0:0,0:0:0:0:
86,96,131250,2,0,B|94:141|94:141|78:170|78:170|86:222,1,120.000004577637,8|2,1:2|0:3,0:0:0:0:
139,266,131625,1,2,0:3:0:0:
212,240,131750,2,0,L|227:137,1,60.0000022888184,0|0,0:0|0:0,0:0:0:0:
226,342,132000,1,2,0:3:0:0:
226,342,132125,1,0,0:0:0:0:
226,342,132250,2,0,B|186:336|186:336|157:352|157:352|112:344,2,120.000004577637,8|0|2,1:2|0:0|0:3,0:0:0:0:
413,264,133000,6,0,L|516:249,2,80,0|8|2,0:0|1:2|0:3,0:0:0:0:
370,221,133625,2,0,B|326:207|315:236|305:260|260:243,1,120,2|2,0:3|0:3,0:0:0:0:
152,191,134250,1,8,1:2:0:0:
152,191,134500,1,0,0:0:0:0:
251,123,134750,1,4,1:0:0:0:
370,221,135000,6,0,B|364:261|364:261|380:290|380:290|372:335,2,120.000004577637,0|8|2,0:0|1:2|0:3,0:0:0:0:
425,165,135625,2,0,B|372:139|372:139|309:153,1,120.000004577637,2|0,0:3|0:0,0:0:0:0:
282,286,136000,2,0,L|291:227,1,60.0000022888184,0|0,0:0|0:0,0:0:0:0:
234,171,136250,2,0,B|240:131|240:131|224:102|224:102|232:57,2,120.000004577637,8|0|2,1:2|0:0|0:3,0:0:0:0:
58,248,137000,6,0,B|25:297|25:297|65:362,1,120.000004577637,0|8,0:0|1:2,0:0:0:0:
135,348,137375,2,0,B|168:299|168:299|136:247,1,120.000004577637,0|2,0:0|0:3,0:0:0:0:
58,248,137750,2,0,B|26:196|26:196|59:147,1,120.000004577637,0|2,0:0|0:3,0:0:0:0:
137,147,138125,1,0,0:0:0:0:
137,147,138250,6,0,P|176:153|210:174,1,80,8|8,1:2|0:3,0:0:0:0:
255,237,138625,1,8,0:3:0:0:
255,237,138750,1,4,1:0:0:0:
508,227,139000,6,0,B|517:197|517:197|507:159,1,60.0000022888184,0|0,0:0|0:0,0:0:0:0:
454,113,139250,2,0,B|409:121|409:121|380:105|380:105|328:113,1,120.000004577637,8|2,1:2|0:3,0:0:0:0:
284,166,139625,1,2,0:3:0:0:
228,110,139750,2,0,L|213:7,1,60.0000022888184,0|0,0:0|0:0,0:0:0:0:
209,196,140000,1,2,0:3:0:0:
209,196,140125,1,0,0:0:0:0:
209,196,140250,2,0,B|215:236|215:236|199:265|199:265|207:310,2,120.000004577637,8|0|2,1:2|0:0|0:3,0:0:0:0:
91,42,141000,6,0,L|-12:57,2,80,0|8|2,0:0|1:2|0:3,0:0:0:0:
134,85,141625,2,0,B|178:99|189:70|199:46|244:63,1,120,2|2,0:3|0:3,0:0:0:0:
352,115,142250,1,8,1:2:0:0:
352,115,142500,1,0,0:0:0:0:
253,183,142750,1,4,1:0:0:0:
458,237,143000,6,0,B|452:277|452:277|468:306|468:306|460:351,2,120.000004577637,0|8|0,0:0|1:2|0:0,0:0:0:0:
366,301,143625,2,0,L|381:198,1,60.0000022888184,2|0,0:3|0:0,0:0:0:0:
458,130,143875,2,0,B|409:163|409:163|344:123,1,120.000004577637,0|0,0:0|0:0,0:0:0:0:
301,75,144250,2,0,L|286:-28,1,60.0000022888184,8|0,1:2|0:0,0:0:0:0:
224,126,144500,2,0,L|209:23,1,60.0000022888184,0|0,0:0|0:0,0:0:0:0:
290,178,144750,1,2,0:3:0:0:
454,248,145000,6,0,B|487:297|487:297|447:362,1,120.000004577637,0|8,0:0|1:2,0:0:0:0:
377,348,145375,2,0,B|344:299|344:299|376:247,1,120.000004577637,0|2,0:0|0:3,0:0:0:0:
454,248,145750,2,0,L|469:145,1,60.0000022888184,0|2,0:0|0:3,0:0:0:0:
407,133,146000,2,0,L|392:30,1,60.0000022888184,2|2,0:3|0:3,0:0:0:0:
332,31,146250,1,8,1:2:0:0:
332,31,146375,1,8,1:2:0:0:
276,86,146500,1,8,1:2:0:0:
276,86,146625,1,8,1:2:0:0:
306,159,146750,6,0,L|293:242,1,47.9999985351563,4|0,1:0|0:0,0:0:0:0:
353,261,147000,1,0,0:0:0:0:
210,317,147250,2,0,L|197:233,1,47.9999985351563,8|0,1:2|0:0,0:0:0:0:
130,242,147500,1,2,0:3:0:0:
61,277,147625,2,0,P|41:321|43:368,2,95.9999970703126,2|0|0,0:3|0:0|0:0,0:0:0:0:
130,242,148250,2,0,L|141:163,1,47.9999985351563,8|0,1:2|0:0,0:0:0:0:
30,148,148500,2,0,L|19:69,1,47.9999985351563,0|0,0:0|0:0,0:0:0:0:
155,21,148750,6,0,L|167:104,1,47.9999985351563,2|0,0:3|0:0,0:0:0:0:
222,125,149000,1,0,0:0:0:0:
222,125,149125,1,0,0:0:0:0:
276,70,149250,2,0,P|319:50|366:51,1,95.9999970703126,8|2,1:2|0:3,0:0:0:0:
437,80,149625,2,0,P|457:124|455:171,2,95.9999970703126,2|0|0,0:3|0:0|0:0,0:0:0:0:
366,51,150250,2,0,L|353:134,1,47.9999985351563,8|0,1:2|0:0,0:0:0:0:
276,195,150500,2,0,L|263:111,1,47.9999985351563,0|0,0:0|0:0,0:0:0:0:
394,247,150750,6,0,L|381:331,1,47.9999985351563,4|0,1:0|0:0,0:0:0:0:
332,348,151000,1,0,0:0:0:0:
332,348,151125,1,0,0:0:0:0:
255,337,151250,2,0,L|242:253,1,47.9999985351563,8|0,1:2|0:0,0:0:0:0:
193,235,151500,1,2,0:3:0:0:
142,292,151625,2,0,P|98:312|51:310,2,95.9999970703126,2|0|0,0:3|0:0|0:0,0:0:0:0:
193,235,152250,1,8,1:2:0:0:
54,168,152500,1,0,0:0:0:0:
181,82,152750,5,2,0:3:0:0:
331,302,153250,1,8,1:2:0:0:
199,223,153500,1,2,0:3:0:0:
199,223,153625,1,2,0:3:0:0:
199,223,153750,1,0,0:0:0:0:
257,166,153875,6,0,L|270:82,2,47.9999985351563,2|2|2,0:3|0:3|0:3,0:0:0:0:
315,224,154250,1,8,1:2:0:0:
315,224,154375,1,8,1:2:0:0:
372,167,154500,1,8,1:2:0:0:
372,167,154625,1,8,1:2:0:0:
348,90,154750,5,4,1:0:0:0:
164,294,155250,1,8,1:2:0:0:
114,154,155500,5,0,0:0:0:0:
213,120,155750,1,8,1:2:0:0:
299,179,156000,1,0,0:0:0:0:
398,145,156250,1,8,1:2:0:0:
320,76,156500,1,8,1:2:0:0:
320,76,156625,1,4,0:0:0:0:
320,76,157000,5,2,1:3:0:0:
192,308,157250,1,2,1:3:0:0:
256,192,158750,5,4,0:0:0:0:
424,110,163000,6,0,L|439:20,2,80,0|0|0,0:0|0:0|0:0,0:0:0:0:
424,110,163625,1,0,0:0:0:0:
329,211,163875,5,0,0:0:0:0:
284,244,164000,1,0,0:0:0:0:
228,244,164125,1,0,0:0:0:0:
183,211,164250,1,0,0:0:0:0:
256,88,164500,1,0,0:0:0:0:
116,311,165000,5,0,0:0:0:0:
215,345,165250,1,0,0:0:0:0:
301,286,165500,1,0,0:0:0:0:
301,286,165625,1,2,0:3:0:0:
400,320,165875,1,8,0:3:0:0:
448,284,166000,1,8,0:3:0:0:
458,224,166125,1,0,0:0:0:0:
425,173,166250,2,0,L|335:158,1,80,8|0,1:2|0:0,0:0:0:0:
72,233,166750,6,0,B|63:263|63:263|73:301,1,60.0000022888184,4|0,1:0|0:0,0:0:0:0:
118,150,167000,2,0,B|77:143|77:143|48:159|48:159|3:151,1,120.000004577637,0|0,0:0|0:0,0:0:0:0:
166,231,167375,1,0,0:0:0:0:
166,231,167500,2,0,L|177:302,1,60.0000022888184,2|0,0:3|0:0,0:0:0:0:
233,144,167750,6,0,L|244:215,1,60.0000022888184,8|0,1:2|0:0,0:0:0:0:
301,255,168000,2,0,B|331:264|331:264|369:254,1,60.0000022888184,2|0,0:3|0:0,0:0:0:0:
260,361,168250,2,0,B|219:354|219:354|190:370|190:370|145:362,2,120.000004577637,8|2|4,1:2|0:3|1:0,0:0:0:0:
342,175,169000,6,0,B|383:168|383:168|412:184|412:184|457:176,1,120.000004577637,0|0,0:0|0:0,0:0:0:0:
369,321,169375,2,0,B|360:291|360:291|370:253,1,60.0000022888184,0|2,0:0|0:3,0:0:0:0:
445,263,169625,2,0,B|452:290|452:290|443:320,1,60.0000022888184,0|8,0:0|1:2,0:0:0:0:
281,282,169875,5,0,0:0:0:0:
281,282,170000,2,0,L|270:211,1,60.0000022888184,2|2,0:3|0:3,0:0:0:0:
200,128,170250,2,0,B|207:169|207:169|191:198|191:198|199:243,1,120.000004577637,2|2,0:3|0:3,0:0:0:0:
390,325,170750,6,0,B|360:316|360:316|332:323,1,60.0000022888184,4|0,1:0|0:0,0:0:0:0:
472,370,171000,2,0,B|479:329|479:329|463:300|463:300|471:255,1,120.000004577637,0|0,0:0|0:0,0:0:0:0:
401,180,171375,1,0,0:0:0:0:
401,180,171500,2,0,L|390:251,1,60.0000022888184,2|0,0:3|0:0,0:0:0:0:
502,162,171750,5,8,1:2:0:0:
502,162,171875,2,0,L|491:91,1,60.0000022888184,0|8,0:0|0:3,0:0:0:0:
437,47,172125,1,8,0:3:0:0:
381,102,172250,2,0,B|340:109|340:109|311:93|311:93|266:101,2,120.000004577637,8|8|4,1:2|0:3|1:0,0:0:0:0:
175,189,173000,6,0,B|216:182|216:182|245:198|245:198|290:190,1,120.000004577637,2|0,0:3|0:0,0:0:0:0:
161,274,173375,2,0,B|202:267|202:267|231:283|231:283|276:275,1,120.000004577637,2|0,0:3|0:0,0:0:0:0:
147,359,173750,2,0,B|188:352|188:352|217:368|217:368|262:360,1,120.000004577637,8|0,1:2|0:0,0:0:0:0:
403,322,174125,2,0,B|347:336|347:336|374:190,1,180.000006866455,2|2,0:3|0:3,0:0:0:0:
256,84,174750,5,2,1:3:0:0:
256,300,175000,1,2,1:3:0:0:
256,84,176750,5,2,1:3:0:0:
256,300,177000,1,2,1:3:0:0:
111,346,178000,5,0,0:3:0:0:
111,346,178125,1,2,0:3:0:0:
55,290,178250,2,0,L|44:219,1,60.0000022888184,2|2,0:3|0:3,0:0:0:0:
101,175,178500,2,0,L|112:104,1,60.0000022888184,8|8,1:2|1:2,0:0:0:0:
175,71,178750,5,4,1:0:0:0:
175,71,178875,1,0,0:0:0:0:
245,105,179000,2,0,B|254:135|254:135|244:173,1,60.0000022888184,0|2,0:0|0:3,0:0:0:0:
191,218,179250,1,0,0:0:0:0:
191,218,179375,1,0,0:0:0:0:
246,273,179500,1,2,0:3:0:0:
190,328,179625,1,0,0:0:0:0:
43,220,179875,5,0,0:0:0:0:
77,150,180000,2,0,B|107:141|107:141|145:151,1,60.0000022888184,2|0,0:3|0:0,0:0:0:0:
210,58,180250,2,0,B|203:99|203:99|219:128|219:128|211:173,2,120.000004577637,8|0|4,1:2|0:0|1:0,0:0:0:0:
355,174,181000,6,0,B|340:133|355:105|355:105|326:91|326:91|343:57|323:13,2,180.000006866455,0|2|8,0:0|0:3|1:2,0:0:0:0:
299,229,181875,1,0,0:0:0:0:
354,284,182000,2,0,B|384:293|384:293|422:283,1,60.0000022888184,2|8,0:3|0:3,0:0:0:0:
296,339,182250,2,0,B|237:323|237:323|173:342,1,120.000004577637,8|0,0:3|0:0,0:0:0:0:
106,367,182625,1,0,0:0:0:0:
50,311,182750,6,0,L|61:240,1,60.0000022888184,4|0,1:0|0:0,0:0:0:0:
181,194,183000,1,2,0:3:0:0:
181,194,183125,1,8,1:2:0:0:
181,194,183250,2,0,L|192:265,1,60.0000022888184,0|2,0:0|0:3,0:0:0:0:
117,110,183500,1,2,0:3:0:0:
117,110,183625,6,0,B|176:94|176:94|240:113,1,120.000004577637,2|8,0:3|1:2,0:0:0:0:
288,166,184000,2,0,L|299:237,1,60.0000022888184,0|0,0:0|0:0,0:0:0:0:
435,181,184250,2,0,B|405:172|405:172|367:182,1,60.0000022888184,8|8,1:2|1:2,0:0:0:0:
255,304,184500,2,0,L|326:315,1,60.0000022888184,2|0,0:3|0:0,0:0:0:0:
387,284,184750,1,4,1:0:0:0:
247,214,185000,6,0,B|206:221|206:221|177:205|177:205|132:213,1,120.000004577637,2|2,0:3|0:3,0:0:0:0:
261,129,185375,2,0,B|220:136|220:136|191:120|191:120|146:128,1,120.000004577637,2|0,0:3|0:0,0:0:0:0:
275,44,185750,2,0,B|234:51|234:51|205:35|205:35|160:43,1,120.000004577637,8|0,1:2|0:0,0:0:0:0:
19,81,186125,2,0,B|75:67|75:67|52:187,1,180.000006866455,2|2,0:3|0:3,0:0:0:0:
256,300,186750,5,2,1:3:0:0:
256,84,187000,1,2,1:3:0:0:
256,300,188750,5,2,1:3:0:0:
256,84,189000,1,2,1:3:0:0:
416,288,189750,6,0,L|406:347,2,40,2|8|8,0:3|1:2|1:2,0:0:0:0:
359,231,190125,1,8,1:2:0:0:
302,287,190250,2,0,L|292:346,1,40,8|2,1:2|0:3,0:0:0:0:
215,326,190500,2,0,L|205:266,1,40,2|2,0:3|0:3,0:0:0:0:
142,241,190750,5,4,1:0:0:0:
229,83,191125,1,0,1:0:0:0:
316,241,191500,1,0,1:0:0:0:
403,83,191875,1,0,1:0:0:0:
256,256,193000,6,0,L|256:207,1,40,0|0,0:0|0:0,0:0:0:0:
214,100,193500,6,0,L|214:124,1,20,0|0,0:0|0:0,0:0:0:0:
298,67,193750,2,0,L|298:91,1,20,0|0,0:0|0:0,0:0:0:0:
352,173,194000,5,2,0:3:0:0:
352,173,194125,1,2,0:3:0:0:
352,173,194250,2,0,B|392:179|392:179|421:163|421:163|466:171,2,120.000004577637,12|8|4,1:2|0:3|1:0,0:0:0:0:
92,245,195000,6,0,L|77:348,2,80,0|8|2,0:0|1:2|0:3,0:0:0:0:
134,203,195625,2,0,B|178:189|189:218|199:242|244:225,1,120,2|2,0:3|0:3,0:0:0:0:
352,173,196250,1,8,1:2:0:0:
352,173,196500,1,0,0:0:0:0:
253,105,196750,1,4,1:0:0:0:
92,245,197000,6,0,B|84:290|84:290|100:319|100:319|92:371,2,120.000004577637,0|8|2,0:0|1:2|0:3,0:0:0:0:
185,363,197625,2,0,B|218:314|218:314|178:249,1,120.000004577637,2|0,0:3|0:0,0:0:0:0:
150,192,198000,1,0,0:0:0:0:
205,136,198125,1,0,0:0:0:0:
273,173,198250,2,0,B|318:181|318:181|347:165|347:165|399:173,2,120.000004577637,8|0|2,1:2|0:0|0:3,0:0:0:0:
121,133,199000,6,0,B|113:88|113:88|129:59|129:59|121:7,1,120.000004577637,0|8,0:0|1:2,0:0:0:0:
44,15,199375,2,0,B|17:75|17:75|50:137,1,120.000004577637,0|2,0:0|0:3,0:0:0:0:
121,133,199750,2,0,B|129:178|129:178|113:207|113:207|121:259,1,120.000004577637,0|2,0:0|0:3,0:0:0:0:
63,303,200125,1,0,0:0:0:0:
126,351,200250,6,0,P|165:344|199:323,1,80,8|8,1:2|0:3,0:0:0:0:
244,266,200625,1,8,0:3:0:0:
244,266,200750,1,4,1:0:0:0:
116,138,201000,6,0,B|108:93|108:93|124:64|124:64|116:12,2,120.000004577637,0|8|2,0:0|1:2|0:3,0:0:0:0:
171,193,201625,1,2,0:3:0:0:
226,137,201750,2,0,B|286:110|286:110|348:143,1,120.000004577637,0|2,0:0|0:3,0:0:0:0:
430,211,202125,1,0,0:0:0:0:
430,211,202250,2,0,B|385:203|385:203|356:219|356:219|304:211,2,120.000004577637,8|0|2,1:2|0:0|0:3,0:0:0:0:
248,342,203000,6,0,L|351:357,2,80,0|8|2,0:0|1:2|0:3,0:0:0:0:
206,300,203625,2,0,B|192:256|221:245|245:235|228:190,1,120,2|2,0:3|0:3,0:0:0:0:
176,82,204250,1,8,1:2:0:0:
176,82,204500,1,0,0:0:0:0:
108,181,204750,1,4,1:0:0:0:
350,102,205000,6,0,B|395:94|395:94|424:110|424:110|476:102,2,120.000004577637,0|8|0,0:0|1:2|0:0,0:0:0:0:
432,210,205625,2,0,B|383:177|383:177|318:217,1,120.000004577637,2|0,0:3|0:0,0:0:0:0:
265,81,206000,2,0,L|275:140,1,60.0000022888184,2|0,0:3|0:0,0:0:0:0:
219,195,206250,1,8,1:2:0:0:
159,144,206375,2,0,B|126:193|126:193|166:258,1,120.000004577637,0|0,0:0|0:0,0:0:0:0:
206,307,206750,1,2,0:3:0:0:
358,340,207000,6,0,B|403:332|403:332|432:348|432:348|484:340,1,120.000004577637,0|8,0:0|1:2,0:0:0:0:
476,263,207375,2,0,B|416:236|416:236|354:269,1,120.000004577637,0|2,0:0|0:3,0:0:0:0:
358,340,207750,2,0,L|255:355,1,60.0000022888184,0|2,0:0|0:3,0:0:0:0:
286,270,208000,2,0,L|226:278,1,60.0000022888184,2|2,0:3|0:3,0:0:0:0:
171,334,208250,1,8,1:2:0:0:
171,334,208375,1,8,1:2:0:0:
115,278,208500,1,8,1:2:0:0:
115,278,208625,1,8,1:2:0:0:
53,216,208750,6,0,P|43:157|57:99,1,95.9999970703126,4|0,1:0|0:0,0:0:0:0:
115,83,209125,1,0,0:0:0:0:
189,100,209250,2,0,L|200:21,1,47.9999985351563,8|0,1:2|0:0,0:0:0:0:
271,38,209500,1,2,0:3:0:0:
325,92,209625,2,0,P|350:134|341:186,2,95.9999970703126,2|0|0,0:3|0:0|0:0,0:0:0:0:
272,149,210250,2,0,L|259:233,1,47.9999985351563,8|0,1:2|0:0,0:0:0:0:
315,306,210500,2,0,L|323:246,1,47.9999985351563,0|0,0:0|0:0,0:0:0:0:
459,216,210750,6,0,P|469:157|455:99,1,95.9999970703126,2|0,0:3|0:0,0:0:0:0:
397,83,211125,1,0,0:0:0:0:
323,100,211250,2,0,L|312:21,1,47.9999985351563,8|0,1:2|0:0,0:0:0:0:
241,38,211500,1,2,0:3:0:0:
187,92,211625,2,0,P|162:134|171:186,2,95.9999970703126,2|0|0,0:3|0:0|0:0,0:0:0:0:
240,149,212250,2,0,L|253:233,1,47.9999985351563,8|0,1:2|0:0,0:0:0:0:
197,306,212500,2,0,L|189:246,1,47.9999985351563,0|0,0:0|0:0,0:0:0:0:
332,289,212750,6,0,L|391:298,1,47.9999985351563,4|0,1:0|0:0,0:0:0:0:
434,241,213000,2,0,L|425:181,1,47.9999985351563,0|0,0:0|0:0,0:0:0:0:
372,139,213250,1,8,1:2:0:0:
301,169,213375,1,0,0:0:0:0:
226,152,213500,1,2,0:3:0:0:
159,112,213625,2,0,P|124:70|119:31,2,95.9999970703126,2|0|0,0:3|0:0|0:0,0:0:0:0:
226,152,214250,2,0,L|239:236,1,47.9999985351563,8|0,1:2|0:0,0:0:0:0:
126,265,214500,2,0,L|139:181,1,47.9999985351563,0|0,0:0|0:0,0:0:0:0:
256,320,214750,5,2,0:3:0:0:
256,64,215250,1,8,1:2:0:0:
358,218,215500,1,2,0:3:0:0:
358,218,215625,1,2,0:3:0:0:
358,218,215750,1,0,0:0:0:0:
419,279,215875,6,0,L|406:363,2,47.9999985351563,2|2|2,0:3|0:3|0:3,0:0:0:0:
480,217,216250,1,8,1:2:0:0:
480,217,216375,1,8,1:2:0:0:
418,155,216500,1,8,1:2:0:0:
418,155,216625,1,8,1:2:0:0:
356,93,216750,5,4,1:0:0:0:
156,291,217250,1,8,1:2:0:0:
134,164,217500,5,0,0:0:0:0:
233,130,217750,1,8,1:2:0:0:
319,189,218000,1,0,0:0:0:0:
418,155,218250,1,8,1:2:0:0:
340,86,218500,1,8,1:2:0:0:
340,86,218625,1,4,0:0:0:0:
340,86,219000,5,2,1:3:0:0:
172,298,219250,1,2,1:3:0:0:
402,257,219500,5,2,0:3:0:0:
402,257,219625,1,2,0:3:0:0:
328,225,219750,2,0,L|317:156,1,40,4|0,1:2|0:0,0:0:0:0:
243,201,220000,1,8,1:2:0:0:
243,201,220125,2,0,L|232:132,1,40,8|2,1:2|0:3,0:0:0:0:
158,177,220375,1,2,0:3:0:0:
158,177,220500,2,0,L|147:108,1,40,2|2,0:3|0:3,0:0:0:0:
95,80,220750,5,4,1:0:0:0:
38,136,220875,2,0,L|25:220,1,80,0|0,0:0|0:0,0:0:0:0:
82,271,221250,2,0,L|71:338,1,40,8|0,1:2|0:0,0:0:0:0:
132,367,221500,1,2,0:3:0:0:
188,310,221625,2,0,L|200:230,1,80,8|8,1:2|1:2,0:0:0:0:
256,174,222000,1,2,0:3:0:0:
312,230,222125,1,0,0:0:0:0:
368,286,222250,2,0,L|378:353,1,40,2|2,0:3|0:3,0:0:0:0:
457,222,222500,2,0,L|450:261,1,40,8|8,1:2|1:2,0:0:0:0:
381,140,222750,5,4,1:0:0:0:
131,244,223250,1,8,1:2:0:0:
256,68,223500,5,0,0:0:0:0:
290,167,223750,1,8,1:2:0:0:
231,253,224000,1,0,0:0:0:0:
265,352,224250,1,8,1:2:0:0:
334,274,224500,1,8,1:2:0:0:
334,274,224625,1,4,0:0:0:0:
334,274,225000,5,2,1:3:0:0:
177,110,225250,1,2,1:3:0:0:
177,110,225750,6,0,L|194:263,2,120,2|2|2,0:0|0:0|0:0,0:0:0:0:
364,50,226750,5,4,1:0:0:0:
364,50,226875,1,0,0:0:0:0:
333,123,227125,1,0,3:0:0:0:
380,188,227375,2,0,L|422:194,2,40,0|0|0,0:0|3:0|0:0,0:0:0:0:
320,248,227875,1,0,3:0:0:0:
253,204,228125,1,0,0:0:0:0:
247,164,228250,1,0,3:0:0:0:
217,190,228375,1,0,0:0:0:0:
201,226,228500,1,0,3:0:0:0:
201,265,228625,1,0,0:0:0:0:
222,299,228750,5,0,3:0:0:0:
183,295,228875,1,0,0:0:0:0:
126,351,229125,1,0,3:0:0:0:
69,294,229375,1,0,0:0:0:0:
40,265,229500,2,0,L|46:223,1,40,2|2,0:3|0:3,0:0:0:0:
74,196,229750,6,0,L|141:186,2,60,8|8|8,1:2|1:2|1:2,0:0:0:0:
45,167,230250,2,0,P|30:86|103:37,1,160,4|0,1:2|0:0,0:0:0:0:
