osu file format v14

[General]
AudioFilename: audio.mp3
AudioLeadIn: 0
PreviewTime: 54250
Countdown: 0
SampleSet: Soft
StackLeniency: 0.2
Mode: 0
LetterboxInBreaks: 0
WidescreenStoryboard: 0

[Editor]
DistanceSpacing: 2
BeatDivisor: 4
GridSize: 4
TimelineZoom: 1

[Metadata]
Title:SELF CONTROL!!
TitleUnicode:SELF CONTROL!!
Artist:Saint Snow
ArtistUnicode:Saint Snow
Creator:ktgster
Version:Expert
Source:ラブライブ!サンシャイン!!
Tags:hata aki kawada takao lantis 2016 sailing to the sunshine Lovelive! Love Live! School idol project Sunshine!! オリジナルサウンドトラック ost Original Soundtrack season1 episode8 insert song full size フルサイズ ver. version rivals Kazuno Sarah 鹿角聖良 Leah 鹿角理亞 Tano Asami 田野アサミ Satō Satou Hinata 佐藤日向 Aqours Anime Japanese
BeatmapID:1846414
BeatmapSetID:880205

[Difficulty]
HPDrainRate:5
CircleSize:4.5
OverallDifficulty:7.5
ApproachRate:9
SliderMultiplier:1.6
SliderTickRate:1

[Events]
//Background and Video events
0,0,"SS.png",0,0
//Break Periods
2,82950,88000
2,158950,162250
//Storyboard Layer 0 (Background)
//Storyboard Layer 1 (Fail)
//Storyboard Layer 2 (Pass)
//Storyboard Layer 3 (Foreground)
//Storyboard Sound Samples

[TimingPoints]
750,500,4,2,1,40,1,0
9875,-100,4,2,1,50,0,0
10250,-333.333333333333,4,2,1,50,0,0
10750,-100,4,2,1,70,0,0
22750,-100,4,2,1,60,0,0
34750,-100,4,2,1,70,0,0
54250,-333.333333333333,4,2,1,60,0,0
54750,-100,4,2,1,80,0,1
55000,-50,4,2,1,80,0,1
56750,-100,4,2,1,80,0,1
59000,-50,4,2,1,80,0,1
62250,-100,4,2,1,80,0,1
63000,-50,4,2,1,80,0,1
64750,-100,4,2,1,80,0,1
67000,-50,4,2,1,80,0,1
70750,-66.6666666666667,4,2,1,80,0,1
78750,-100,4,2,1,80,0,1
81250,-100,4,2,1,80,0,0
82750,-100,4,2,1,60,0,0
88750,-500,4,2,1,60,0,0
90250,-100,4,2,1,60,0,0
90750,-500,4,2,1,40,0,0
94750,-100,4,2,1,60,0,0
96000,-1000,4,2,1,60,0,0
96750,-100,4,2,1,60,0,0
99000,-50,4,2,1,70,0,0
110500,-100,4,2,1,70,0,0
130250,-333.333333333333,4,2,1,60,0,0
130750,-100,4,2,1,80,0,1
131000,-50,4,2,1,80,0,1
132750,-100,4,2,1,80,0,1
135000,-50,4,2,1,80,0,1
138250,-100,4,2,1,80,0,1
139000,-50,4,2,1,80,0,1
140750,-100,4,2,1,80,0,1
143000,-50,4,2,1,80,0,1
146750,-66.6666666666667,4,2,1,80,0,1
154750,-100,4,2,1,80,0,1
157250,-66.6666666666667,4,2,1,80,0,0
158750,-66.6666666666667,4,2,1,60,0,0
163000,-100,4,2,1,60,0,0
166250,-333.333333333333,4,2,1,70,0,0
166750,-50,4,2,1,70,0,0
178000,-100,4,2,1,70,0,0
178750,-50,4,2,1,70,0,0
189750,-100,4,2,1,70,0,0
192250,-1000,4,2,1,60,0,0
193000,-500,4,2,1,60,0,0
193250,-100,4,2,1,60,0,0
194250,-50,4,2,1,70,0,0
194750,-100,4,2,1,80,0,1
197000,-50,4,2,1,80,0,1
200250,-100,4,2,1,80,0,1
201000,-50,4,2,1,80,0,1
203000,-100,4,2,1,80,0,1
205000,-50,4,2,1,80,0,1
208750,-66.6666666666667,4,2,1,80,0,1
216750,-100,4,2,1,80,0,1
225250,-50,4,2,1,80,0,0
225750,-50,4,2,1,60,0,0
226750,-66.6666666666667,4,2,1,60,0,0
229500,-66.6666666666667,4,2,1,70,0,0
230250,-333.333333333333,4,2,1,70,0,0
230750,-333.333333333333,4,2,1,5,0,0

[Colours]
Combo1 : 255,136,196
Combo2 : 217,0,217
Combo3 : 255,34,145
Combo4 : 163,70,255

[HitObjects]
68,38,2750,5,0,3:0:0:0:
68,38,2875,1,0,0:0:0:0:
47,115,3125,1,0,3:0:0:0:
68,192,3375,1,0,0:0:0:0:
68,192,3500,1,0,3:0:0:0:
68,192,3625,1,0,0:0:0:0:
47,269,3875,1,0,3:0:0:0:
68,346,4125,1,0,0:0:0:0:
68,346,4250,1,0,3:0:0:0:
68,346,4375,1,0,0:0:0:0:
68,346,4500,1,0,3:0:0:0:
68,346,4625,1,0,0:0:0:0:
68,346,4750,5,0,3:0:0:0:
68,346,4875,1,0,3:0:0:0:
47,269,5125,1,0,3:0:0:0:
68,192,5375,1,0,0:0:0:0:
68,192,5500,1,0,3:0:0:0:
68,192,5625,1,0,0:0:0:0:
47,115,5875,1,0,3:0:0:0:
68,38,6125,1,0,0:0:0:0:
68,38,6250,1,0,3:0:0:0:
68,38,6375,1,0,0:0:0:0:
68,38,6500,1,0,3:0:0:0:
68,38,6625,1,0,0:0:0:0:
68,38,6750,5,0,3:0:0:0:
68,38,7000,2,0,L|53:128,2,80,0|0|0,0:0|0:0|0:0,0:0:0:0:
68,38,7625,1,0,3:0:0:0:
206,192,7875,5,0,0:0:0:0:
256,142,8000,1,0,3:0:0:0:
306,193,8125,1,0,0:0:0:0:
255,243,8250,2,0,L|255:295,1,40,0|0,0:0|0:0,0:0:0:0:
255,355,8500,1,0,0:0:0:0:
444,38,9000,6,0,L|459:128,2,80,0|0|0,0:0|0:0|0:0,0:0:0:0:
444,38,9625,1,0,1:0:0:0:
348,224,9875,5,8,1:3:0:0:
279,200,10000,1,8,1:3:0:0:
214,232,10125,1,8,1:3:0:0:
145,208,10250,2,0,L|140:180,1,23.9999992675781,8|0,1:2|0:0,0:0:0:0:
85,40,10750,6,0,P|128:19|222:67,1,160,4|8,1:0|0:0,0:0:0:0:
256,205,11500,1,2,0:3:0:0:
205,255,11625,2,0,B|159:269|148:240|138:216|78:237,1,120,2|2,0:3|0:3,0:0:0:0:
11,352,12250,1,8,0:0:0:0:
11,352,12500,1,0,0:0:0:0:
206,359,12750,6,0,P|275:356|343:284,1,160,2|8,0:3|0:0,0:0:0:0:
236,194,13500,1,2,0:3:0:0:
286,143,13625,2,0,B|300:97|271:86|247:76|268:16,1,120,2|2,0:3|0:3,0:0:0:0:
406,10,14250,1,8,0:0:0:0:
488,128,14500,5,8,0:3:0:0:
488,128,14625,1,8,0:3:0:0:
488,128,14750,2,0,P|507:201|477:291,1,160,4|8,1:0|0:0,0:0:0:0:
349,332,15500,1,2,0:3:0:0:
298,282,15625,2,0,B|252:268|241:297|231:321|171:300,1,120,2|2,0:3|0:3,0:0:0:0:
43,276,16250,1,8,0:0:0:0:
43,276,16500,1,0,0:0:0:0:
43,132,16750,6,0,P|116:113|206:143,1,160,2|8,0:3|0:0,0:0:0:0:
320,207,17500,1,2,0:3:0:0:
370,156,17625,2,0,B|384:110|355:99|331:89|352:29,1,120,2|8,0:3|0:3,0:0:0:0:
414,14,18125,1,8,0:3:0:0:
483,32,18250,6,0,L|493:98,1,40,8|8,0:0|0:3,0:0:0:0:
500,143,18500,1,8,0:0:0:0:
433,116,18625,1,8,0:0:0:0:
444,187,18750,5,4,1:0:0:0:
444,187,18875,1,0,0:0:0:0:
465,264,19125,1,0,0:0:0:0:
444,341,19375,1,0,0:0:0:0:
444,341,19500,1,0,0:0:0:0:
444,341,19625,1,0,0:0:0:0:
465,264,19875,1,0,0:0:0:0:
444,187,20125,1,0,0:0:0:0:
444,187,20250,1,0,0:0:0:0:
444,187,20375,1,0,0:0:0:0:
444,187,20500,2,0,L|378:177,1,40,0|0,0:0|0:0,0:0:0:0:
465,110,20750,5,0,1:0:0:0:
465,110,20875,1,0,0:0:0:0:
444,33,21125,1,0,0:0:0:0:
444,33,21375,1,0,0:0:0:0:
388,90,21500,5,8,1:2:0:0:
388,90,21625,1,2,0:3:0:0:
245,68,21875,1,2,0:3:0:0:
245,68,22125,1,2,0:3:0:0:
303,25,22250,5,8,1:2:0:0:
303,25,22375,1,8,1:2:0:0:
303,25,22500,1,8,1:2:0:0:
303,25,22625,1,8,1:2:0:0:
303,25,22750,1,4,1:0:0:0:
411,171,23000,6,0,L|501:186,2,80,0|8|2,0:0|1:2|0:3,0:0:0:0:
360,221,23625,2,0,B|314:235|303:206|293:182|233:203,1,120,2|2,0:3|0:3,0:0:0:0:
135,288,24250,1,8,1:2:0:0:
135,288,24500,1,0,0:0:0:0:
33,186,24750,6,0,P|25:138|38:89,1,80,2|0,0:3|0:0,0:0:0:0:
150,27,25250,1,8,1:2:0:0:
279,90,25500,1,2,0:3:0:0:
279,90,25625,2,0,L|266:171,1,80,2|0,0:3|0:0,0:0:0:0:
317,220,26000,2,0,P|356:224|410:206,2,80,2|8|2,0:3|1:2|0:3,0:0:0:0:
248,238,26625,1,8,0:3:0:0:
214,301,26750,5,2,0:3:0:0:
112,199,27000,2,0,L|22:184,2,80,0|8|2,0:0|1:2|0:3,0:0:0:0:
163,149,27625,2,0,B|209:135|220:164|230:188|290:167,1,120,2|2,0:3|0:3,0:0:0:0:
415,137,28250,1,8,1:2:0:0:
415,137,28500,1,0,0:0:0:0:
321,27,28750,6,0,P|281:22|227:40,2,80,2|0|8,0:3|0:0|1:2,0:0:0:0:
415,137,29500,1,2,0:3:0:0:
364,187,29625,2,0,L|376:268,1,80,2|0,0:3|0:0,0:0:0:0:
325,317,30000,1,2,0:3:0:0:
264,186,30250,1,8,1:2:0:0:
205,317,30500,1,8,1:2:0:0:
205,317,30625,1,8,1:2:0:0:
265,277,30750,1,4,1:0:0:0:
103,215,31000,6,0,L|91:134,2,80,0|8|2,0:0|1:2|0:3,0:0:0:0:
175,215,31625,2,0,B|161:169|190:158|214:148|193:88,1,120,2|2,0:3|0:3,0:0:0:0:
80,19,32250,1,8,1:2:0:0:
80,19,32500,1,0,0:0:0:0:
20,150,32750,6,0,P|15:190|33:244,1,80,2|0,0:3|0:0,0:0:0:0:
112,341,33250,1,8,1:2:0:0:
245,287,33500,1,2,0:3:0:0:
245,287,33625,2,0,L|256:207,1,80,2|0,0:3|0:0,0:0:0:0:
205,156,34000,2,0,P|241:137|308:156,1,80,8|8,0:3|1:2,0:0:0:0:
422,159,34500,5,0,0:0:0:0:
422,159,34625,1,8,0:3:0:0:
422,159,34750,2,0,P|479:163|470:60,1,160,4|8,1:0|1:2,0:0:0:0:
362,25,35500,1,2,0:3:0:0:
297,56,35625,2,0,P|257:61|203:43,2,80,2|0|0,0:3|0:0|0:0,0:0:0:0:
362,25,36250,1,8,1:2:0:0:
398,164,36500,1,0,0:0:0:0:
358,302,36750,6,0,L|278:313,1,80,4|0,1:0|0:0,0:0:0:0:
139,277,37250,1,8,1:2:0:0:
239,173,37500,1,2,0:3:0:0:
301,208,37625,2,0,P|335:215|397:201,1,80,4|2,1:0|0:3,0:0:0:0:
440,169,38000,2,0,L|447:113,1,40,2|2,0:3|0:3,0:0:0:0:
430,58,38250,1,8,1:2:0:0:
366,23,38375,1,8,1:2:0:0:
294,28,38500,1,8,1:2:0:0:
232,65,38625,1,8,1:2:0:0:
211,134,38750,6,0,L|200:214,2,80,4|0|8,1:0|0:0|1:2,0:0:0:0:
141,7,39500,1,2,0:3:0:0:
141,7,39625,1,2,0:3:0:0:
141,7,40000,1,2,0:3:0:0:
43,113,40250,2,0,P|77:143|132:155,1,80,8|0,1:2|0:0,0:0:0:0:
301,134,40750,6,0,L|312:214,2,80,4|0|8,1:0|0:0|1:2,0:0:0:0:
371,7,41500,1,2,0:3:0:0:
371,7,41625,1,2,0:3:0:0:
371,7,42000,1,2,0:3:0:0:
468,113,42250,2,0,P|439:140|402:153,1,80,8|8,1:2|0:3,0:0:0:0:
330,161,42625,1,8,0:3:0:0:
330,161,42750,6,0,P|331:121|347:85,1,80,4|0,1:0|0:0,0:0:0:0:
373,220,43250,2,0,P|371:259|355:295,1,80,8|4,1:2|0:3,0:0:0:0:
393,357,43625,2,0,P|344:328|266:326,1,120,4|0,1:0|3:0,0:0:0:0:
140,351,44250,1,8,1:2:0:0:
140,351,44500,1,0,0:0:0:0:
21,215,44750,6,0,P|58:201|87:174,1,80,4|0,1:0|0:0,0:0:0:0:
151,44,45250,1,8,1:2:0:0:
252,145,45500,1,2,0:3:0:0:
252,145,45625,2,0,L|263:225,1,80,4|8,1:0|1:2,0:0:0:0:
211,275,46000,1,2,0:3:0:0:
211,275,46125,1,2,0:3:0:0:
261,325,46250,5,8,1:2:0:0:
330,307,46375,1,8,1:2:0:0:
397,332,46500,1,8,1:2:0:0:
466,314,46625,1,8,1:2:0:0:
496,248,46750,6,0,P|503:206|495:158,1,80,4|0,1:0|0:0,0:0:0:0:
469,102,47125,1,0,0:0:0:0:
469,102,47250,1,8,1:2:0:0:
330,307,47500,5,2,0:3:0:0:
330,307,47625,1,2,0:3:0:0:
330,307,47750,1,0,0:0:0:0:
330,307,47875,1,0,0:0:0:0:
48,192,48250,5,8,1:2:0:0:
48,192,48500,1,0,0:0:0:0:
176,32,48750,6,0,B|156:88|188:108|228:120|205:179,1,160,4|8,1:0|1:2,0:0:0:0:
342,225,49500,1,2,0:3:0:0:
342,225,49625,1,2,0:3:0:0:
342,225,49750,1,0,0:0:0:0:
402,355,50000,1,2,0:3:0:0:
503,253,50250,2,0,P|512:217|498:153,1,80,8|8,1:2|0:3,0:0:0:0:
481,107,50625,1,8,0:3:0:0:
428,58,50750,6,0,L|348:47,2,80,4|0|8,1:0|0:0|1:2,0:0:0:0:
350,179,51500,1,2,0:3:0:0:
300,230,51625,2,0,B|286:276|315:287|339:297|318:357,1,120,2|2,0:3|0:3,0:0:0:0:
182,376,52250,1,8,1:2:0:0:
44,334,52500,1,0,0:0:0:0:
13,268,52625,1,8,0:0:0:0:
44,202,52750,5,4,1:0:0:0:
186,181,53000,1,8,1:2:0:0:
66,57,53250,2,0,B|103:45|103:45|161:63,1,80,8|2,1:2|0:3,0:0:0:0:
103,120,53625,1,8,1:2:0:0:
103,120,54250,6,0,L|106:84,1,35.9999989013672,8|0,1:2|0:0,0:0:0:0:
162,190,54750,6,0,P|176:176|185:158,1,40,4|0,1:0|0:0,0:0:0:0:
169,291,55000,6,0,B|113:299|113:299|73:277|73:277|14:287,2,160,0|8|2,0:0|1:2|0:3,0:0:0:0:
226,348,55625,1,2,0:3:0:0:
270,233,55750,6,0,B|281:134|281:134|329:96,1,160,0|2,0:0|0:3,0:0:0:0:
184,158,56125,1,0,0:0:0:0:
184,158,56250,2,0,B|129:150|129:150|89:172|89:172|30:162,2,160,8|0|2,1:2|0:0|0:3,0:0:0:0:
102,288,57000,6,0,L|117:378,2,80,0|8|2,0:0|1:2|0:3,0:0:0:0:
152,237,57625,2,0,B|166:191|137:180|113:170|134:110,1,120,2|2,0:3|0:3,0:0:0:0:
210,4,58250,1,8,1:2:0:0:
210,4,58500,1,0,0:0:0:0:
268,135,58750,1,4,1:0:0:0:
455,217,59000,6,0,B|464:272|464:272|441:312|441:312|452:371,2,160,0|8|2,0:0|1:2|0:3,0:0:0:0:
327,307,59625,2,0,B|376:255|376:255|355:168,1,160,2|0,0:3|0:0,0:0:0:0:
298,112,60000,5,0,0:0:0:0:
241,168,60125,1,0,0:0:0:0:
184,111,60250,2,0,B|136:163|136:163|156:249,2,160,8|0|2,1:2|0:2|0:3,0:0:0:0:
297,272,61000,6,0,B|383:292|383:292|435:244,1,160,0|0,0:3|1:0,0:0:0:0:
416,166,61375,2,0,B|330:146|330:146|278:194,1,160,0|2,0:0|0:3,0:0:0:0:
297,272,61750,6,0,B|383:292|383:292|435:244,1,160,0|2,0:0|0:3,0:0:0:0:
493,187,62125,1,0,0:0:0:0:
416,166,62250,6,0,P|407:123|414:79,1,80,8|8,1:2|0:3,0:0:0:0:
441,21,62625,1,8,0:3:0:0:
504,57,62750,1,4,1:0:0:0:
287,144,63000,6,0,B|232:152|232:152|192:130|192:130|133:140,2,160,0|8|2,0:0|1:2|0:3,0:0:0:0:
345,86,63625,1,2,0:3:0:0:
402,232,63750,6,0,B|364:280|364:280|266:290,1,160,0|2,0:0|0:3,0:0:0:0:
192,176,64125,1,0,0:0:0:0:
192,176,64250,2,0,B|200:121|200:121|178:81|178:81|188:22,2,160,8|0|2,1:2|0:0|0:3,0:0:0:0:
93,343,65000,6,0,L|3:328,2,80,0|8|2,0:0|1:2|0:3,0:0:0:0:
144,293,65625,2,0,B|190:279|201:308|211:332|271:311,1,120,2|2,0:3|0:3,0:0:0:0:
377,235,66250,1,8,1:2:0:0:
377,235,66500,1,0,0:0:0:0:
261,148,66750,5,4,1:0:0:0:
60,223,67000,2,0,B|40:309|40:309|88:361,2,160,0|8|0,0:0|1:2|0:0,0:0:0:0:
176,339,67625,2,0,B|128:287|128:287|148:201,1,160,2|0,0:3|0:0,0:0:0:0:
168,122,68000,5,2,0:3:0:0:
224,178,68125,1,0,0:0:0:0:
280,121,68250,1,8,1:2:0:0:
336,64,68375,2,0,B|391:72|391:72|431:50|431:50|489:61,1,160,0|0,0:0|0:0,0:0:0:0:
503,140,68750,5,2,0:3:0:0:
503,140,69000,2,0,B|523:226|523:226|475:278,1,160,0|0,0:3|1:0,0:0:0:0:
397,259,69375,2,0,B|377:173|377:173|425:121,1,160,0|2,0:0|0:3,0:0:0:0:
489,60,69750,5,0,0:0:0:0:
411,39,69875,2,0,L|400:-30,2,40,2|2|2,0:3|0:3|0:3,0:0:0:0:
352,93,70125,1,2,0:3:0:0:
285,48,70250,5,8,1:2:0:0:
239,113,70375,1,8,1:2:0:0:
248,192,70500,1,8,1:2:0:0:
294,256,70625,1,8,1:2:0:0:
366,285,70750,6,0,P|431:286|488:246,1,120.000004577637,4|0,1:0|0:0,0:0:0:0:
504,185,71125,1,0,0:0:0:0:
477,111,71250,1,8,1:2:0:0:
427,172,71375,1,0,0:0:0:0:
400,98,71500,1,2,0:3:0:0:
350,159,71625,1,2,0:3:0:0:
350,159,71875,1,0,0:0:0:0:
350,159,72125,1,0,0:0:0:0:
400,98,72250,2,0,P|412:62|395:12,1,60.0000022888184,8|0,1:2|0:0,0:0:0:0:
427,172,72500,2,0,P|415:208|432:258,1,60.0000022888184,0|0,0:0|0:0,0:0:0:0:
242,342,72750,6,0,P|177:343|120:303,1,120.000004577637,2|0,0:3|0:0,0:0:0:0:
104,242,73125,1,0,0:0:0:0:
131,168,73250,1,8,1:2:0:0:
181,229,73375,1,0,0:0:0:0:
208,155,73500,1,2,0:3:0:0:
258,216,73625,1,2,0:3:0:0:
258,216,73875,1,0,0:0:0:0:
258,216,74125,1,0,0:0:0:0:
208,155,74250,2,0,P|196:119|213:69,1,60.0000022888184,8|0,1:2|0:0,0:0:0:0:
181,229,74500,2,0,P|193:265|176:315,1,60.0000022888184,0|0,0:0|0:0,0:0:0:0:
74,363,74750,5,4,1:0:0:0:
18,307,74875,1,0,0:0:0:0:
18,229,75000,1,0,0:0:0:0:
73,173,75125,1,0,0:0:0:0:
128,228,75250,6,0,L|139:297,1,60.0000022888184,8|0,1:2|0:0,0:0:0:0:
192,342,75500,1,2,0:3:0:0:
247,286,75625,1,2,0:3:0:0:
247,286,75875,1,0,0:0:0:0:
247,286,76125,1,0,0:0:0:0:
302,230,76250,2,0,P|334:225|388:235,1,60.0000022888184,8|0,1:2|0:0,0:0:0:0:
246,175,76500,2,0,P|214:170|160:180,1,60.0000022888184,0|0,0:0|0:0,0:0:0:0:
326,56,76750,5,2,0:3:0:0:
186,328,77250,1,8,1:2:0:0:
116,188,77500,1,2,0:3:0:0:
116,188,77625,1,2,0:3:0:0:
116,188,77750,1,0,0:0:0:0:
171,132,77875,6,0,L|229:141,2,30.0000011444092,2|2|2,0:3|0:3|0:3,0:0:0:0:
115,76,78125,1,2,0:3:0:0:
180,33,78250,1,8,1:2:0:0:
248,69,78375,1,8,1:2:0:0:
318,35,78500,1,8,1:2:0:0:
318,35,78625,1,8,1:2:0:0:
386,72,78750,5,4,1:0:0:0:
126,312,79250,1,8,1:2:0:0:
97,138,79500,5,0,0:0:0:0:
196,108,79750,1,8,1:2:0:0:
256,192,80000,1,0,0:0:0:0:
256,192,80125,1,0,0:0:0:0:
310,239,80250,2,0,P|351:252|407:242,1,80,8|8,1:2|1:2,0:0:0:0:
452,218,80625,1,4,0:0:0:0:
452,218,81000,5,2,1:3:0:0:
256,192,81250,1,2,1:3:0:0:
256,192,82750,5,4,0:0:0:0:
256,192,88750,5,8,1:2:0:0:
256,352,89500,5,0,1:2:0:0:
256,272,89625,1,8,1:2:0:0:
256,272,89875,1,0,1:2:0:0:
256,272,90125,1,0,1:0:0:0:
256,192,90250,5,8,1:2:0:0:
256,192,90375,1,8,1:2:0:0:
256,119,90500,1,8,1:2:0:0:
256,119,90625,1,8,1:2:0:0:
360,64,90750,6,0,L|374:62,3,8,0|0|0|0,0:0|0:0|0:0|0:0,0:0:0:0:
379,52,91250,2,0,L|393:50,3,8,0|0|0|0,0:0|0:0|0:0|0:0,0:0:0:0:
398,62,91750,2,0,L|412:60,3,8,0|0|0|0,0:0|0:0|0:0|0:0,0:0:0:0:
417,50,92250,2,0,L|431:48,3,8,0|0|0|0,0:0|0:0|0:0|0:0,0:0:0:0:
256,192,92750,12,0,94750,1:0:0:0:
256,192,96000,6,0,L|256:208,1,16,0|0,0:0|0:0,0:0:0:0:
112,312,96750,5,4,1:2:0:0:
403,255,97000,1,4,1:2:0:0:
179,188,97250,2,0,P|173:156|181:103,1,80,8|8,1:2|1:2,0:0:0:0:
215,47,97625,1,4,1:0:0:0:
215,47,97875,6,0,L|220:12,2,20,0|0|8,1:0|1:0|1:2,0:0:0:0:
266,98,98125,1,0,1:0:0:0:
316,47,98250,1,0,1:0:0:0:
316,47,98375,1,0,1:0:0:0:
366,97,98500,1,8,1:2:0:0:
416,147,98625,1,8,1:2:0:0:
466,96,98750,1,4,1:0:0:0:
487,298,99000,6,0,B|432:306|432:306|392:284|392:284|334:295,1,160,0|8,0:0|1:2,0:0:0:0:
210,369,99375,2,0,B|265:361|265:361|305:383|305:383|363:372,1,160,0|2,0:0|0:3,0:0:0:0:
249,280,99750,5,0,0:0:0:0:
315,208,99875,2,0,B|243:183|243:183|149:233,1,160,0|0,0:0|0:0,0:0:0:0:
385,278,100250,2,0,B|410:206|410:206|360:112,2,160,8|0|2,1:2|0:0|0:3,0:0:0:0:
167,337,101000,6,0,B|177:238|177:238|225:200,1,160,0|8,0:0|1:2,0:0:0:0:
167,60,101416,2,0,B|159:132|159:132|111:170,1,133.333333333333,0|2,0:0|0:3,0:0:0:0:
54,112,101750,5,0,0:0:0:0:
34,189,101875,1,0,0:0:0:0:
91,246,102000,1,2,3:0:0:0:
34,189,102125,1,0,0:0:0:0:
14,266,102250,2,0,B|36:338|36:338|131:385,1,160,8|8,1:2|0:3,0:0:0:0:
188,351,102625,1,8,0:3:0:0:
188,351,102750,1,2,0:3:0:0:
486,372,103000,6,0,L|326:357,1,160,0|8,0:0|1:2,0:0:0:0:
244,255,103375,2,0,L|403:269,1,160,0|2,0:0|0:3,0:0:0:0:
512,238,103750,5,0,0:0:0:0:
440,142,103875,2,0,B|371:103|371:103|284:131,1,160,0|0,0:0|0:0,0:0:0:0:
363,192,104250,1,8,1:2:0:0:
363,192,104500,6,0,B|376:231|376:231|361:277,1,80,0|0,0:0|0:0,0:0:0:0:
282,326,104750,2,0,B|351:365|351:365|438:337,2,160,2|0|8,0:3|0:0|1:2,0:0:0:0:
216,278,105416,2,0,B|159:242|159:242|81:264,1,133.333333333333,0|2,0:0|0:3,0:0:0:0:
38,202,105750,5,0,0:0:0:0:
94,145,105875,1,0,0:0:0:0:
37,88,106000,1,2,0:3:0:0:
93,31,106125,1,0,0:0:0:0:
149,87,106250,2,0,L|245:78,1,80,8|0,1:2|0:0,0:0:0:0:
285,136,106500,1,8,1:2:0:0:
285,136,106625,1,8,1:2:0:0:
228,192,106750,5,4,1:0:0:0:
228,192,107000,1,0,0:0:0:0:
171,248,107125,1,0,0:0:0:0:
227,304,107250,1,8,1:2:0:0:
170,360,107375,1,0,0:0:0:0:
31,251,107625,5,2,0:3:0:0:
31,251,107750,2,0,B|18:212|18:212|33:166,1,80,0|0,0:0|0:0,0:0:0:0:
86,118,108000,2,0,B|141:110|141:110|181:132|181:132|239:121,2,160,2|8|0,0:3|1:2|0:0,0:0:0:0:
29,61,108625,1,0,0:0:0:0:
96,215,108750,6,0,B|163:258|163:258|264:226,1,160,2|0,0:3|0:0,0:0:0:0:
295,178,109125,1,0,0:0:0:0:
238,121,109250,1,8,1:2:0:0:
294,64,109375,2,0,B|361:20|361:20|462:52,1,160,0|2,0:0|0:3,0:0:0:0:
493,100,109750,5,0,0:0:0:0:
449,167,109875,1,0,0:0:0:0:
374,194,110000,1,2,0:3:0:0:
295,178,110125,1,0,0:0:0:0:
238,121,110250,2,0,B|199:108|199:108|153:123,1,80,8|0,1:2|0:0,0:0:0:0:
150,290,110500,5,8,0:3:0:0:
150,290,110625,1,8,0:3:0:0:
150,290,110750,2,0,P|158:217|231:215,1,160,4|8,1:0|1:2,0:0:0:0:
301,341,111500,1,2,0:3:0:0:
367,368,111625,2,0,P|405:377|445:372,2,80,2|0|0,0:3|0:0|0:0,0:0:0:0:
357,296,112250,1,8,1:2:0:0:
497,265,112500,1,0,0:0:0:0:
451,128,112750,6,0,P|413:119|373:124,1,80,4|0,1:0|0:0,0:0:0:0:
235,170,113250,1,8,1:2:0:0:
336,271,113500,1,2,0:3:0:0:
285,321,113625,2,0,P|245:326|206:317,1,80,4|2,1:0|0:3,0:0:0:0:
155,266,114000,2,0,L|148:210,1,40,2|2,0:3|0:3,0:0:0:0:
165,155,114250,1,8,1:2:0:0:
229,120,114375,1,8,1:2:0:0:
301,125,114500,1,8,1:2:0:0:
363,162,114625,1,8,1:2:0:0:
384,231,114750,6,0,L|395:311,2,80,4|0|8,1:0|0:0|1:2,0:0:0:0:
443,99,115500,1,2,0:3:0:0:
443,99,115625,1,2,0:3:0:0:
443,99,116000,1,2,0:3:0:0:
301,125,116250,2,0,P|271:159|259:214,1,80,8|0,1:2|0:0,0:0:0:0:
128,231,116750,6,0,L|117:311,2,80,4|0|8,1:0|0:0|1:2,0:0:0:0:
69,99,117500,1,2,0:3:0:0:
69,99,117625,1,2,0:3:0:0:
69,99,118000,1,2,0:3:0:0:
211,125,118250,2,0,P|241:159|253:214,1,80,8|0,1:2|0:0,0:0:0:0:
200,242,118625,1,8,0:3:0:0:
200,242,118750,6,0,P|213:279|240:308,1,80,4|0,1:0|0:0,0:0:0:0:
134,209,119250,2,0,P|96:222|67:249,1,80,8|4,1:2|0:3,0:0:0:0:
3,271,119625,2,0,P|62:275|113:305,1,120,4|0,1:0|3:0,0:0:0:0:
236,381,120250,1,8,1:2:0:0:
236,381,120500,1,0,0:0:0:0:
448,338,120750,6,0,P|434:301|407:272,1,80,4|0,1:0|0:0,0:0:0:0:
265,242,121250,1,8,1:2:0:0:
362,135,121500,1,2,0:3:0:0:
362,135,121625,2,0,L|351:55,1,80,4|8,1:0|1:2,0:0:0:0:
300,4,122000,1,2,0:3:0:0:
300,4,122125,1,2,0:3:0:0:
249,54,122250,5,8,1:2:0:0:
180,72,122375,1,8,1:2:0:0:
113,47,122500,1,8,1:2:0:0:
44,65,122625,1,8,1:2:0:0:
18,132,122750,6,0,P|45:149|106:151,1,80,4|0,1:0|0:0,0:0:0:0:
163,142,123125,1,0,0:0:0:0:
163,142,123250,1,8,1:2:0:0:
325,37,123500,5,2,0:3:0:0:
325,37,123750,1,0,0:0:0:0:
325,37,123875,1,0,0:0:0:0:
464,192,124250,5,8,1:2:0:0:
464,192,124500,1,0,0:0:0:0:
336,32,124750,6,0,B|356:88|324:108|284:120|306:179,1,160,4|8,1:0|1:2,0:0:0:0:
170,225,125500,1,2,0:3:0:0:
170,225,125625,1,2,0:3:0:0:
170,225,125750,1,0,0:0:0:0:
110,355,126000,1,2,0:3:0:0:
9,253,126250,2,0,P|0:217|14:153,1,80,8|8,1:2|0:3,0:0:0:0:
31,107,126625,1,8,0:3:0:0:
84,58,126750,6,0,L|164:47,2,80,4|0|8,1:0|0:0|1:2,0:0:0:0:
162,179,127500,1,2,0:3:0:0:
212,230,127625,2,0,B|226:276|197:287|173:297|194:357,1,120,2|2,0:3|0:3,0:0:0:0:
330,376,128250,1,8,1:2:0:0:
468,334,128500,1,0,0:0:0:0:
499,268,128625,1,8,0:0:0:0:
468,202,128750,5,4,1:0:0:0:
468,202,129125,5,2,0:3:0:0:
499,136,129250,1,4,1:0:0:0:
499,136,129500,5,2,0:3:0:0:
468,70,129625,1,4,1:0:0:0:
468,70,130250,6,0,L|472:27,1,35.9999989013672,8|0,1:2|0:0,0:0:0:0:
344,80,130750,6,0,P|357:94|366:112,1,40,4|0,1:0|0:0,0:0:0:0:
462,198,131000,6,0,B|423:185|423:185|377:200,1,80,0|0,0:0|0:0,0:0:0:0:
499,291,131250,2,0,B|423:263|423:263|336:291,1,160,8|2,1:2|0:3,0:0:0:0:
422,372,131625,1,2,0:3:0:0:
274,368,131750,6,0,B|246:292|246:292|274:205,1,160,0|2,0:0|0:3,0:0:0:0:
379,152,132125,1,0,0:0:0:0:
379,152,132250,2,0,B|324:160|324:160|284:138|284:138|226:149,2,160,8|0|2,1:2|0:0|0:3,0:0:0:0:
488,95,133000,6,0,L|499:5,2,80,0|8|2,0:0|1:2|0:3,0:0:0:0:
437,145,133625,2,0,B|423:191|452:202|476:212|455:272,1,120,2|2,0:3|0:3,0:0:0:0:
382,379,134250,1,8,1:2:0:0:
382,379,134500,1,0,0:0:0:0:
315,251,134750,1,4,1:0:0:0:
224,364,135000,6,0,B|232:309|232:309|210:269|210:269|221:211,2,160,0|8|2,0:0|1:2|0:3,0:0:0:0:
294,150,135625,2,0,B|218:122|218:122|131:150,1,160,2|0,0:3|0:0,0:0:0:0:
85,203,136000,5,0,0:0:0:0:
141,259,136125,1,0,0:0:0:0:
112,333,136250,2,0,B|167:342|167:342|207:319|207:319|266:330,2,160,8|0|2,1:2|0:0|0:3,0:0:0:0:
126,188,137000,6,0,B|134:133|134:133|112:93|112:93|123:35,1,160,0|8,0:0|1:2,0:0:0:0:
43,45,137375,2,0,B|32:103|32:103|54:143|54:143|46:198,1,160,0|2,0:0|0:3,0:0:0:0:
126,188,137750,6,0,B|134:133|134:133|112:93|112:93|123:35,1,160,0|2,0:0|0:3,0:0:0:0:
199,6,138125,1,0,0:0:0:0:
256,63,138250,6,0,P|265:106|258:150,1,80,8|8,1:2|0:3,0:0:0:0:
236,210,138625,1,8,0:3:0:0:
184,259,138750,1,4,1:0:0:0:
390,322,139000,6,0,B|403:283|403:283|388:237,1,80,0|0,0:0|0:0,0:0:0:0:
476,133,139250,2,0,B|400:161|400:161|313:133,1,160,8|2,1:2|0:3,0:0:0:0:
399,52,139625,1,2,0:3:0:0:
239,100,139750,6,0,B|228:158|228:158|250:198|250:198|242:253,1,160,0|2,0:0|0:3,0:0:0:0:
146,152,140125,1,0,0:0:0:0:
146,152,140250,2,0,B|154:97|154:97|132:57|132:57|143:-1,2,160,8|0|2,1:2|0:0|0:3,0:0:0:0:
80,329,141000,6,0,L|-10:340,2,80,0|8|2,0:0|1:2|0:3,0:0:0:0:
130,278,141625,2,0,B|176:264|187:293|197:317|257:296,1,120,2|2,0:3|0:3,0:0:0:0:
364,223,142250,1,8,1:2:0:0:
364,223,142500,1,0,0:0:0:0:
236,156,142750,1,4,1:0:0:0:
152,328,143000,6,0,B|97:336|97:336|57:314|57:314|-1:325,2,160,0|8|0,0:0|1:2|0:0,0:0:0:0:
56,157,143625,2,0,B|43:196|43:196|58:242,1,80,2|0,0:3|0:0,0:0:0:0:
215,169,143875,6,0,B|223:114|223:114|201:74|201:74|212:16,1,160,0|0,0:0|0:0,0:0:0:0:
284,243,144250,2,0,B|206:264|206:264|133:234,2,160,8|0|2,1:2|0:0|0:3,0:0:0:0:
471,194,145000,6,0,B|479:139|479:139|457:99|457:99|468:41,1,160,0|8,0:0|1:2,0:0:0:0:
388,51,145375,2,0,B|377:109|377:109|399:149|399:149|391:204,1,160,0|2,0:0|0:3,0:0:0:0:
448,260,145750,5,0,0:0:0:0:
376,294,145875,2,0,L|365:363,2,40,2|2|2,0:3|0:3|0:3,0:0:0:0:
312,245,146125,1,2,0:3:0:0:
245,290,146250,5,8,1:2:0:0:
199,225,146375,1,8,1:2:0:0:
208,146,146500,1,8,1:2:0:0:
254,82,146625,1,8,1:2:0:0:
328,60,146750,5,4,1:0:0:0:
383,115,146875,1,0,0:0:0:0:
438,59,147000,2,0,P|464:86|476:117,1,60.0000022888184,0|0,0:0|0:0,0:0:0:0:
478,184,147250,1,8,1:2:0:0:
425,241,147375,1,0,0:0:0:0:
355,206,147500,1,2,0:3:0:0:
304,265,147625,1,2,0:3:0:0:
304,265,147875,1,0,0:0:0:0:
304,265,148125,1,0,0:0:0:0:
355,206,148250,2,0,P|367:170|350:120,1,60.0000022888184,8|0,1:2|0:0,0:0:0:0:
220,276,148500,2,0,P|208:303|210:333,1,60.0000022888184,0|0,0:0|0:0,0:0:0:0:
170,188,148750,5,2,0:3:0:0:
124,125,148875,1,0,0:0:0:0:
50,149,149000,1,0,0:0:0:0:
50,227,149125,1,0,0:0:0:0:
124,251,149250,2,0,L|292:271,1,120.000004577637,8|2,1:2|0:3,0:0:0:0:
298,209,149625,1,2,0:3:0:0:
298,209,149875,1,0,0:0:0:0:
298,209,150125,1,0,0:0:0:0:
254,143,150250,2,0,P|248:117|259:57,1,60.0000022888184,8|0,1:2|0:0,0:0:0:0:
387,220,150500,2,0,P|393:246|382:306,1,60.0000022888184,0|0,0:0|0:0,0:0:0:0:
478,176,150750,5,4,1:0:0:0:
423,121,150875,1,0,0:0:0:0:
479,66,151000,1,0,0:0:0:0:
414,24,151125,1,0,0:0:0:0:
358,79,151250,2,0,P|329:88|286:87,1,60.0000022888184,8|0,1:2|0:0,0:0:0:0:
222,73,151500,1,2,0:3:0:0:
215,150,151625,1,2,0:3:0:0:
215,150,151875,1,0,0:0:0:0:
215,150,152125,1,0,0:0:0:0:
151,105,152250,2,0,P|124:95|94:93,1,60.0000022888184,8|0,1:2|0:0,0:0:0:0:
275,14,152500,2,0,P|302:4|332:2,1,60.0000022888184,0|0,0:0|0:0,0:0:0:0:
462,136,152750,5,2,0:3:0:0:
50,248,153250,1,8,1:2:0:0:
313,317,153500,1,2,0:3:0:0:
313,317,153625,1,2,0:3:0:0:
313,317,153750,1,0,0:0:0:0:
257,262,153875,6,0,L|266:204,2,30.0000011444092,2|2|2,0:3|0:3|0:3,0:0:0:0:
201,318,154125,1,2,0:3:0:0:
158,253,154250,1,8,1:2:0:0:
194,185,154375,1,8,1:2:0:0:
160,115,154500,1,8,1:2:0:0:
160,115,154625,1,8,1:2:0:0:
197,47,154750,5,4,1:0:0:0:
315,337,155250,1,8,1:2:0:0:
415,138,155500,5,0,0:0:0:0:
316,108,155750,1,8,1:2:0:0:
256,192,156000,1,0,0:0:0:0:
256,192,156125,1,0,0:0:0:0:
202,239,156250,2,0,P|161:252|105:242,1,80,8|8,1:2|1:2,0:0:0:0:
60,218,156625,1,4,0:0:0:0:
60,218,157000,5,2,1:3:0:0:
256,192,157250,1,2,1:3:0:0:
256,192,158750,5,4,0:0:0:0:
68,38,163000,6,0,L|53:128,2,80,0|0|0,0:0|0:0|0:0,0:0:0:0:
68,38,163625,1,0,0:0:0:0:
206,192,163875,5,0,0:0:0:0:
256,142,164000,1,0,0:0:0:0:
306,193,164125,1,0,0:0:0:0:
255,243,164250,2,0,L|255:295,1,40,0|0,0:0|0:0,0:0:0:0:
255,355,164500,1,0,0:0:0:0:
444,329,165000,5,0,0:0:0:0:
488,192,165250,1,0,0:0:0:0:
444,55,165500,1,0,0:0:0:0:
444,55,165625,1,2,0:3:0:0:
348,224,165875,5,8,0:3:0:0:
279,200,166000,1,8,0:3:0:0:
214,232,166125,1,0,0:0:0:0:
145,208,166250,2,0,L|140:180,1,23.9999992675781,8|0,1:2|0:0,0:0:0:0:
256,32,166750,5,4,1:0:0:0:
312,88,166875,1,0,0:0:0:0:
255,144,167000,1,0,0:0:0:0:
311,200,167125,1,2,0:3:0:0:
254,256,167250,2,0,B|214:268|214:268|156:248,1,80,0|0,0:0|0:0,0:0:0:0:
321,307,167500,2,0,B|361:295|361:295|419:315,1,80,2|0,0:3|0:0,0:0:0:0:
496,201,167750,5,8,1:2:0:0:
458,130,167875,1,0,0:0:0:0:
380,111,168000,1,2,0:3:0:0:
306,142,168125,1,0,0:0:0:0:
259,207,168250,2,0,B|251:262|251:262|273:302|273:302|262:360,2,160,8|2|4,1:2|0:3|1:0,0:0:0:0:
101,234,169000,6,0,B|109:179|109:179|87:139|87:139|98:81,1,160,0|0,0:0|0:0,0:0:0:0:
154,24,169375,2,0,B|194:12|194:12|252:32,1,80,0|2,0:0|0:3,0:0:0:0:
282,121,169625,2,0,B|242:133|242:133|184:113,1,80,0|8,0:0|1:2,0:0:0:0:
354,45,169875,5,0,0:0:0:0:
432,119,170000,2,0,B|444:159|444:159|424:217,1,80,2|2,0:3|0:3,0:0:0:0:
346,285,170250,2,0,B|404:296|404:296|444:274|444:274|499:282,1,160,2|2,0:3|0:3,0:0:0:0:
256,352,170750,5,4,1:0:0:0:
200,296,170875,1,0,0:0:0:0:
257,240,171000,1,0,0:0:0:0:
201,184,171125,1,2,0:3:0:0:
258,128,171250,2,0,B|298:116|298:116|356:136,1,80,0|0,0:0|0:0,0:0:0:0:
191,77,171500,2,0,B|151:89|151:89|93:69,1,80,2|0,0:3|0:0,0:0:0:0:
16,183,171750,5,8,1:2:0:0:
54,254,171875,1,0,0:0:0:0:
132,273,172000,1,8,0:3:0:0:
206,242,172125,1,8,0:3:0:0:
253,177,172250,2,0,B|261:122|261:122|239:82|239:82|250:24,2,160,8|8|4,1:2|0:3|1:0,0:0:0:0:
455,346,173000,6,0,B|400:354|400:354|360:332|360:332|302:343,1,160,2|0,0:3|0:0,0:0:0:0:
470,262,173375,2,0,B|415:270|415:270|375:248|375:248|317:259,1,160,2|0,0:3|0:0,0:0:0:0:
485,178,173750,2,0,B|430:186|430:186|390:164|390:164|332:175,1,160,8|0,1:2|0:0,0:0:0:0:
500,94,174125,2,0,B|445:102|445:102|405:80|405:80|219:118,1,240,2|2,0:3|0:3,0:0:0:0:
106,152,174750,5,2,1:3:0:0:
406,232,175000,1,2,1:3:0:0:
106,152,176750,5,2,1:3:0:0:
406,232,177000,1,2,1:3:0:0:
258,345,178000,6,0,L|251:391,2,40,0|2|2,0:3|0:3|0:3,0:0:0:0:
308,294,178375,1,2,0:3:0:0:
358,344,178500,2,0,P|382:348|417:346,1,40,8|8,1:2|1:2,0:0:0:0:
479,204,178750,5,4,1:0:0:0:
422,147,178875,1,0,0:0:0:0:
365,203,179000,1,0,0:0:0:0:
421,259,179125,1,2,0:3:0:0:
364,315,179250,2,0,B|324:327|324:327|266:307,1,80,0|0,0:0|0:0,0:0:0:0:
422,147,179500,1,2,0:3:0:0:
422,147,179625,2,0,B|462:135|462:135|520:155,1,80,0|8,0:0|1:2,0:0:0:0:
325,244,179875,5,0,0:0:0:0:
364,315,180000,2,0,B|324:327|324:327|266:307,1,80,2|0,0:3|0:0,0:0:0:0:
458,217,180250,2,0,B|450:272|450:272|472:312|472:312|461:370,2,160,8|0|4,1:2|0:0|1:0,0:0:0:0:
209,202,181000,6,0,B|156:221|120:201|120:201|102:239|102:239|57:217|0:243,2,240,0|2|8,0:0|0:3|1:2,0:0:0:0:
265,145,181875,1,0,0:0:0:0:
321,201,182000,1,2,0:3:0:0:
264,257,182125,1,8,0:3:0:0:
320,313,182250,2,0,B|360:325|360:325|418:305,1,80,8|0,0:3|0:0,0:0:0:0:
471,284,182500,1,0,0:0:0:0:
471,284,182625,1,0,0:0:0:0:
414,227,182750,5,4,1:0:0:0:
357,170,182875,1,0,0:0:0:0:
413,113,183000,1,2,0:3:0:0:
469,169,183125,1,8,1:2:0:0:
414,227,183250,2,0,B|402:267|402:267|422:325,1,80,0|2,0:0|0:3,0:0:0:0:
413,113,183500,1,2,0:3:0:0:
413,113,183625,2,0,B|425:73|425:73|405:15,1,80,2|2,0:3|0:3,0:0:0:0:
205,170,183875,5,8,1:2:0:0:
262,226,184000,2,0,B|274:266|274:266|254:324,1,80,0|0,0:0|0:0,0:0:0:0:
315,361,184250,2,0,L|384:372,2,40,8|8|8,1:2|1:2|1:2,0:0:0:0:
238,382,184500,2,0,B|202:358|202:358|132:354,1,80,2|0,0:3|0:0,0:0:0:0:
86,370,184750,1,4,1:0:0:0:
57,38,185000,6,0,B|112:30|112:30|152:52|152:52|210:41,1,160,2|2,0:3|0:3,0:0:0:0:
42,122,185375,2,0,B|97:114|97:114|137:136|137:136|195:125,1,160,2|0,0:3|0:0,0:0:0:0:
27,206,185750,2,0,B|82:198|82:198|122:220|122:220|180:209,1,160,8|0,1:2|0:0,0:0:0:0:
12,290,186125,2,0,B|67:282|67:282|107:304|107:304|293:266,1,240,2|2,0:3|0:3,0:0:0:0:
450,140,186750,5,2,1:3:0:0:
61,243,187000,1,2,1:3:0:0:
450,140,188750,5,2,1:3:0:0:
61,243,189000,1,2,1:3:0:0:
363,312,189750,6,0,L|370:358,2,40,2|8|8,0:3|1:2|1:2,0:0:0:0:
311,260,190125,1,8,1:2:0:0:
260,310,190250,1,8,1:2:0:0:
260,310,190375,1,2,0:3:0:0:
209,259,190500,1,2,0:3:0:0:
209,259,190625,1,2,0:3:0:0:
158,309,190750,5,4,1:0:0:0:
354,229,191125,1,0,1:0:0:0:
158,149,191500,1,0,1:0:0:0:
354,69,191875,1,0,1:0:0:0:
256,192,192250,6,0,L|256:208,1,16,0|0,0:0|0:0,0:0:0:0:
256,304,193000,6,0,L|256:288,1,16,0|0,0:0|0:0,0:0:0:0:
336,92,193500,6,0,L|336:131,1,40,0|0,0:0|0:0,0:0:0:0:
176,52,193750,2,0,L|176:91,1,40,0|0,0:0|0:0,0:0:0:0:
256,192,194000,5,2,0:3:0:0:
256,192,194125,1,2,0:3:0:0:
256,192,194250,2,0,B|248:247|248:247|270:287|270:287|259:345,2,160,12|8|4,1:2|0:3|1:0,0:0:0:0:
432,329,195000,6,0,L|522:340,2,80,0|8|2,0:0|1:2|0:3,0:0:0:0:
382,278,195625,2,0,B|336:264|325:293|315:317|255:296,1,120,2|2,0:3|0:3,0:0:0:0:
148,223,196250,1,8,1:2:0:0:
148,223,196500,1,0,0:0:0:0:
276,156,196750,1,4,1:0:0:0:
459,232,197000,6,0,B|450:287|450:287|473:327|473:327|462:386,2,160,0|8|2,0:0|1:2|0:3,0:0:0:0:
383,343,197625,2,0,B|356:285|356:285|384:160,1,160,2|0,0:3|0:0,0:0:0:0:
400,114,198000,5,0,0:0:0:0:
343,57,198125,1,0,0:0:0:0:
286,113,198250,2,0,B|228:140|228:140|103:112,2,160,8|0|2,1:2|0:0|0:3,0:0:0:0:
198,368,199000,6,0,B|207:313|207:313|184:273|184:273|195:214,1,160,0|8,0:0|1:2,0:0:0:0:
274,215,199375,2,0,B|310:288|310:288|270:377,1,160,0|2,0:0|0:3,0:0:0:0:
198,368,199750,6,0,B|207:313|207:313|184:273|184:273|195:214,1,160,0|2,0:0|0:3,0:0:0:0:
251,159,200125,1,0,0:0:0:0:
307,215,200250,6,0,P|346:222|419:204,1,80,8|8,1:2|0:3,0:0:0:0:
456,200,200625,1,8,0:3:0:0:
506,149,200750,1,4,1:0:0:0:
347,40,201000,6,0,B|292:31|292:31|252:54|252:54|193:43,2,160,0|8|2,0:0|1:2|0:3,0:0:0:0:
391,106,201625,1,2,0:3:0:0:
300,274,201750,6,0,B|291:219|291:219|314:179|314:179|303:120,1,160,0|2,0:0|0:3,0:0:0:0:
206,237,202125,1,0,0:0:0:0:
206,237,202250,2,0,B|224:334|224:334|275:368,2,160,8|0|2,1:2|0:0|0:3,0:0:0:0:
80,329,203000,6,0,L|-10:340,2,80,0|8|2,0:0|1:2|0:3,0:0:0:0:
130,278,203625,2,0,B|176:264|187:293|197:317|257:296,1,120,2|2,0:3|0:3,0:0:0:0:
364,223,204250,1,8,1:2:0:0:
364,223,204500,1,0,0:0:0:0:
236,156,204750,1,4,1:0:0:0:
359,39,205000,6,0,B|414:30|414:30|454:53|454:53|513:42,2,160,0|8|0,0:0|1:2|0:0,0:0:0:0:
501,129,205625,2,0,B|446:138|446:138|406:115|406:115|347:126,1,160,2|0,0:3|0:0,0:0:0:0:
287,74,206000,5,2,0:3:0:0:
273,152,206125,1,0,0:0:0:0:
211,100,206250,1,8,1:2:0:0:
197,178,206375,2,0,B|100:160|100:160|66:109,1,160,0|0,0:0|0:0,0:0:0:0:
33,34,206750,5,2,0:3:0:0:
33,34,207000,2,0,B|42:89|42:89|19:129|19:129|30:188,1,160,0|8,0:0|1:2,0:0:0:0:
109,187,207375,2,0,B|145:114|145:114|105:25,1,160,0|2,0:0|0:3,0:0:0:0:
185,9,207750,5,0,0:0:0:0:
241,65,207875,2,0,L|252:134,2,40,2|2|2,0:3|0:3|0:3,0:0:0:0:
305,16,208125,1,2,0:3:0:0:
385,16,208250,5,8,1:2:0:0:
431,81,208375,1,8,1:2:0:0:
422,160,208500,1,8,1:2:0:0:
376,224,208625,1,8,1:2:0:0:
304,253,208750,6,0,P|239:254|182:214,1,120.000004577637,4|0,1:0|0:0,0:0:0:0:
137,171,209125,1,0,0:0:0:0:
192,115,209250,1,8,1:2:0:0:
136,59,209375,1,0,0:0:0:0:
80,114,209500,1,2,0:3:0:0:
24,58,209625,1,2,0:3:0:0:
24,58,209875,1,0,0:0:0:0:
24,58,210125,1,0,0:0:0:0:
80,114,210250,2,0,P|97:148|91:194,1,60.0000022888184,8|0,1:2|0:0,0:0:0:0:
136,59,210500,2,0,P|119:25|125:-21,1,60.0000022888184,0|0,0:0|0:0,0:0:0:0:
80,253,210750,6,0,P|145:254|202:214,1,120.000004577637,2|0,0:3|0:0,0:0:0:0:
247,171,211125,1,0,0:0:0:0:
192,115,211250,1,8,1:2:0:0:
248,59,211375,1,0,0:0:0:0:
304,114,211500,1,2,0:3:0:0:
360,58,211625,1,2,0:3:0:0:
360,58,211875,1,0,0:0:0:0:
360,58,212125,1,0,0:0:0:0:
304,114,212250,2,0,P|287:148|293:194,1,60.0000022888184,8|0,1:2|0:0,0:0:0:0:
248,59,212500,2,0,P|265:25|259:-21,1,60.0000022888184,0|0,0:0|0:0,0:0:0:0:
85,44,212750,5,4,1:0:0:0:
29,99,212875,1,0,0:0:0:0:
84,154,213000,1,0,0:0:0:0:
139,209,213125,1,0,0:0:0:0:
83,264,213250,2,0,L|14:253,1,60.0000022888184,8|0,1:2|0:0,0:0:0:0:
41,330,213500,1,2,0:3:0:0:
112,361,213625,1,2,0:3:0:0:
112,361,213875,1,0,0:0:0:0:
112,361,214125,1,0,0:0:0:0:
41,330,214250,2,0,L|30:261,1,60.0000022888184,8|0,1:2|0:0,0:0:0:0:
149,179,214500,2,0,L|138:248,1,60.0000022888184,0|0,0:0|0:0,0:0:0:0:
41,127,214750,5,2,0:3:0:0:
471,257,215250,1,8,1:2:0:0:
256,320,215500,1,2,0:3:0:0:
256,320,215625,1,2,0:3:0:0:
256,320,215750,1,0,0:0:0:0:
311,264,215875,6,0,L|302:206,2,30.0000011444092,2|2|2,0:3|0:3|0:3,0:0:0:0:
367,320,216125,1,2,0:3:0:0:
410,255,216250,1,8,1:2:0:0:
374,187,216375,1,8,1:2:0:0:
408,117,216500,1,8,1:2:0:0:
408,117,216625,1,8,1:2:0:0:
371,49,216750,5,4,1:0:0:0:
141,335,217250,1,8,1:2:0:0:
97,138,217500,5,0,0:0:0:0:
196,108,217750,1,8,1:2:0:0:
256,192,218000,1,0,0:0:0:0:
256,192,218125,1,0,0:0:0:0:
310,239,218250,2,0,P|351:252|407:242,1,80,8|8,1:2|1:2,0:0:0:0:
452,218,218625,1,4,0:0:0:0:
452,218,219000,5,2,1:3:0:0:
256,192,219250,1,2,1:3:0:0:
60,218,219500,5,2,0:3:0:0:
3,161,219625,1,2,0:3:0:0:
59,104,219750,2,0,L|123:104,1,40,4|0,1:2|0:0,0:0:0:0:
179,104,220000,1,8,1:2:0:0:
235,160,220125,1,8,1:2:0:0:
178,216,220250,1,2,0:3:0:0:
121,272,220375,1,2,0:3:0:0:
177,328,220500,1,2,0:3:0:0:
177,328,220625,1,2,0:3:0:0:
233,271,220750,6,0,L|297:271,1,40,4|0,1:0|0:0,0:0:0:0:
433,271,221125,1,0,0:0:0:0:
433,191,221250,2,0,L|369:191,1,40,8|0,1:2|0:0,0:0:0:0:
336,134,221500,1,2,0:3:0:0:
392,77,221625,1,8,1:2:0:0:
232,77,221875,6,0,L|200:77,2,20,8|8|2,1:2|1:2|0:3,0:0:0:0:
288,133,222125,1,0,0:0:0:0:
231,189,222250,1,2,0:3:0:0:
174,245,222375,1,2,0:3:0:0:
230,301,222500,1,8,1:2:0:0:
230,301,222625,1,8,1:2:0:0:
286,357,222750,5,4,1:0:0:0:
226,27,223250,1,8,1:2:0:0:
415,138,223500,5,0,0:0:0:0:
316,108,223750,1,8,1:2:0:0:
256,192,224000,1,0,0:0:0:0:
256,192,224125,1,0,0:0:0:0:
202,239,224250,2,0,P|161:252|105:242,1,80,8|8,1:2|1:2,0:0:0:0:
60,218,224625,1,4,0:0:0:0:
60,218,225000,5,2,1:3:0:0:
256,192,225250,1,2,1:3:0:0:
256,192,225750,6,0,L|242:351,1,160,2|0,0:0|0:0,0:0:0:0:
141,295,226125,2,0,L|155:136,1,160,2|0,0:0|0:0,0:0:0:0:
269,108,226500,2,0,P|228:98|206:38,1,80,2|0,0:0|0:0,0:0:0:0:
340,38,226750,5,4,1:0:0:0:
340,38,226875,1,0,0:0:0:0:
319,115,227125,1,0,3:0:0:0:
340,192,227375,1,0,0:0:0:0:
340,192,227500,1,0,3:0:0:0:
340,192,227625,1,0,0:0:0:0:
319,269,227875,1,0,3:0:0:0:
340,346,228125,1,0,0:0:0:0:
340,346,228250,1,0,3:0:0:0:
340,346,228375,1,0,0:0:0:0:
340,346,228500,1,0,3:0:0:0:
340,346,228625,1,0,0:0:0:0:
340,346,228750,5,0,3:0:0:0:
340,346,228875,1,0,0:0:0:0:
319,269,229125,1,0,3:0:0:0:
340,192,229375,1,0,0:0:0:0:
340,192,229500,1,2,0:3:0:0:
340,192,229625,1,2,0:3:0:0:
319,115,229750,5,8,1:2:0:0:
319,115,229937,5,8,1:2:0:0:
319,115,230125,5,8,1:2:0:0:
340,38,230250,6,0,L|395:28,1,47.9999985351563,4|0,1:2|0:0,0:0:0:0:
