osu file format v14

[General]
AudioFilename: audio.mp3
AudioLeadIn: 0
PreviewTime: 65474
Countdown: 0
SampleSet: None
StackLeniency: 0.4
Mode: 0
LetterboxInBreaks: 0
WidescreenStoryboard: 1

[Editor]
DistanceSpacing: 2.5
BeatDivisor: 4
GridSize: 32
TimelineZoom: 1.8

[Metadata]
Title:DROPOUT!?
TitleUnicode:DROPOUT!?
Artist:Saint Snow
ArtistUnicode:Saint Snow
Creator:Tatan
Version:EXPERT
Source:ラブライブ!サンシャイン!!
Tags:
BeatmapID:1908551
BeatmapSetID:912623

[Difficulty]
HPDrainRate:5
CircleSize:4
OverallDifficulty:9
ApproachRate:9.2
SliderMultiplier:2
SliderTickRate:1

[Events]
//Background and Video events
0,0,"23115123432.jpg",0,0
//Break Periods
//Storyboard Layer 0 (Background)
//Storyboard Layer 1 (Fail)
//Storyboard Layer 2 (Pass)
//Storyboard Layer 3 (Foreground)
//Storyboard Sound Samples

[TimingPoints]
365,329.67032967033,3,3,1,60,1,0
8249,-133.333333333333,4,3,1,60,0,0
14375,-133.333333333333,4,3,1,60,0,0
14705,-133.333333333333,4,3,1,60,0,0
15529,-100,4,3,1,60,0,0
16189,329.67032967033,4,3,1,60,1,0
16189,-83.3333333333333,4,3,1,60,0,1
26573,-66.6666666666667,4,3,1,60,0,1
26738,329.67032967033,3,3,1,60,1,0
26738,-100,4,3,1,60,0,1
28057,-66.6666666666667,4,3,1,60,0,1
28716,-83.3333333333333,4,3,1,60,0,0
44540,-133.333333333333,4,3,1,60,0,0
47507,-200,4,3,1,60,0,0
48167,-66.6666666666667,4,3,1,60,0,0
48496,-100,4,3,1,60,0,0
65310,-133.333333333333,4,3,1,60,0,0
66298,-100,4,3,1,60,0,1
81133,-76.9230769230769,4,3,1,60,0,1
81298,-83.3333333333333,4,3,1,60,0,0
90035,-181.818181818182,4,3,1,60,0,0
92012,329.67032967033,4,3,1,100,1,0
92012,-83.3333333333333,4,3,1,60,0,1
95969,-66.6666666666667,4,3,1,60,0,1
96792,-83.3333333333333,4,3,1,60,0,1
102561,329.67032967033,3,3,1,100,1,0
102561,-83.3333333333333,3,3,1,100,0,0
104458,-100,4,3,1,60,0,0

[Colours]
Combo1 : 0,255,255
Combo2 : 128,0,255
Combo3 : 213,15,240
Combo4 : 95,0,189
Combo5 : 128,255,255

[HitObjects]
113,139,8277,5,12,0:0:0:0:
177,83,8441,2,0,P|196:121|190:172,1,75.0000028610231,0|0,0:0|0:0,0:0:0:0:
45,83,8771,2,0,P|108:52|185:96,1,150.000005722046,0|0,0:0|0:0,0:0:0:0:
113,139,9183,1,0,0:0:0:0:
113,139,9266,1,12,0:0:0:0:
398,216,10090,5,0,0:0:0:0:
398,216,10172,1,0,0:0:0:0:
398,216,10255,1,12,0:0:0:0:
341,144,10419,2,0,P|402:126|437:138,1,75.0000028610231,0|0,0:0|0:0,0:0:0:0:
455,288,10749,2,0,P|394:306|359:294,1,75.0000028610231,0|0,0:0|0:0,0:0:0:0:
398,216,11079,5,0,0:0:0:0:
494,142,11244,2,0,L|489:229,1,75.0000028610231,12|0,0:0|0:0,0:0:0:0:
398,216,11573,1,0,0:0:0:0:
411,127,11738,1,0,0:0:0:0:
294,220,11903,2,0,L|299:295,1,75.0000028610231,12|0,0:0|0:0,0:0:0:0:
198,241,12233,5,0,0:0:0:0:
290,145,12397,2,0,L|294:219,1,75.0000028610231,0|0,0:0|0:0,0:0:0:0:
202,315,12727,2,0,L|197:240,1,75.0000028610231,0|0,0:0|0:0,0:0:0:0:
299,295,13057,1,0,0:0:0:0:
299,295,13139,1,0,0:0:0:0:
299,295,13222,2,0,L|303:369,1,75.0000028610231,12|0,0:0|0:0,0:0:0:0:
202,315,13551,2,0,L|197:240,1,75.0000028610231,0|0,0:0|0:0,0:0:0:0:
190,156,13881,1,0,0:0:0:0:
115,196,14046,5,0,0:0:0:0:
115,196,14129,1,0,0:0:0:0:
115,196,14211,1,12,0:0:0:0:
131,113,14375,2,0,P|169:131|196:175,1,75.0000028610231,0|0,0:0|0:0,0:0:0:0:
27,194,14705,2,0,P|57:130|145:118,1,150.000005722046,0|0,0:0|0:0,0:0:0:0:
115,196,15200,1,12,0:0:0:0:
396,339,15529,6,0,B|464:395|513:296|436:245|394:271|370:335|334:337|266:323,1,300,0|0,0:0|0:0,0:0:0:0:
178,274,16189,5,4,0:0:0:0:
175,235,16271,1,0,0:0:0:0:
174,196,16353,1,8,0:0:0:0:
172,157,16436,1,0,0:0:0:0:
170,118,16518,2,0,P|210:110|238:115,1,59.9999981689454,0|0,0:0|0:0,0:0:0:0:
252,34,16683,2,0,P|287:52|305:74,1,59.9999981689454,8|0,0:0|0:0,0:0:0:0:
318,160,16848,6,0,P|376:150|433:168,1,119.999996337891,0|8,0:0|0:0,0:0:0:0:
512,171,17095,6,0,P|452:174|400:203,1,119.999996337891,0|0,0:0|0:0,0:0:0:0:
348,257,17343,6,0,P|386:250|424:262,1,59.9999981689454,8|0,0:0|0:0,0:0:0:0:
379,341,17507,5,0,0:0:0:0:
349,371,17589,1,0,0:0:0:0:
310,384,17671,1,8,0:0:0:0:
269,383,17754,1,0,0:0:0:0:
233,361,17837,2,0,P|209:316|209:276,1,59.9999981689454,0|0,0:0|0:0,0:0:0:0:
125,314,18002,2,0,P|136:265|162:234,1,59.9999981689454,8|0,0:0|0:0,0:0:0:0:
230,195,18167,5,0,0:0:0:0:
249,158,18249,1,0,0:0:0:0:
252,116,18331,1,8,0:0:0:0:
237,77,18414,1,0,0:0:0:0:
206,49,18496,2,0,P|174:73|160:108,1,59.9999981689454,0|0,0:0|0:0,0:0:0:0:
92,51,18661,2,0,P|82:89|94:125,1,59.9999981689454,8|0,0:0|0:0,0:0:0:0:
147,193,18826,5,4,0:0:0:0:
188,194,18908,1,0,0:0:0:0:
230,195,18990,1,8,0:0:0:0:
272,196,19073,1,0,0:0:0:0:
314,197,19156,2,0,P|332:238|332:271,1,59.9999981689454,0|0,0:0|0:0,0:0:0:0:
419,252,19321,2,0,P|406:294|385:320,1,59.9999981689454,8|0,0:0|0:0,0:0:0:0:
320,352,19485,6,0,P|262:320|195:329,1,119.999996337891,0|8,0:0|0:0,0:0:0:0:
130,354,19733,6,0,P|186:319|212:257,1,119.999996337891,0|0,0:0|0:0,0:0:0:0:
230,195,19980,6,0,P|230:243|261:283,1,59.9999981689454,8|0,0:0|0:0,0:0:0:0:
325,137,20145,1,0,0:0:0:0:
136,193,20310,1,8,0:0:0:0:
356,220,20474,1,0,0:0:0:0:
106,105,20639,2,0,L|242:97,1,119.999996337891,8|0,0:0|0:0,0:0:0:0:
368,0,20969,2,0,B|319:63|319:63|355:219,1,239.999992675781,8|0,0:0|0:0,0:0:0:0:
494,336,21463,5,4,0:0:0:0:
455,318,21545,1,0,0:0:0:0:
414,314,21627,1,8,0:0:0:0:
373,323,21710,1,0,0:0:0:0:
337,345,21793,2,0,P|305:281|308:256,1,59.9999981689454,0|0,0:0|0:0,0:0:0:0:
225,311,21958,2,0,P|241:241|259:224,1,59.9999981689454,8|0,0:0|0:0,0:0:0:0:
295,185,22123,6,0,B|328:219|328:219|446:209,1,119.999996337891,0|8,0:0|0:0,0:0:0:0:
476,159,22370,6,0,B|443:125|443:125|325:135,1,119.999996337891,0|0,0:0|0:0,0:0:0:0:
352,235,22617,6,0,B|411:229,1,59.9999981689454,8|0,0:0|0:0,0:0:0:0:
290,98,22782,5,0,0:0:0:0:
250,83,22864,1,0,0:0:0:0:
209,79,22946,1,8,0:0:0:0:
167,86,23029,1,0,0:0:0:0:
130,104,23112,2,0,L|133:176,1,59.9999981689454,0|0,0:0|0:0,0:0:0:0:
52,185,23277,2,0,L|49:125,1,59.9999981689454,8|0,0:0|0:0,0:0:0:0:
118,257,23441,5,0,0:0:0:0:
158,267,23523,1,0,0:0:0:0:
200,267,23605,1,8,0:0:0:0:
241,256,23688,1,0,0:0:0:0:
278,237,23771,2,0,P|295:283|291:326,1,59.9999981689454,0|0,0:0|0:0,0:0:0:0:
383,296,23936,2,0,P|366:342|335:372,1,59.9999981689454,8|0,0:0|0:0,0:0:0:0:
187,358,24101,5,4,0:0:0:0:
166,314,24183,1,0,0:0:0:0:
158,267,24265,1,8,0:0:0:0:
163,219,24348,1,0,0:0:0:0:
180,175,24430,2,0,P|229:169|271:183,1,59.9999981689454,0|0,0:0|0:0,0:0:0:0:
264,87,24595,2,0,P|305:113|328:151,1,59.9999981689454,8|0,0:0|0:0,0:0:0:0:
320,224,24760,6,0,P|397:237|457:209,1,119.999996337891,0|8,0:0|0:0,0:0:0:0:
512,173,25007,6,0,P|435:186|375:158,1,119.999996337891,0|0,0:0|0:0,0:0:0:0:
312,121,25255,6,0,P|366:129|411:110,1,59.9999981689454,8|0,0:0|0:0,0:0:0:0:
345,22,25419,5,0,0:0:0:0:
297,17,25501,1,0,0:0:0:0:
253,35,25583,1,8,0:0:0:0:
220,70,25666,1,0,0:0:0:0:
207,115,25748,1,0,0:0:0:0:
215,162,25831,1,0,0:0:0:0:
243,201,25914,2,0,P|276:219|326:221,1,59.9999981689454,8|0,0:0|0:0,0:0:0:0:
406,131,26079,5,0,0:0:0:0:
339,104,26161,1,0,0:0:0:0:
268,116,26243,1,8,0:0:0:0:
215,162,26326,1,0,0:0:0:0:
162,208,26409,1,0,0:0:0:0:
91,221,26491,1,0,0:0:0:0:
25,194,26573,2,0,P|3:155|1:110,1,75.0000028610231,8|0,0:0|0:0,0:0:0:0:
97,43,26738,6,0,L|47:40,3,50,12|0|0|0,0:0|0:0|0:0|0:0,0:0:0:0:
209,63,27068,1,0,0:0:0:0:
231,101,27150,1,0,0:0:0:0:
241,145,27232,1,0,0:0:0:0:
237,190,27315,1,0,0:0:0:0:
219,231,27397,2,0,P|205:274|206:303,3,50,0|0|0|0,0:0|0:0|0:0|0:0,0:0:0:0:
303,278,27727,5,12,0:0:0:0:
337,276,27809,1,0,0:0:0:0:
372,275,27891,1,0,0:0:0:0:
407,274,27974,1,0,0:0:0:0:
442,272,28056,5,8,0:0:0:0:
466,228,28139,1,8,0:0:0:0:
474,179,28221,1,8,0:0:0:0:
467,130,28304,1,8,0:0:0:0:
445,85,28386,2,0,P|407:91|378:111,1,75.0000028610231,8|8,0:0|0:0,0:0:0:0:
326,39,28551,2,0,P|299:67|290:101,1,75.0000028610231,8|8,0:0|0:0,0:0:0:0:
365,210,28716,6,0,P|282:182|226:199,1,119.999996337891,4|8,0:0|0:0,0:0:0:0:
177,279,29046,1,0,0:0:0:0:
179,307,29128,1,0,0:0:0:0:
182,337,29210,1,8,0:0:0:0:
231,200,29375,2,0,B|168:191|168:191|105:211,1,119.999996337891,0|8,0:0|0:0,0:0:0:0:
273,323,29705,2,0,B|336:332|336:332|399:312,1,119.999996337891,0|8,0:0|0:0,0:0:0:0:
375,100,30035,5,0,0:0:0:0:
331,245,30200,1,8,0:0:0:0:
452,147,30365,2,0,P|461:81|436:33,1,119.999996337891,0|8,0:0|0:0,0:0:0:0:
297,52,30694,2,0,P|287:117|312:165,1,119.999996337891,4|8,0:0|0:0,0:0:0:0:
454,259,31024,2,0,B|392:239|340:277|340:277|287:314|226:295,1,239.999992675781,0|0,0:0|0:0,0:0:0:0:
145,134,31518,1,8,0:0:0:0:
270,202,31683,5,0,0:0:0:0:
59,239,31848,1,8,0:0:0:0:
375,183,32013,5,0,0:0:0:0:
164,220,32178,1,8,0:0:0:0:
481,165,32343,5,0,0:0:0:0:
270,202,32508,1,8,0:0:0:0:
369,0,32672,2,0,P|406:42|409:117,1,119.999996337891,4|8,0:0|0:0,0:0:0:0:
270,202,33002,2,0,P|233:160|230:85,1,119.999996337891,0|8,0:0|0:0,0:0:0:0:
375,183,33332,1,0,0:0:0:0:
374,212,33414,1,0,0:0:0:0:
373,242,33496,1,8,0:0:0:0:
150,213,33661,6,0,L|282:200,1,119.999996337891,0|8,0:0|0:0,0:0:0:0:
382,337,33991,2,0,L|262:348,1,119.999996337891,0|8,0:0|0:0,0:0:0:0:
121,212,34321,1,0,0:0:0:0:
150,213,34403,1,0,0:0:0:0:
180,214,34485,1,8,0:0:0:0:
66,288,34650,6,0,P|25:215|45:155,1,119.999996337891,4|8,0:0|0:0,0:0:0:0:
192,64,34980,1,0,0:0:0:0:
121,212,35145,1,8,0:0:0:0:
64,32,35310,1,0,0:0:0:0:
269,201,35474,5,8,0:0:0:0:
268,231,35556,1,0,0:0:0:0:
267,260,35638,1,0,0:0:0:0:
94,119,35804,1,8,0:0:0:0:
272,116,35969,1,0,0:0:0:0:
121,212,36134,1,8,0:0:0:0:
202,21,36299,2,0,L|323:26,1,119.999996337891,0|8,0:0|0:0,0:0:0:0:
397,224,36628,6,0,P|341:245|275:111,1,239.999992675781,4|0,0:0|0:0,0:0:0:0:
501,145,37123,2,0,L|496:270,1,119.999996337891,8|0,0:0|0:0,0:0:0:0:
343,161,37452,1,8,0:0:0:0:
189,264,37617,2,0,L|185:145,1,119.999996337891,0|8,0:0|0:0,0:0:0:0:
270,303,37947,2,0,P|226:350|158:349,1,119.999996337891,0|8,0:0|0:0,0:0:0:0:
93,213,38277,2,0,P|151:220|189:264,1,119.999996337891,0|8,0:0|0:0,0:0:0:0:
0,290,38606,5,4,0:0:0:0:
83,124,38771,1,8,0:0:0:0:
110,297,38936,1,0,0:0:0:0:
8,184,39101,1,8,0:0:0:0:
185,145,39266,2,0,L|310:152,1,119.999996337891,0|8,0:0|0:0,0:0:0:0:
445,185,39595,5,0,0:0:0:0:
428,0,39760,1,8,0:0:0:0:
453,277,39925,5,0,0:0:0:0:
436,92,40090,1,8,0:0:0:0:
462,370,40255,5,0,0:0:0:0:
445,185,40420,1,8,0:0:0:0:
246,339,40584,6,0,L|371:346,1,119.999996337891,4|8,0:0|0:0,0:0:0:0:
194,261,40914,2,0,P|154:313|162:378,1,119.999996337891,0|8,0:0|0:0,0:0:0:0:
295,195,41244,2,0,P|294:136|257:91,1,119.999996337891,0|8,0:0|0:0,0:0:0:0:
85,176,41574,2,0,L|204:169,1,119.999996337891,0|8,0:0|0:0,0:0:0:0:
111,84,41903,1,0,0:0:0:0:
73,264,42068,1,8,0:0:0:0:
204,169,42233,1,0,0:0:0:0:
174,170,42315,1,0,0:0:0:0:
144,172,42397,1,8,0:0:0:0:
284,220,42562,5,4,0:0:0:0:
111,84,42727,1,8,0:0:0:0:
333,75,42892,5,0,0:0:0:0:
194,261,43057,1,8,0:0:0:0:
182,20,43222,1,0,0:0:0:0:
211,19,43304,1,0,0:0:0:0:
241,17,43386,1,8,0:0:0:0:
284,220,43551,5,0,0:0:0:0:
133,170,43716,1,8,0:0:0:0:
182,20,43881,1,0,0:0:0:0:
333,69,44046,1,8,0:0:0:0:
194,261,44211,2,0,B|135:282|135:282|55:269,1,119.999996337891,0|8,0:0|0:0,0:0:0:0:
133,170,44540,6,0,B|118:132|82:118|82:118|146:98|191:141|191:141|230:178|298:159,1,300.000011444092,4|0,0:0|0:0,0:0:0:0:
512,149,45529,6,0,B|495:94|495:94|429:101|383:145|380:215,1,225.000008583069,4|0,0:0|0:0,0:0:0:0:
381,198,46189,2,0,P|389:247|381:281,1,75.0000028610231,8|0,0:0|0:0,0:0:0:0:
305,326,46518,5,0,0:0:0:0:
273,306,46600,1,0,0:0:0:0:
237,293,46682,1,0,0:0:0:0:
200,288,46765,1,0,0:0:0:0:
163,289,46848,5,0,0:0:0:0:
181,266,46930,1,0,0:0:0:0:
205,248,47012,1,0,0:0:0:0:
233,236,47095,1,0,0:0:0:0:
263,233,47177,5,0,0:0:0:0:
243,221,47260,1,0,0:0:0:0:
226,214,47342,1,0,0:0:0:0:
208,209,47425,1,0,0:0:0:0:
189,207,47507,6,0,B|187:265|187:265|206:296|206:296|205:367,1,150,0|0,0:0|0:0,0:0:0:0:
91,321,48167,6,0,P|120:241|151:291,1,150.000005722046,0|0,0:0|0:0,0:0:0:0:
139,253,48496,6,0,B|142:178|142:178|170:139|170:139|171:62,1,200,12|0,0:0|0:0,0:0:0:0:
87,81,48991,1,0,0:0:0:0:
256,104,49156,1,8,0:0:0:0:
57,157,49321,1,0,0:0:0:0:
263,190,49485,2,0,L|365:181,1,100,0|0,0:0|0:0,0:0:0:0:
461,38,49815,2,0,P|429:86|437:143,1,100,0|0,0:0|0:0,0:0:0:0:
475,303,50145,2,0,P|473:253|444:214,1,100,0|0,0:0|0:0,0:0:0:0:
204,301,50474,5,12,0:0:0:0:
204,301,50639,2,0,B|308:318|308:318|399:288,1,200,0|0,0:0|0:0,0:0:0:0:
312,125,51134,2,0,L|306:232,1,100,8|0,0:0|0:0,0:0:0:0:
360,27,51463,1,0,0:0:0:0:
207,112,51628,1,0,0:0:0:0:
406,197,51793,2,0,L|411:97,1,100,0|0,0:0|0:0,0:0:0:0:
309,175,52123,1,0,0:0:0:0:
307,199,52205,1,0,0:0:0:0:
306,224,52287,1,0,0:0:0:0:
129,169,52452,5,12,0:0:0:0:
129,169,52617,2,0,P|132:80|208:126,1,200,0|0,0:0|0:0,0:0:0:0:
180,253,53112,2,0,L|74:257,1,100,0|0,0:0|0:0,0:0:0:0:
259,186,53441,2,0,L|365:190,1,100,8|0,0:0|0:0,0:0:0:0:
154,333,53771,1,0,0:0:0:0:
129,169,53936,1,0,0:0:0:0:
307,274,54101,1,0,0:0:0:0:
332,110,54266,1,0,0:0:0:0:
180,253,54430,5,4,0:0:0:0:
358,189,54595,1,0,0:0:0:0:
185,73,54760,2,0,L|79:77,1,100,0|0,0:0|0:0,0:0:0:0:
350,131,55090,2,0,L|449:127,1,100,0|0,0:0|0:0,0:0:0:0:
281,202,55419,2,0,B|254:134|254:134|287:42,1,150,8|0,0:0|0:0,0:0:0:0:
360,15,55749,5,8,0:0:0:0:
397,26,55831,1,8,0:0:0:0:
428,52,55913,1,8,0:0:0:0:
446,87,55996,1,8,0:0:0:0:
449,127,56078,1,8,0:0:0:0:
435,148,56161,1,0,0:0:0:0:
426,171,56243,1,0,0:0:0:0:
422,195,56326,1,0,0:0:0:0:
423,220,56408,6,0,P|438:272|424:330,1,100,12|0,0:0|0:0,0:0:0:0:
344,168,56738,1,0,0:0:0:0:
506,190,56903,1,0,0:0:0:0:
336,272,57068,2,0,P|281:286|220:275,1,100,0|0,0:0|0:0,0:0:0:0:
189,171,57397,2,0,P|225:240|127:243,1,200,12|0,0:0|0:0,0:0:0:0:
79,37,58057,6,0,P|130:65|177:63,1,100,8|8,0:0|0:0,0:0:0:0:
254,27,58386,2,0,P|339:57|335:170,1,200,4|0,0:0|0:0,0:0:0:0:
243,223,58881,1,0,0:0:0:0:
177,130,59046,2,0,P|240:108|279:113,1,100,0|0,0:0|0:0,0:0:0:0:
498,223,59375,6,0,P|411:235|344:145,1,200,12|0,0:0|0:0,0:0:0:0:
445,138,59870,1,0,0:0:0:0:
345,301,60035,1,8,0:0:0:0:
348,68,60200,1,8,0:0:0:0:
229,208,60365,6,0,L|235:318,1,100,4|0,0:0|0:0,0:0:0:0:
344,155,60694,1,0,0:0:0:0:
144,165,60859,2,0,L|150:275,1,100,0|0,0:0|0:0,0:0:0:0:
259,112,61188,1,0,0:0:0:0:
149,29,61354,2,0,P|92:25|37:58,1,100,8|0,0:0|0:0,0:0:0:0:
229,208,61683,2,0,P|285:211|340:178,1,100,0|0,0:0|0:0,0:0:0:0:
380,25,62013,1,8,0:0:0:0:
259,112,62178,1,8,0:0:0:0:
472,145,62343,5,4,0:0:0:0:
472,145,62507,2,0,L|481:256,1,100,0|0,0:0|0:0,0:0:0:0:
332,293,62837,2,0,L|323:193,1,100,0|0,0:0|0:0,0:0:0:0:
407,347,63167,5,0,0:0:0:0:
407,347,63332,2,0,P|362:382|308:381,1,100,8|0,0:0|0:0,0:0:0:0:
233,257,63661,1,0,0:0:0:0:
332,293,63826,1,0,0:0:0:0:
196,343,63991,2,0,L|83:337,1,100,8|8,0:0|0:0,0:0:0:0:
6,247,64321,5,4,0:0:0:0:
37,231,64403,1,0,0:0:0:0:
71,226,64485,1,0,0:0:0:0:
106,232,64568,1,0,0:0:0:0:
137,248,64650,1,8,0:0:0:0:
183,263,64732,1,8,0:0:0:0:
233,257,64814,1,8,0:0:0:0:
274,229,64897,1,8,0:0:0:0:
299,191,64979,5,8,0:0:0:0:
245,183,65062,1,0,0:0:0:0:
200,212,65144,1,0,0:0:0:0:
183,263,65227,1,0,0:0:0:0:
203,313,65310,2,0,B|267:338|331:313|331:313|363:338|363:338|427:313|491:338,1,300.000011444092,8|0,0:0|0:0,0:0:0:0:
484,147,66298,5,4,0:0:0:0:
437,130,66380,1,0,0:0:0:0:
387,134,66463,1,8,0:0:0:0:
344,158,66546,1,0,0:0:0:0:
300,180,66628,1,0,0:0:0:0:
250,179,66710,1,0,0:0:0:0:
207,155,66793,2,0,P|200:118|205:92,3,50,8|0|0|0,0:0|0:0|0:0|0:0,0:0:0:0:
150,216,67123,2,0,P|148:240|154:265,1,50,8|0,0:0|0:0,0:0:0:0:
244,327,67288,5,0,0:0:0:0:
290,311,67370,1,0,0:0:0:0:
321,272,67452,1,8,0:0:0:0:
324,223,67535,1,0,0:0:0:0:
300,180,67617,1,0,0:0:0:0:
277,130,67699,1,0,0:0:0:0:
286,87,67781,1,8,0:0:0:0:
320,52,67864,1,0,0:0:0:0:
368,42,67946,5,0,0:0:0:0:
366,77,68029,1,0,0:0:0:0:
365,112,68111,1,8,0:0:0:0:
363,147,68194,1,0,0:0:0:0:
362,182,68276,5,4,0:0:0:0:
318,206,68359,1,0,0:0:0:0:
269,211,68441,1,8,0:0:0:0:
222,194,68524,1,0,0:0:0:0:
176,176,68606,1,0,0:0:0:0:
127,180,68688,1,0,0:0:0:0:
84,206,68771,2,0,P|71:243|74:280,3,50,8|0|0|0,0:0|0:0|0:0|0:0,0:0:0:0:
176,302,69101,2,0,P|172:277|161:254,1,50,8|0,0:0|0:0,0:0:0:0:
110,364,69266,5,0,0:0:0:0:
154,384,69348,1,0,0:0:0:0:
204,379,69430,1,8,0:0:0:0:
244,351,69513,1,0,0:0:0:0:
265,306,69595,1,0,0:0:0:0:
303,275,69677,1,0,0:0:0:0:
352,264,69759,1,8,0:0:0:0:
400,276,69842,1,0,0:0:0:0:
438,308,69925,2,0,L|435:365,3,50,0|0|8|0,0:0|0:0|0:0|0:0,0:0:0:0:
488,233,70255,5,4,0:0:0:0:
512,189,70337,1,0,0:0:0:0:
509,140,70419,1,8,0:0:0:0:
482,99,70502,1,0,0:0:0:0:
437,79,70584,2,0,P|425:122|429:154,3,50,0|0|8|0,0:0|0:0|0:0|0:0,0:0:0:0:
342,137,70914,2,0,P|360:177|384:199,3,50,0|0|8|0,0:0|0:0|0:0|0:0,0:0:0:0:
270,82,71244,5,0,0:0:0:0:
223,65,71326,1,0,0:0:0:0:
174,73,71408,1,8,0:0:0:0:
135,104,71491,1,0,0:0:0:0:
116,149,71573,2,0,P|123:193|116:220,3,50,0|0|8|0,0:0|0:0|0:0|0:0,0:0:0:0:
200,216,71903,2,0,P|177:254|154:270,3,50,0|0|8|0,0:0|0:0|0:0|0:0,0:0:0:0:
295,194,72233,5,4,0:0:0:0:
331,227,72315,1,0,0:0:0:0:
340,275,72397,1,8,0:0:0:0:
320,320,72480,1,0,0:0:0:0:
277,344,72562,1,0,0:0:0:0:
224,352,72645,1,0,0:0:0:0:
178,330,72727,1,8,0:0:0:0:
129,324,72809,1,0,0:0:0:0:
80,334,72892,2,0,P|55:358|46:378,3,50,0|0|8|0,0:0|0:0|0:0|0:0,0:0:0:0:
78,242,73222,5,8,0:0:0:0:
116,190,73304,1,8,0:0:0:0:
173,161,73386,1,8,0:0:0:0:
238,163,73469,1,8,0:0:0:0:
295,194,73551,1,8,0:0:0:0:
354,216,73633,1,8,0:0:0:0:
418,203,73715,1,8,0:0:0:0:
464,161,73798,1,8,0:0:0:0:
483,99,73881,2,0,P|470:47|454:26,3,50,8|8|8|0,0:0|0:0|0:0|0:0,0:0:0:0:
376,77,74211,5,4,0:0:0:0:
334,104,74293,1,0,0:0:0:0:
305,145,74375,1,8,0:0:0:0:
295,194,74458,1,0,0:0:0:0:
302,243,74540,1,0,0:0:0:0:
326,287,74623,1,0,0:0:0:0:
363,319,74705,2,0,P|406:326|443:314,3,50,8|0|0|0,0:0|0:0|0:0|0:0,0:0:0:0:
400,239,75035,2,0,P|407:202|398:165,1,50,8|0,0:0|0:0,0:0:0:0:
349,108,75200,5,0,0:0:0:0:
304,86,75282,1,0,0:0:0:0:
254,84,75364,1,8,0:0:0:0:
208,103,75447,1,0,0:0:0:0:
174,138,75529,1,0,0:0:0:0:
140,173,75611,1,0,0:0:0:0:
94,192,75694,1,8,0:0:0:0:
44,190,75776,1,0,0:0:0:0:
0,169,75858,5,0,0:0:0:0:
2,134,75941,1,0,0:0:0:0:
4,99,76023,1,8,0:0:0:0:
7,64,76106,1,0,0:0:0:0:
9,29,76188,5,4,0:0:0:0:
57,23,76271,1,0,0:0:0:0:
103,40,76353,1,8,0:0:0:0:
136,77,76436,1,0,0:0:0:0:
150,124,76518,1,0,0:0:0:0:
140,173,76601,1,0,0:0:0:0:
112,214,76683,2,0,P|69:226|32:219,3,50,8|0|0|0,0:0|0:0|0:0|0:0,0:0:0:0:
218,170,77013,2,0,P|242:172|266:181,1,50,8|0,0:0|0:0,0:0:0:0:
355,260,77178,5,0,0:0:0:0:
402,275,77260,1,0,0:0:0:0:
450,266,77342,1,8,0:0:0:0:
489,236,77425,1,0,0:0:0:0:
510,191,77507,1,0,0:0:0:0:
507,141,77590,1,0,0:0:0:0:
481,99,77672,1,8,0:0:0:0:
438,74,77754,1,0,0:0:0:0:
389,72,77837,2,0,P|348:88|337:98,3,50,0|0|8|0,0:0|0:0|0:0|0:0,0:0:0:0:
398,164,78167,5,4,0:0:0:0:
357,194,78249,1,0,0:0:0:0:
309,205,78331,1,8,0:0:0:0:
260,197,78414,1,0,0:0:0:0:
218,170,78496,1,0,0:0:0:0:
172,150,78578,1,0,0:0:0:0:
122,153,78660,1,8,0:0:0:0:
79,178,78743,1,0,0:0:0:0:
51,219,78826,6,0,P|46:268|56:301,3,50,0|0|8|0,0:0|0:0|0:0|0:0,0:0:0:0:
139,248,79156,2,0,P|165:289|194:308,3,50,0|0|8|0,0:0|0:0|0:0|0:0,0:0:0:0:
222,226,79485,2,0,P|251:186|280:168,3,50,0|0|8|0,0:0|0:0|0:0|0:0,0:0:0:0:
305,264,79815,2,0,P|352:252|386:258,3,50,0|0|8|0,0:0|0:0|0:0|0:0,0:0:0:0:
353,339,80145,5,4,0:0:0:0:
408,320,80227,1,0,0:0:0:0:
439,270,80309,1,8,0:0:0:0:
431,212,80392,1,0,0:0:0:0:
386,173,80473,1,0,0:0:0:0:
341,134,80556,1,0,0:0:0:0:
333,76,80638,1,8,0:0:0:0:
364,26,80721,1,0,0:0:0:0:
427,8,80804,5,0,0:0:0:0:
401,82,80886,1,0,0:0:0:0:
341,134,80968,1,8,0:0:0:0:
263,149,81051,1,0,0:0:0:0:
189,123,81133,2,0,P|179:78|186:39,2,64.9999970245363,0|0|8,0:0|0:0|0:0,0:0:0:0:
320,240,81463,5,0,0:0:0:0:
288,64,81628,1,8,0:0:0:0:
229,303,81793,5,0,0:0:0:0:
271,333,81875,1,0,0:0:0:0:
322,343,81957,1,0,0:0:0:0:
372,332,82040,1,0,0:0:0:0:
414,300,82123,6,0,L|418:149,1,119.999996337891,12|0,0:0|0:0,0:0:0:0:
288,64,82452,5,8,0:0:0:0:
320,240,82617,1,0,0:0:0:0:
400,48,82782,5,8,0:0:0:0:
192,128,82947,1,0,0:0:0:0:
480,160,83112,5,8,0:0:0:0:
288,64,83277,1,0,0:0:0:0:
416,240,83441,5,8,0:0:0:0:
496,64,83606,1,0,0:0:0:0:
304,272,83771,2,0,L|293:141,1,119.999996337891,8|0,0:0|0:0,0:0:0:0:
376,320,84101,5,12,0:0:0:0:
184,288,84266,1,0,0:0:0:0:
400,192,84430,5,8,0:0:0:0:
272,380,84595,1,0,0:0:0:0:
198,199,84760,5,8,0:0:0:0:
400,304,84925,1,0,0:0:0:0:
238,106,85090,5,8,0:0:0:0:
184,288,85255,1,0,0:0:0:0:
320,48,85419,5,8,0:0:0:0:
374,230,85584,1,0,0:0:0:0:
208,80,85749,2,0,L|196:224,1,119.999996337891,8|0,0:0|0:0,0:0:0:0:
112,48,86079,5,12,0:0:0:0:
304,144,86244,1,0,0:0:0:0:
64,144,86408,5,8,0:0:0:0:
187,0,86573,1,0,0:0:0:0:
128,224,86738,5,8,0:0:0:0:
16,64,86903,1,0,0:0:0:0:
48,272,87068,5,8,0:0:0:0:
112,48,87233,1,0,0:0:0:0:
208,272,87397,5,8,0:0:0:0:
0,203,87562,1,0,0:0:0:0:
183,145,87727,2,0,L|63:143,1,119.999996337891,8|0,0:0|0:0,0:0:0:0:
304,192,88057,5,12,0:0:0:0:
240,32,88222,1,0,0:0:0:0:
208,272,88386,5,8,0:0:0:0:
352,96,88551,1,0,0:0:0:0:
288,320,88716,5,8,0:0:0:0:
183,145,88881,1,0,0:0:0:0:
183,145,89211,5,8,0:0:0:0:
304,192,89375,1,8,0:0:0:0:
144,240,89540,1,8,0:0:0:0:
325,310,89704,1,8,0:0:0:0:
272,88,89870,1,8,0:0:0:0:
205,354,90035,2,0,B|119:414|0:319|70:175|205:204|222:253|255:281|255:281|269:268|269:268|257:259|257:259|322:305|394:278,1,550.000016784668,0|0,0:0|0:0,0:0:0:0:
453,202,92012,5,6,0:0:0:0:
417,180,92094,1,0,0:0:0:0:
377,169,92176,1,8,0:0:0:0:
335,169,92259,1,0,0:0:0:0:
295,181,92342,2,0,P|281:132|295:87,1,59.9999981689454,2|0,0:0|0:0,0:0:0:0:
192,128,92506,2,0,P|204:78|239:46,1,59.9999981689454,8|0,0:0|0:0,0:0:0:0:
139,24,92671,6,0,P|117:67|112:149,1,119.999996337891,2|8,0:0|0:0,0:0:0:0:
96,224,92918,6,0,P|74:181|69:99,1,119.999996337891,0|0,0:0|0:0,0:0:0:0:
47,26,93166,6,0,P|34:58|36:118,1,59.9999981689454,8|0,0:0|0:0,0:0:0:0:
17,250,93331,5,0,0:0:0:0:
55,232,93413,1,0,0:0:0:0:
96,224,93495,1,8,0:0:0:0:
138,227,93578,1,0,0:0:0:0:
177,241,93660,2,0,P|220:213|239:167,1,59.9999981689454,0|0,0:0|0:0,0:0:0:0:
295,255,93825,2,0,P|309:205|294:158,1,59.9999981689454,8|0,0:0|0:0,0:0:0:0:
256,128,93990,5,0,0:0:0:0:
303,103,94072,1,0,0:0:0:0:
357,98,94154,1,8,0:0:0:0:
408,114,94237,1,0,0:0:0:0:
449,149,94320,2,0,P|427:185|388:205,1,59.9999981689454,0|0,0:0|0:0,0:0:0:0:
458,266,94484,2,0,P|417:278|374:269,1,59.9999981689454,8|0,0:0|0:0,0:0:0:0:
336,344,94649,5,0,0:0:0:0:
299,324,94731,1,0,0:0:0:0:
258,315,94813,1,8,0:0:0:0:
216,320,94896,1,0,0:0:0:0:
177,336,94979,2,0,P|166:293|176:253,1,59.9999981689454,0|0,0:0|0:0,0:0:0:0:
84,259,95144,2,0,P|103:218|136:194,1,59.9999981689454,8|0,0:0|0:0,0:0:0:0:
205,156,95309,6,0,L|324:164,1,119.999996337891,0|8,0:0|0:0,0:0:0:0:
362,243,95556,6,0,L|242:234,1,119.999996337891,0|0,0:0|0:0,0:0:0:0:
227,132,95803,6,0,L|301:137,1,59.9999981689454,8|0,0:0|0:0,0:0:0:0:
449,142,95968,5,0,0:0:0:0:
411,318,96133,1,8,0:0:0:0:
359,104,96298,5,0,0:0:0:0:
512,253,96462,2,0,L|355:243,1,150.000005722046,8|0,0:0|0:0,0:0:0:0:
239,345,96792,2,0,B|277:283|277:283|253:108,1,239.999992675781,8|0,0:0|0:0,0:0:0:0:
152,15,97287,5,4,0:0:0:0:
117,38,97369,1,0,0:0:0:0:
94,73,97451,1,8,0:0:0:0:
84,113,97534,1,0,0:0:0:0:
90,155,97616,2,0,P|143:151|172:129,1,59.9999981689454,0|0,0:0|0:0,0:0:0:0:
189,226,97781,2,0,P|226:189|234:153,1,59.9999981689454,8|0,0:0|0:0,0:0:0:0:
228,91,97946,6,0,B|289:67|289:67|345:75,1,119.999996337891,0|8,0:0|0:0,0:0:0:0:
375,243,98193,6,0,B|323:202|323:202|302:149,1,119.999996337891,0|0,0:0|0:0,0:0:0:0:
434,57,98440,6,0,B|424:121,1,59.9999981689454,8|0,0:0|0:0,0:0:0:0:
448,205,98605,1,0,0:0:0:0:
407,216,98687,1,0,0:0:0:0:
375,243,98769,1,8,0:0:0:0:
356,280,98852,1,0,0:0:0:0:
352,320,98935,2,0,P|305:337|261:325,1,59.9999981689454,0|0,0:0|0:0,0:0:0:0:
208,237,99100,2,0,P|237:239|264:253,1,59.9999981689454,8|0,0:0|0:0,0:0:0:0:
137,350,99265,5,0,0:0:0:0:
113,308,99347,1,0,0:0:0:0:
112,261,99429,1,8,0:0:0:0:
132,218,99512,1,0,0:0:0:0:
171,190,99594,2,0,P|201:222|211:262,1,59.9999981689454,0|0,0:0|0:0,0:0:0:0:
285,207,99759,2,0,P|287:251|269:289,1,59.9999981689454,8|0,0:0|0:0,0:0:0:0:
375,243,99924,5,0,0:0:0:0:
415,235,100006,1,0,0:0:0:0:
446,207,100088,1,8,0:0:0:0:
458,168,100171,1,0,0:0:0:0:
447,128,100254,2,0,P|404:131|366:148,1,59.9999981689454,0|0,0:0|0:0,0:0:0:0:
347,59,100418,2,0,P|315:88|297:126,1,59.9999981689454,8|0,0:0|0:0,0:0:0:0:
146,31,100583,6,0,P|209:44|275:16,1,119.999996337891,0|8,0:0|0:0,0:0:0:0:
91,131,100831,6,0,P|70:69|13:26,1,119.999996337891,0|0,0:0|0:0,0:0:0:0:
206,129,101078,6,0,P|174:164|167:217,1,59.9999981689454,8|0,0:0|0:0,0:0:0:0:
192,271,101243,5,4,0:0:0:0:
225,304,101325,1,0,0:0:0:0:
270,321,101407,1,8,0:0:0:0:
317,318,101490,1,0,0:0:0:0:
359,295,101572,1,0,0:0:0:0:
388,258,101655,1,0,0:0:0:0:
399,211,101737,1,8,0:0:0:0:
390,164,101819,1,0,0:0:0:0:
363,126,101902,5,0,0:0:0:0:
317,163,101984,1,0,0:0:0:0:
292,217,102066,1,8,0:0:0:0:
295,277,102149,1,0,0:0:0:0:
324,328,102231,1,0,0:0:0:0:
373,362,102314,1,0,0:0:0:0:
432,369,102396,2,0,P|461:330|461:281,1,59.9999981689454,8|0,0:0|0:0,0:0:0:0:
485,185,102560,5,4,0:0:0:0:
448,154,102642,1,0,0:0:0:0:
402,141,102724,1,0,0:0:0:0:
355,149,102807,1,0,0:0:0:0:
313,175,102890,2,0,P|322:214|358:247,1,59.9999981689454,8|8,0:0|0:0,0:0:0:0:
248,122,103055,2,0,P|230:158|236:206,1,59.9999981689454,8|8,0:0|0:0,0:0:0:0:
167,92,103220,2,0,P|190:58|234:40,1,59.9999981689454,8|8,0:0|0:0,0:0:0:0:
87,118,103385,2,0,P|83:77|106:35,1,59.9999981689454,8|0,0:0|0:0,0:0:0:0:
36,199,103549,5,4,0:0:0:0:
68,248,103631,1,0,0:0:0:0:
122,272,103713,1,0,0:0:0:0:
180,262,103796,1,0,0:0:0:0:
224,222,103878,5,8,0:0:0:0:
278,176,103961,1,8,0:0:0:0:
349,169,104043,1,8,0:0:0:0:
412,202,104126,1,8,0:0:0:0:
446,264,104209,2,0,P|393:285|349:272,1,59.9999981689454,8|8,0:0|0:0,0:0:0:0:
387,369,104373,2,0,P|332:350|307:312,1,59.9999981689454,8|8,0:0|0:0,0:0:0:0:
278,176,104868,5,12,0:0:0:0:
256,192,104951,12,0,108660,0:0:0:0:
