osu file format v14

[General]
AudioFilename: audio.mp3
AudioLeadIn: 0
PreviewTime: 65556
Countdown: 0
SampleSet: Soft
StackLeniency: 0.4
Mode: 0
LetterboxInBreaks: 0
WidescreenStoryboard: 1

[Editor]
DistanceSpacing: 0.7
BeatDivisor: 4
GridSize: 32
TimelineZoom: 1.099999

[Metadata]
Title:DROPOUT!?
TitleUnicode:DROPOUT!?
Artist:Saint Snow
ArtistUnicode:Saint Snow
Creator:Sotarks
Version:SMOKELIND's Expert
Source:ラブライブ!サンシャイン!!
Tags:basensorex reform kujinn kowari smokelind love live sunshine school idol project japanese female vocalist anime tv show size deathstreams short version
BeatmapID:2331417
BeatmapSetID:1115534

[Difficulty]
HPDrainRate:5.7
CircleSize:3.7
OverallDifficulty:9
ApproachRate:9.2
SliderMultiplier:1.77
SliderTickRate:1

[Events]
//Background and Video events
0,0,"bg.jpg",0,0
//Break Periods
//Storyboard Layer 0 (Background)
//Storyboard Layer 1 (Fail)
//Storyboard Layer 2 (Pass)
//Storyboard Layer 3 (Foreground)
//Storyboard Layer 4 (Overlay)
//Storyboard Sound Samples

[TimingPoints]
360,329.67032967033,3,2,22,52,1,0
8272,-114.942528735633,4,2,22,52,0,0
15524,-212.765957446812,4,2,22,52,0,0
16101,-212.765957446812,4,2,22,5,0,0
16189,329.67032967033,4,1,22,72,1,0
16189,-93.4579439252336,4,1,22,72,0,0
26738,329.67032967033,3,1,22,72,1,0
28716,-103.092783505155,4,1,22,62,0,0
44540,-212.765957446809,4,2,22,62,0,0
46518,-212.765957446809,4,1,22,62,0,0
47177,-129.870129870131,4,1,22,62,0,0
47507,-129.870129870131,4,2,22,62,0,0
48496,-114.942528735633,4,2,22,62,0,0
56408,-129.870129870131,4,2,22,62,0,0
64320,-103.092783505155,4,2,22,62,0,0
65309,-103.092783505155,4,1,22,62,0,0
65968,-212.765957446812,4,1,22,62,0,0
66298,-85.4700854700855,4,1,22,72,0,0
82122,-85.4700854700855,4,1,22,82,0,0
90034,-175.43859649123,4,1,22,82,0,0
90117,-175.43859649123,4,1,22,5,0,0
92012,329.67032967033,4,1,22,72,1,0
92012,-93.4579439252336,4,1,22,72,0,0
102561,329.67032967033,3,1,22,72,1,0
104868,329.67032967033,3,1,22,72,1,0
104868,-156.25,4,1,22,72,0,0
104951,-156.25,4,1,22,22,0,0

[Colours]
Combo1 : 166,251,255
Combo2 : 172,43,140
Combo3 : 45,120,204
Combo4 : 237,139,235

[HitObjects]
60,30,8272,5,6,1:2:0:0:
177,160,8436,2,0,P|210:118|279:108,1,115.492500969252,2|0,1:2|0:0,0:2:0:0:
314,169,8766,2,0,P|361:193|429:174,1,115.492500969252,2|0,1:2|0:0,0:2:0:0:
466,121,9096,5,0,1:2:0:0:
466,121,9178,1,0,1:2:0:0:
466,121,9261,2,0,P|440:200|440:301,1,153.990001292336,10|2,1:2|0:2,0:2:0:0:
140,339,9920,1,2,0:2:0:0:
246,267,10085,5,0,1:2:0:0:
246,267,10167,1,0,1:2:0:0:
246,267,10250,1,6,1:2:0:0:
105,180,10414,2,0,P|121:257|133:365,1,153.990001292336,2|2,1:2|1:2,0:2:0:0:
215,0,11074,1,2,1:2:0:0:
38,65,11239,6,0,P|22:142|15:233,1,153.990001292336,10|0,1:2|1:2,0:2:0:0:
144,99,11733,1,0,1:2:0:0:
228,275,11898,2,0,P|267:295|340:263,1,115.492500969252,8|0,1:2|0:0,0:0:0:0:
350,194,12228,5,6,1:2:0:0:
221,78,12392,2,0,P|233:129|241:200,1,115.492500969252,2|0,1:2|0:0,0:2:0:0:
165,211,12722,2,0,P|153:262|145:333,1,115.492500969252,2|0,1:2|0:0,0:2:0:0:
215,376,13052,5,0,1:2:0:0:
215,376,13134,1,0,1:2:0:0:
215,376,13217,2,0,B|292:338|237:297|332:271,1,153.990001292336,10|2,1:2|0:2,0:2:0:0:
430,347,13711,1,0,0:0:0:0:
430,347,13876,2,0,P|408:315|402:277,1,76.9950006461678,2|0,0:2|1:2,0:0:0:0:
454,212,14123,5,0,1:2:0:0:
454,212,14206,1,6,1:2:0:0:
348,60,14370,2,0,P|295:75|236:87,1,115.492500969252,2|0,1:2|0:0,0:2:0:0:
167,130,14700,2,0,P|223:141|279:157,1,115.492500969252,2|0,1:2|0:0,0:2:0:0:
306,229,15030,5,0,1:2:0:0:
207,18,15195,1,14,1:2:0:0:
207,18,15524,2,0,B|114:34|168:67|70:83,1,145.582497778587,0|0,0:0|0:2,0:0:0:0:
1,102,16189,5,6,0:2:0:0:
20,122,16271,1,0,0:2:0:0:
35,147,16353,1,8,0:2:0:0:
45,173,16436,1,0,0:2:0:0:
50,201,16518,1,0,0:2:0:0:
30,221,16601,1,0,0:2:0:0:
15,246,16683,1,8,0:2:0:0:
5,272,16766,1,0,0:2:0:0:
0,300,16848,2,0,P|23:317|60:317,2,47.347498555069,2|0|8,0:2|0:2|0:2,0:2:0:0:
153,252,17095,2,0,P|130:257|111:272,2,47.347498555069,2|0|0,0:2|0:2|0:2,0:2:0:0:
251,315,17342,2,0,P|265:296|271:273,1,47.347498555069,10|0,0:2|0:2,0:2:0:0:
205,107,17507,5,2,0:2:0:0:
211,134,17589,1,0,0:2:0:0:
227,158,17671,1,8,0:2:0:0:
249,175,17754,1,0,0:2:0:0:
276,183,17836,1,0,0:2:0:0:
304,182,17919,1,0,0:2:0:0:
331,172,18002,2,0,L|338:103,1,47.347498555069,8|0,0:2|0:2,0:2:0:0:
431,16,18167,1,2,0:2:0:0:
459,17,18250,1,0,0:2:0:0:
486,27,18331,2,0,L|493:96,1,47.347498555069,8|0,0:2|0:2,0:0:0:0:
406,188,18496,2,0,L|410:140,3,47.347498555069,0|0|8|0,0:2|0:2|0:2|0:2,0:0:0:0:
465,258,18826,5,2,0:2:0:0:
441,273,18908,1,0,0:2:0:0:
413,280,18990,1,8,0:2:0:0:
385,278,19073,1,0,0:2:0:0:
359,266,19155,1,0,0:2:0:0:
332,254,19238,1,0,0:2:0:0:
304,252,19321,1,8,0:2:0:0:
276,258,19403,1,0,0:2:0:0:
252,272,19485,2,0,L|258:331,2,47.347498555069,2|0|8,0:2|0:2|0:2,0:2:0:0:
155,219,19732,2,0,L|149:278,2,47.347498555069,2|0|0,0:2|0:2|0:2,0:2:0:0:
236,126,19980,2,0,L|242:185,1,47.347498555069,10|0,0:2|0:2,0:0:0:0:
93,80,20145,5,2,0:2:0:0:
89,107,20227,1,0,0:2:0:0:
86,135,20309,2,0,L|77:205,1,47.347498555069,10|0,0:2|0:2,0:2:0:0:
63,314,20474,2,0,L|72:244,1,47.347498555069,2|0,0:2|0:2,0:2:0:0:
221,125,20639,2,0,L|229:195,1,47.347498555069,10|0,0:2|0:2,0:2:0:0:
247,307,20804,5,2,0:2:0:0:
247,307,20886,1,0,0:2:0:0:
247,307,20969,1,10,0:2:0:0:
274,332,21051,1,0,0:0:0:0:
310,341,21133,1,0,0:0:0:0:
346,331,21216,1,0,0:0:0:0:
372,304,21298,2,0,P|364:272|364:240,1,47.347498555069,0|0,0:0|0:2,0:0:0:0:
438,66,21463,5,6,0:2:0:0:
414,50,21545,1,0,0:2:0:0:
387,43,21627,1,8,0:2:0:0:
358,45,21710,1,0,0:2:0:0:
333,57,21792,1,0,0:2:0:0:
307,68,21876,1,0,0:2:0:0:
278,70,21959,1,8,0:2:0:0:
251,63,22041,1,0,0:2:0:0:
228,48,22123,2,0,L|236:113,2,47.347498555069,2|0|8,0:2|0:2|0:2,0:2:0:0:
109,105,22370,2,0,L|104:152,2,47.347498555069,2|0|0,0:2|0:2|0:2,0:2:0:0:
242,175,22617,2,0,L|248:222,1,47.347498555069,10|0,0:2|0:2,0:2:0:0:
92,93,22782,5,2,0:2:0:0:
89,122,22864,1,0,0:2:0:0:
85,150,22947,1,8,0:2:0:0:
82,178,23029,1,0,0:2:0:0:
78,206,23112,1,0,0:2:0:0:
75,234,23194,1,0,0:2:0:0:
72,263,23276,2,0,P|89:286|121:298,1,47.347498555069,8|0,0:2|0:2,0:2:0:0:
254,258,23441,1,2,0:2:0:0:
257,286,23523,1,0,0:2:0:0:
260,315,23606,2,0,P|243:338|211:350,1,47.347498555069,8|0,0:2|0:2,0:0:0:0:
320,206,23771,2,0,P|340:218|353:237,3,47.347498555069,0|0|8|0,0:2|0:2|0:2|0:2,0:0:0:0:
464,309,24101,5,2,0:2:0:0:
476,283,24183,1,0,0:2:0:0:
480,255,24265,1,8,0:2:0:0:
477,227,24348,1,0,0:2:0:0:
465,202,24431,1,0,0:2:0:0:
454,176,24513,1,0,0:2:0:0:
449,148,24596,1,8,0:2:0:0:
453,120,24678,1,0,0:2:0:0:
467,95,24760,2,0,L|527:86,2,47.347498555069,2|0|8,0:2|0:2|0:2,0:2:0:0:
360,147,25007,2,0,L|313:140,2,47.347498555069,2|0|0,0:2|0:2|0:2,0:2:0:0:
438,25,25254,2,0,L|498:16,1,47.347498555069,10|0,0:2|0:2,0:2:0:0:
258,21,25419,5,2,0:2:0:0:
239,24,25501,1,2,0:2:0:0:
223,34,25583,1,10,0:2:0:0:
210,47,25666,1,2,0:2:0:0:
202,64,25749,1,2,0:2:0:0:
216,98,25831,1,2,0:2:0:0:
227,135,25913,1,10,0:2:0:0:
233,172,25996,1,2,0:2:0:0:
226,209,26079,2,0,P|206:223|154:226,1,47.347498555069,2|2,0:2|0:2,0:0:0:0:
86,149,26243,2,0,P|108:155|127:169,1,47.347498555069,10|2,0:2|0:2,0:0:0:0:
70,328,26408,1,2,0:2:0:0:
65,290,26490,1,2,0:2:0:0:
60,252,26572,1,10,0:2:0:0:
340,169,26738,6,0,L|323:337,1,132.75,6|0,0:2|0:2,0:2:0:0:
420,358,27067,1,8,0:2:0:0:
422,335,27149,1,8,0:2:0:0:
424,313,27231,1,8,0:2:0:0:
426,291,27314,1,8,0:2:0:0:
428,269,27397,2,0,L|481:254,3,44.25,8|8|4|4,0:3|0:3|0:3|0:3,0:0:0:0:
505,97,27727,6,0,L|372:83,1,132.75,6|0,0:2|0:2,0:2:0:0:
299,33,28056,1,8,0:2:0:0:
324,49,28138,1,8,0:2:0:0:
340,76,28220,1,8,0:2:0:0:
342,106,28303,1,8,0:2:0:0:
330,135,28386,2,0,L|269:144,1,44.25,8|8,0:3|0:3,0:0:0:0:
103,72,28551,2,0,L|164:81,1,44.25,4|4,0:3|0:3,0:0:0:0:
223,220,28716,6,0,P|201:171|206:105,1,85.8450020303307,0|8,0:2|0:2,0:2:0:0:
325,285,29045,1,2,0:2:0:0:
134,221,29210,1,10,0:2:0:0:
253,339,29375,1,2,0:2:0:0:
253,339,29457,1,0,0:2:0:0:
253,339,29540,1,10,0:2:0:0:
332,194,29705,2,0,P|318:247|315:309,1,85.8450020303307,2|8,0:2|0:2,0:2:0:0:
474,136,30034,2,0,P|488:189|491:251,1,85.8450020303307,2|8,0:2|0:2,0:2:0:0:
365,109,30364,1,2,0:2:0:0:
365,109,30446,1,0,0:2:0:0:
365,109,30529,1,8,0:2:0:0:
431,285,30694,6,0,P|478:304|532:279,1,85.8450020303307,2|8,0:2|0:2,0:0:0:0:
328,185,31023,2,0,P|286:178|248:196,1,85.8450020303307,2|8,0:2|0:2,0:2:0:0:
172,335,31353,1,0,0:2:0:0:
172,335,31435,1,0,0:2:0:0:
172,335,31518,1,10,0:2:0:0:
114,170,31683,1,2,0:2:0:0:
28,313,31847,2,0,L|38:207,1,85.8450020303307,8|0,0:2|0:2,0:0:0:0:
185,120,32177,1,8,0:2:0:0:
29,146,32342,1,2,0:2:0:0:
29,146,32424,1,0,0:2:0:0:
29,146,32507,1,10,0:2:0:0:
223,213,32672,6,0,P|264:190|328:177,1,85.8450020303307,2|8,0:2|0:2,0:2:0:0:
215,25,33001,2,0,P|252:46|293:58,1,85.8450020303307,2|8,0:2|0:2,0:2:0:0:
211,183,33331,1,2,0:2:0:0:
211,183,33413,1,0,0:2:0:0:
211,183,33496,1,8,0:2:0:0:
369,92,33661,2,0,P|352:136|346:195,1,85.8450020303307,2|8,0:2|0:2,0:0:0:0:
256,314,33990,2,0,P|248:271|233:231,1,85.8450020303307,2|8,0:2|0:2,0:2:0:0:
68,174,34320,1,2,0:2:0:0:
68,174,34402,1,0,0:2:0:0:
68,174,34485,1,8,0:2:0:0:
113,19,34650,6,0,P|97:58|77:198,1,171.690004060661,2|0,0:2|0:2,0:0:0:0:
195,68,35144,1,8,0:2:0:0:
233,231,35309,1,2,0:2:0:0:
233,231,35391,1,0,0:2:0:0:
233,231,35474,1,8,0:2:0:0:
278,32,35639,2,0,P|317:7|372:3,1,85.8450020303307,2|8,0:2|0:2,0:0:0:0:
252,133,35968,1,0,0:2:0:0:
449,133,36133,2,0,P|417:99|364:82,1,85.8450020303307,8|0,0:2|0:2,0:0:0:0:
354,109,36380,1,0,0:2:0:0:
354,109,36463,1,8,0:2:0:0:
502,223,36628,6,0,P|479:133|473:32,1,171.690004060661,4|2,0:2|0:2,0:2:0:0:
401,223,37122,2,0,P|368:256|306:261,1,85.8450020303307,10|0,0:2|0:2,0:0:0:0:
307,247,37369,1,0,0:2:0:0:
307,247,37452,1,10,0:2:0:0:
190,118,37617,2,0,P|230:129|260:160,1,85.8450020303307,2|8,0:2|0:2,0:2:0:0:
208,331,37946,2,0,P|178:361|137:373,1,85.8450020303307,2|8,0:2|0:2,0:2:0:0:
193,204,38276,1,2,0:2:0:0:
193,204,38358,1,0,0:2:0:0:
193,204,38441,1,8,0:2:0:0:
59,326,38606,6,0,L|72:225,1,85.8450020303307,2|8,0:2|0:2,0:0:0:0:
192,95,38935,2,0,L|181:9,1,85.8450020303307,2|8,0:2|0:2,0:2:0:0:
95,142,39265,1,0,0:2:0:0:
95,142,39347,1,0,0:2:0:0:
95,142,39430,1,10,0:2:0:0:
293,47,39595,2,0,L|282:132,1,85.8450020303307,2|8,0:2|0:2,0:0:0:0:
403,233,39924,1,0,0:2:0:0:
378,28,40089,2,0,L|388:113,1,85.8450020303307,8|2,0:2|0:2,0:0:0:0:
398,146,40336,1,0,0:2:0:0:
398,146,40419,1,10,0:2:0:0:
420,347,40584,6,0,P|384:330|322:318,1,85.8450020303307,2|8,0:2|0:2,0:2:0:0:
205,215,40913,2,0,P|241:198|303:186,1,85.8450020303307,2|8,0:2|0:2,0:2:0:0:
152,290,41243,1,2,0:2:0:0:
152,290,41325,1,0,0:2:0:0:
152,290,41408,1,8,0:2:0:0:
129,93,41573,2,0,P|170:102|209:120,1,85.8450020303307,2|8,0:2|0:2,0:0:0:0:
41,235,41902,2,0,P|79:216|121:207,1,85.8450020303307,2|8,0:2|0:2,0:2:0:0:
191,377,42232,1,2,0:2:0:0:
191,377,42314,1,0,0:2:0:0:
191,377,42397,1,8,0:2:0:0:
317,214,42562,6,0,P|298:254|291:319,1,85.8450020303307,2|8,0:2|0:2,0:0:0:0:
224,173,42891,1,0,0:2:0:0:
411,250,43056,2,0,P|403:207|385:168,1,85.8450020303307,8|0,0:2|0:2,0:0:0:0:
363,147,43303,1,0,0:2:0:0:
363,147,43386,1,8,0:2:0:0:
491,65,43551,1,0,0:2:0:0:
274,50,43716,6,0,P|318:19|378:19,1,85.8450020303307,8|0,0:2|0:2,0:0:0:0:
256,160,44045,1,8,0:2:0:0:
179,11,44210,1,2,0:2:0:0:
179,11,44292,1,0,0:2:0:0:
179,11,44375,1,10,0:2:0:0:
95,211,44540,6,0,B|212:173|121:90|268:60,1,228.772496509209,6|0,1:2|0:0,0:2:0:0:
253,63,45529,1,6,1:2:0:0:
42,33,46518,5,8,0:2:0:0:
45,64,46600,1,8,0:2:0:0:
48,95,46682,1,8,0:2:0:0:
51,126,46765,1,8,0:2:0:0:
54,157,46847,5,8,0:3:0:0:
64,175,46929,1,8,0:3:0:0:
79,188,47011,1,8,0:3:0:0:
99,195,47094,1,8,0:3:0:0:
120,193,47177,2,0,P|137:186|163:178,3,34.0724993241234,4|4|4|4,0:3|0:3|0:3|0:3,0:0:0:0:
228,241,47507,5,4,1:2:0:0:
228,241,48496,5,6,1:2:0:0:
334,372,48661,2,0,L|319:268,1,76.9950006461678,2|0,1:2|0:0,0:2:0:0:
293,105,48990,1,0,1:2:0:0:
420,245,49155,1,10,0:2:0:0:
406,161,49320,1,0,1:2:0:0:
340,214,49485,1,2,0:2:0:0:
443,358,49650,1,0,1:2:0:0:
340,214,49814,2,0,P|305:192|249:192,1,76.9950006461678,2|0,0:2|1:2,0:2:0:0:
205,342,50144,2,0,P|242:336|274:315,1,76.9950006461678,2|0,1:2|0:2,0:2:0:0:
136,226,50474,5,2,1:2:0:0:
267,109,50639,1,2,1:2:0:0:
267,109,50803,2,0,P|235:87|197:81,1,76.9950006461678,0|0,0:0|1:2,0:0:0:0:
326,201,51133,2,0,P|358:179|396:173,1,76.9950006461678,10|0,0:2|0:2,0:2:0:0:
201,166,51463,5,2,1:2:0:0:
237,335,51628,1,0,1:2:0:0:
237,335,51792,2,0,P|205:318|154:308,1,76.9950006461678,2|0,0:2|1:2,0:2:0:0:
307,228,52122,1,10,0:2:0:0:
307,228,52205,1,8,0:2:0:0:
307,228,52287,1,0,1:2:0:0:
106,246,52452,5,2,1:2:0:0:
182,107,52617,1,2,1:2:0:0:
182,107,52781,1,0,0:0:0:0:
16,162,52946,1,0,1:2:0:0:
16,162,53111,1,2,0:2:0:0:
178,80,53276,1,0,1:2:0:0:
204,285,53441,6,0,P|240:313|301:302,1,76.9950006461678,10|0,0:2|0:0,0:0:0:0:
351,171,53770,2,0,B|338:255|397:227|380:342,1,153.990001292336,2|2,0:2|0:2,0:2:0:0:
136,70,54430,5,2,1:2:0:0:
277,111,54595,1,2,1:2:0:0:
277,111,54759,2,0,P|261:150|262:204,1,76.9950006461678,2|0,0:2|1:2,0:2:0:0:
121,75,55089,2,0,P|137:114|136:168,1,76.9950006461678,2|0,0:2|1:2,0:2:0:0:
288,19,55419,2,0,P|354:5|414:40,1,115.492500969252,10|0,0:2|0:2,0:2:0:0:
408,52,55748,1,8,0:2:0:0:
405,71,55830,1,8,0:2:0:0:
402,90,55912,1,8,0:2:0:0:
400,109,55995,1,8,0:2:0:0:
397,128,56077,1,10,0:2:0:0:
322,196,56243,1,0,0:0:0:0:
497,125,56408,6,0,L|512:281,2,136.289997296494,6|2|2,1:2|0:2|0:2,0:2:0:0:
258,21,57397,1,14,0:2:0:0:
75,321,58056,5,10,0:2:0:0:
37,158,58221,1,10,0:2:0:0:
75,321,58386,2,0,L|217:345,1,136.289997296494,6|2,1:2|0:2,0:2:0:0:
184,238,58880,1,0,1:2:0:0:
184,238,59045,2,0,P|154:267|154:310,1,68.1449986482468,2|0,0:2|1:2,0:2:0:0:
358,364,59375,5,14,0:2:0:0:
188,56,60034,5,10,0:2:0:0:
278,171,60199,1,10,0:2:0:0:
188,56,60364,2,0,P|138:48|79:72,1,102.21749797237,6|0,1:2|0:0,0:2:0:0:
90,64,60694,1,2,0:2:0:0:
267,157,60858,2,0,P|313:137|376:146,1,102.21749797237,2|0,1:2|0:0,0:0:0:0:
364,141,61188,1,2,1:2:0:0:
236,310,61353,6,0,P|189:290|126:299,1,102.21749797237,14|0,0:2|0:0,0:2:0:0:
136,305,61683,2,0,P|187:301|234:321,1,102.21749797237,2|0,0:2|0:0,0:2:0:0:
234,336,62012,5,10,0:2:0:0:
279,162,62177,1,8,0:2:0:0:
423,352,62342,1,6,1:2:0:0:
356,262,62507,1,0,1:2:0:0:
356,262,62672,2,0,P|382:235|432:224,1,68.1449986482468,0|0,0:0|1:2,0:0:0:0:
251,247,63001,2,0,P|219:234|196:209,1,68.1449986482468,0|0,0:0|1:2,0:0:0:0:
102,51,63331,6,0,B|125:129|67:115|81:206,2,136.289997296494,8|0|8,0:2|1:2|0:2,0:2:0:0:
343,29,64320,5,10,0:2:0:0:
342,41,64402,1,8,0:2:0:0:
341,54,64484,1,8,0:2:0:0:
340,67,64567,1,8,0:2:0:0:
339,96,64649,5,8,0:2:0:0:
338,116,64732,1,8,0:3:0:0:
337,136,64814,1,4,0:3:0:0:
335,156,64896,1,4,0:3:0:0:
334,182,64979,6,0,L|290:195,1,42.9225010151654,8|8,0:3|0:3,0:0:0:0:
152,245,65144,2,0,L|110:232,1,42.9225010151654,8|8,0:2|0:2,0:0:0:0:
268,343,65309,1,14,1:2:0:0:
426,38,65968,6,0,L|417:109,1,62.392499047966,14|0,0:2|0:2,0:2:0:0:
406,180,66298,5,6,0:2:0:0:
386,209,66380,1,0,0:2:0:0:
355,229,66462,1,8,0:2:0:0:
320,234,66545,1,0,0:2:0:0:
285,224,66627,1,0,0:2:0:0:
258,200,66710,1,0,0:2:0:0:
243,168,66792,2,0,L|247:102,3,51.7725001974964,10|0|0|0,0:2|0:2|0:2|0:2,0:0:0:0:
85,66,67122,2,0,L|88:117,1,51.7725001974964,10|0,0:2|0:2,0:2:0:0:
18,307,67287,5,2,0:2:0:0:
48,288,67369,1,0,0:2:0:0:
84,281,67451,1,8,0:2:0:0:
119,288,67534,1,0,0:2:0:0:
150,306,67616,1,0,0:2:0:0:
179,324,67699,1,0,0:2:0:0:
215,331,67782,1,8,0:2:0:0:
251,324,67864,1,0,0:2:0:0:
281,305,67946,2,0,P|269:275|269:247,1,51.7725001974964,2|0,0:2|0:2,0:2:0:0:
399,194,68111,2,0,P|396:219|385:243,1,51.7725001974964,10|0,0:2|0:2,0:2:0:0:
323,114,68276,6,0,P|358:77|409:69,1,103.545000394993,2|8,0:2|0:2,0:0:0:0:
496,116,68523,1,0,0:2:0:0:
496,116,68606,2,0,P|481:142|481:178,1,51.7725001974964,0|0,0:2|0:2,0:0:0:0:
492,332,68770,1,10,0:2:0:0:
472,301,68852,1,0,0:2:0:0:
443,281,68934,1,0,0:2:0:0:
407,275,69017,1,0,0:2:0:0:
372,283,69100,2,0,P|356:302|321:309,1,51.7725001974964,10|0,0:2|0:2,0:2:0:0:
205,176,69265,5,2,0:2:0:0:
169,172,69347,1,0,0:2:0:0:
135,184,69429,1,8,0:2:0:0:
108,208,69512,1,0,0:2:0:0:
93,240,69594,1,0,0:2:0:0:
91,277,69677,1,0,0:2:0:0:
104,310,69759,1,8,0:2:0:0:
128,335,69841,1,0,0:2:0:0:
158,338,69924,2,0,L|176:248,1,51.7725001974964,2|0,0:2|0:2,0:2:0:0:
62,146,70089,2,0,L|51:95,1,51.7725001974964,10|0,0:2|0:2,0:2:0:0:
247,20,70254,6,0,P|234:44|227:83,3,51.7725001974964,2|0|8|0,0:2|0:2|0:2|0:2,0:0:0:0:
316,192,70584,2,0,P|340:205|379:212,3,51.7725001974964,2|0|8|0,0:2|0:2|0:2|0:2,0:0:0:0:
246,70,70913,2,0,P|252:45|265:22,3,51.7725001974964,2|0|8|0,0:2|0:2|0:2|0:2,0:0:0:0:
185,179,71243,5,2,0:2:0:0:
155,157,71325,1,0,0:2:0:0:
123,140,71407,1,8,0:2:0:0:
89,128,71490,1,0,0:2:0:0:
54,120,71573,2,0,P|66:144|67:180,3,51.7725001974964,2|0|8|0,0:2|0:2|0:2|0:2,0:0:0:0:
157,309,71902,2,0,P|159:283|171:260,3,51.7725001974964,2|0|8|0,0:2|0:2|0:2|0:2,0:0:0:0:
310,153,72232,5,2,0:2:0:0:
345,146,72314,1,0,0:2:0:0:
379,157,72396,1,8,0:2:0:0:
404,182,72479,1,0,0:2:0:0:
415,216,72561,1,0,0:2:0:0:
408,252,72644,1,0,0:2:0:0:
386,280,72726,1,8,0:2:0:0:
353,294,72808,1,0,0:2:0:0:
318,292,72891,2,0,L|310:234,1,51.7725001974964,2|0,0:2|0:2,0:0:0:0:
236,28,73056,2,0,L|228:79,1,51.7725001974964,10|0,0:2|0:2,0:0:0:0:
214,304,73221,5,10,0:2:0:0:
155,330,73303,1,8,0:2:0:0:
93,325,73385,1,8,0:2:0:0:
42,289,73468,1,8,0:2:0:0:
17,230,73551,2,0,L|93:215,1,51.7725001974964,10|8,0:3|0:3,0:0:0:0:
253,115,73716,2,0,L|314:126,1,51.7725001974964,10|8,0:3|0:3,0:0:0:0:
61,197,73880,2,0,L|0:209,1,51.7725001974964,6|4,0:3|0:3,0:0:0:0:
236,93,74045,2,0,L|297:104,1,51.7725001974964,6|4,0:3|0:3,0:0:0:0:
140,242,74210,5,6,0:2:0:0:
142,205,74292,1,0,0:2:0:0:
145,169,74374,1,8,0:2:0:0:
148,133,74457,1,0,0:2:0:0:
151,97,74539,1,0,0:2:0:0:
154,61,74622,1,0,0:2:0:0:
156,25,74705,2,0,P|132:6|89:-2,3,51.7725001974964,10|0|0|0,0:2|0:2|0:2|0:2,0:0:0:0:
246,175,75034,2,0,P|270:165|290:149,1,51.7725001974964,10|0,0:2|0:2,0:2:0:0:
398,0,75199,5,2,0:2:0:0:
405,36,75281,1,0,0:2:0:0:
410,72,75363,1,8,0:2:0:0:
416,107,75446,1,0,0:2:0:0:
422,143,75528,1,0,0:2:0:0:
428,179,75611,1,0,0:2:0:0:
434,214,75694,2,0,P|461:226|505:223,1,51.7725001974964,8|0,0:2|0:2,0:0:0:0:
317,81,75858,2,0,L|311:151,1,51.7725001974964,2|0,0:2|0:2,0:2:0:0:
326,307,76023,2,0,L|321:255,1,51.7725001974964,10|0,0:2|0:2,0:2:0:0:
219,80,76188,6,0,P|184:46|108:46,1,103.545000394993,2|8,0:2|0:2,0:0:0:0:
88,145,76435,1,0,0:2:0:0:
88,145,76518,2,0,P|109:121|149:115,1,51.7725001974964,0|0,0:2|0:2,0:0:0:0:
142,322,76683,1,10,0:2:0:0:
121,291,76765,1,0,0:2:0:0:
115,255,76847,1,0,0:2:0:0:
124,221,76930,1,0,0:2:0:0:
147,193,77012,2,0,P|176:187|219:204,1,51.7725001974964,10|0,0:2|0:2,0:2:0:0:
330,295,77177,5,2,0:2:0:0:
305,268,77259,1,0,0:2:0:0:
291,234,77341,1,8,0:2:0:0:
290,198,77424,1,0,0:2:0:0:
302,164,77506,1,0,0:2:0:0:
326,136,77589,1,0,0:2:0:0:
339,102,77671,1,8,0:2:0:0:
340,66,77754,1,0,0:2:0:0:
328,32,77836,2,0,P|299:13|255:13,1,51.7725001974964,2|0,0:2|0:2,0:2:0:0:
389,216,78001,2,0,P|413:209|434:193,1,51.7725001974964,10|0,0:2|0:2,0:2:0:0:
235,82,78166,5,2,0:2:0:0:
199,83,78248,1,0,0:2:0:0:
166,97,78330,1,8,0:2:0:0:
141,124,78413,1,0,0:2:0:0:
129,158,78496,1,0,0:2:0:0:
132,194,78578,1,0,0:2:0:0:
134,230,78660,1,8,0:2:0:0:
136,266,78743,1,0,0:2:0:0:
139,302,78825,2,0,P|118:319|73:319,3,51.7725001974964,2|0|8|0,0:2|0:2|0:2|0:2,0:0:0:0:
222,171,79155,2,0,L|212:247,3,51.7725001974964,2|0|8|0,0:2|0:2|0:2|0:2,0:0:0:0:
323,150,79485,2,0,L|317:99,3,51.7725001974964,2|0|8|0,0:2|0:2|0:2|0:2,0:0:0:0:
172,46,79814,2,0,L|162:122,3,51.7725001974964,2|0|8|0,0:2|0:2|0:2|0:2,0:0:0:0:
331,259,80144,5,2,0:2:0:0:
370,247,80226,1,0,0:2:0:0:
402,221,80308,1,8,0:2:0:0:
423,186,80391,1,0,0:2:0:0:
429,145,80473,1,0,0:2:0:0:
419,105,80556,1,0,0:2:0:0:
396,71,80638,1,8,0:2:0:0:
361,49,80720,1,0,0:2:0:0:
321,40,80803,2,0,L|231:59,3,51.7725001974964,0|0|8|0,0:2|0:2|0:2|0:2,0:0:0:0:
159,252,81133,5,2,0:2:0:0:
126,83,81298,1,8,0:2:0:0:
245,263,81463,5,0,0:2:0:0:
246,226,81545,1,0,0:2:0:0:
249,189,81628,1,8,0:2:0:0:
45,24,81792,1,8,0:2:0:0:
48,61,81875,1,8,0:2:0:0:
49,98,81957,1,8,0:2:0:0:
322,129,82122,6,0,P|275:97|199:110,1,103.545000394993,14|0,0:2|0:2,0:0:0:0:
420,277,82452,1,8,0:2:0:0:
383,53,82617,1,0,0:2:0:0:
197,271,82781,2,0,P|146:268|104:238,1,103.545000394993,8|0,0:2|0:2,0:0:0:0:
391,84,83111,6,0,P|439:99|473:138,1,103.545000394993,10|0,0:2|0:2,0:0:0:0:
184,184,83441,1,8,0:2:0:0:
413,257,83606,1,0,0:2:0:0:
175,78,83770,2,0,P|126:93|92:132,1,103.545000394993,10|0,0:2|0:2,0:0:0:0:
321,332,84100,5,14,0:2:0:0:
267,84,84265,1,0,0:2:0:0:
62,293,84430,5,8,0:2:0:0:
278,175,84595,1,0,0:2:0:0:
7,124,84759,5,8,0:2:0:0:
207,285,84924,1,0,0:2:0:0:
110,6,85089,6,0,P|100:54|90:137,1,103.545000394993,10|0,0:2|0:2,0:0:0:0:
331,278,85419,1,8,0:2:0:0:
192,139,85584,1,0,0:2:0:0:
441,1,85748,2,0,P|451:49|461:132,1,103.545000394993,8|0,0:2|0:2,0:0:0:0:
213,248,86078,5,14,0:2:0:0:
471,317,86243,1,0,0:2:0:0:
352,43,86408,5,8,0:2:0:0:
354,287,86573,1,0,0:2:0:0:
506,124,86738,5,8,0:2:0:0:
266,165,86902,1,0,0:2:0:0:
499,328,87067,6,0,L|486:201,1,103.545000394993,10|0,0:2|0:2,0:0:0:0:
339,32,87397,1,8,0:2:0:0:
512,142,87562,1,0,0:2:0:0:
257,327,87727,2,0,P|204:342|142:290,1,103.545000394993,10|0,0:2|0:2,0:0:0:0:
16,76,88056,5,14,0:2:0:0:
89,298,88221,1,0,0:2:0:0:
147,43,88386,5,8,0:2:0:0:
94,278,88551,1,0,0:2:0:0:
63,0,88716,5,8,0:2:0:0:
100,254,88881,1,0,0:2:0:0:
239,21,89045,6,0,P|287:3|346:24,1,103.545000394993,0|8,0:2|0:2,0:0:0:0:
402,224,89375,5,8,0:2:0:0:
337,53,89540,1,8,0:2:0:0:
283,293,89705,1,8,0:2:0:0:
443,124,89869,1,8,0:2:0:0:
505,292,90034,6,0,B|157:314|376:24|17:27,1,580.117492918488
28,135,92012,5,6,0:2:0:0:
51,119,92094,1,0,0:2:0:0:
78,112,92176,1,8,0:2:0:0:
107,114,92259,1,0,0:2:0:0:
133,125,92341,1,0,0:2:0:0:
136,153,92423,1,0,0:2:0:0:
138,181,92505,1,8,0:2:0:0:
141,209,92588,1,0,0:2:0:0:
144,238,92671,2,0,L|214:258,2,47.347498555069,2|0|8,0:2|0:2|0:2,0:2:0:0:
230,369,92918,2,0,L|275:355,2,47.347498555069,2|0|0,0:2|0:2|0:2,0:2:0:0:
304,226,93165,2,0,L|349:239,1,47.347498555069,10|0,0:2|0:2,0:2:0:0:
400,332,93330,5,2,0:2:0:0:
385,306,93412,1,0,0:2:0:0:
378,279,93494,1,8,0:2:0:0:
378,251,93577,1,0,0:2:0:0:
387,223,93659,1,0,0:2:0:0:
403,201,93742,1,0,0:2:0:0:
425,182,93825,2,0,L|493:173,1,47.347498555069,8|0,0:2|0:2,0:2:0:0:
334,48,93990,1,2,0:2:0:0:
305,51,94073,1,0,0:2:0:0:
277,54,94154,2,0,L|197:63,1,47.347498555069,8|0,0:2|0:2,0:0:0:0:
101,206,94319,2,0,P|93:236|110:274,3,47.347498555069,0|0|8|0,0:2|0:2|0:2|0:2,0:0:0:0:
63,104,94649,5,2,0:2:0:0:
90,96,94731,1,0,0:2:0:0:
118,96,94813,1,8,0:2:0:0:
145,105,94896,1,0,0:2:0:0:
168,121,94978,1,0,0:2:0:0:
191,135,95061,1,0,0:2:0:0:
217,144,95144,1,8,0:2:0:0:
246,145,95226,1,0,0:2:0:0:
273,136,95308,2,0,L|285:209,2,47.347498555069,2|0|8,0:2|0:2|0:2,0:2:0:0:
380,290,95555,2,0,P|404:304|440:304,2,47.347498555069,2|0|0,0:2|0:2|0:2,0:2:0:0:
428,146,95803,2,0,P|404:150|384:162,1,47.347498555069,10|0,0:2|0:2,0:0:0:0:
268,334,95968,5,2,0:2:0:0:
239,330,96050,1,0,0:2:0:0:
211,327,96132,2,0,L|146:319,1,47.347498555069,10|0,0:2|0:2,0:2:0:0:
65,184,96297,2,0,L|123:190,1,47.347498555069,2|0,0:2|0:2,0:2:0:0:
190,342,96462,2,0,L|125:334,1,47.347498555069,10|0,0:2|0:2,0:2:0:0:
327,214,96627,5,2,0:2:0:0:
327,214,96709,1,0,0:2:0:0:
327,214,96792,1,10,0:2:0:0:
289,218,96874,1,0,0:0:0:0:
251,223,96956,1,0,0:0:0:0:
214,227,97039,1,0,0:0:0:0:
176,231,97121,2,0,P|154:206|150:164,1,47.347498555069,0|0,0:0|0:2,0:0:0:0:
409,148,97286,5,6,0:2:0:0:
420,173,97368,1,0,0:2:0:0:
424,201,97450,1,8,0:2:0:0:
420,229,97533,1,0,0:2:0:0:
407,254,97616,1,0,0:2:0:0:
395,279,97698,1,0,0:2:0:0:
390,308,97781,1,8,0:2:0:0:
394,336,97863,1,0,0:2:0:0:
406,361,97946,2,0,L|471:368,2,47.347498555069,2|0|8,0:2|0:2|0:2,0:2:0:0:
253,289,98193,2,0,L|300:283,2,47.347498555069,2|0|0,0:2|0:2|0:2,0:2:0:0:
155,203,98440,2,0,L|202:208,1,47.347498555069,10|0,0:2|0:2,0:2:0:0:
105,93,98605,5,2,0:2:0:0:
79,104,98687,1,0,0:2:0:0:
58,123,98769,1,8,0:2:0:0:
43,147,98852,1,0,0:2:0:0:
36,175,98934,1,0,0:2:0:0:
38,203,99017,1,0,0:2:0:0:
56,224,99099,2,0,L|67:295,1,47.347498555069,8|0,0:2|0:2,0:2:0:0:
224,148,99264,2,0,L|231:101,1,47.347498555069,2|0,0:2|0:2,0:0:0:0:
140,288,99429,2,0,L|147:334,1,47.347498555069,8|0,0:2|0:2,0:0:0:0:
296,185,99594,2,0,L|303:138,3,47.347498555069,0|0|8|0,0:2|0:2|0:2|0:2,0:0:0:0:
459,47,99924,5,2,0:2:0:0:
435,62,100006,1,0,0:2:0:0:
408,69,100088,1,8,0:2:0:0:
380,66,100171,1,0,0:2:0:0:
354,53,100253,1,0,0:2:0:0:
329,39,100336,1,0,0:2:0:0:
301,36,100419,1,8,0:2:0:0:
273,43,100501,1,0,0:2:0:0:
249,59,100583,2,0,P|221:71|170:61,2,47.347498555069,2|0|8,0:2|0:2|0:2,0:2:0:0:
56,18,100830,2,0,P|79:21|100:32,2,47.347498555069,2|0|0,0:2|0:2|0:2,0:2:0:0:
145,167,101077,2,0,P|126:142|125:90,1,47.347498555069,10|0,0:2|0:2,0:2:0:0:
276,155,101242,5,2,0:2:0:0:
273,173,101324,1,2,0:2:0:0:
271,192,101406,1,10,0:2:0:0:
269,211,101489,1,2,0:2:0:0:
266,244,101572,1,2,0:2:0:0:
251,278,101654,1,2,0:2:0:0:
225,306,101736,1,10,0:2:0:0:
191,322,101819,1,2,0:2:0:0:
154,326,101902,2,0,L|147:249,1,47.347498555069,2|2,0:2|0:2,0:0:0:0:
130,108,102066,2,0,L|134:155,1,47.347498555069,10|2,0:2|0:2,0:0:0:0:
345,294,102231,5,2,0:2:0:0:
383,289,102313,1,2,0:2:0:0:
421,284,102395,1,10,0:2:0:0:
373,34,102561,6,0,P|309:55|290:131,1,132.75,2|0,0:2|0:2,0:2:0:0:
313,202,102890,1,8,0:2:0:0:
300,214,102972,1,8,0:2:0:0:
286,224,103054,1,8,0:2:0:0:
269,230,103137,1,8,0:2:0:0:
252,233,103220,2,0,P|232:217|202:217,3,44.25,8|8|4|4,0:3|0:3|0:3|0:3,0:0:0:0:
135,354,103550,6,0,P|122:295|83:205,1,132.75,6|0,1:2|0:2,0:2:0:0:
57,109,103879,1,8,0:2:0:0:
32,125,103961,1,8,0:2:0:0:
16,152,104043,1,8,0:2:0:0:
14,182,104126,1,8,0:2:0:0:
26,211,104209,2,0,L|87:220,1,44.25,8|0,0:3|0:3,0:0:0:0:
173,70,104374,2,0,L|130:64,1,44.25,4|4,0:3|0:3,0:0:0:0:
31,354,104868,6,0,B|76:374|126:369|163:331|181:293|175:247|158:207|123:178|80:183|39:188|24:140|17:114|25:83|42:39|75:16|111:5|152:2|194:12|220:43|236:75|242:113|244:129|256:148|256:148|268:129|270:113|276:75|292:43|318:12|360:2|401:5|437:16|470:39|487:83|495:114|488:140|473:188|432:183|389:178|354:207|337:247|331:293|349:331|406:368|450:370|494:350,1,1359.36,6|0,1:2|2:2,0:2:0:0:
