osu file format v14

[General]
AudioFilename: audio.mp3
AudioLeadIn: 0
PreviewTime: 65556
Countdown: 0
SampleSet: Normal
StackLeniency: 0.4
Mode: 0
LetterboxInBreaks: 0
WidescreenStoryboard: 1

[Editor]
Bookmarks: 71902
DistanceSpacing: 0.8
BeatDivisor: 4
GridSize: 32
TimelineZoom: 1.999999

[Metadata]
Title:DROPOUT!?
TitleUnicode:DROPOUT!?
Artist:Saint Snow
ArtistUnicode:Saint Snow
Creator:Sotarks
Version:Reform's Insane
Source:ラブライブ!サンシャイン!!
Tags:basensorex reform kujinn kowari smokelind love live sunshine school idol project japanese female vocalist anime tv show size deathstreams short version
BeatmapID:2333514
BeatmapSetID:1115534

[Difficulty]
HPDrainRate:5
CircleSize:3.5
OverallDifficulty:8
ApproachRate:9
SliderMultiplier:1.67
SliderTickRate:1

[Events]
//Background and Video events
0,0,"bg.jpg",0,0
//Break Periods
//Storyboard Layer 0 (Background)
//Storyboard Layer 1 (Fail)
//Storyboard Layer 2 (Pass)
//Storyboard Layer 3 (Foreground)
//Storyboard Layer 4 (Overlay)
//Storyboard Sound Samples

[TimingPoints]
360,329.67032967033,3,2,22,52,1,0
8272,-114.942528735633,4,2,22,52,0,0
15524,-212.765957446812,4,2,22,52,0,0
16101,-212.765957446812,4,2,22,5,0,0
16189,329.67032967033,4,1,22,72,1,0
16189,-93.4579439252336,4,1,22,72,0,0
26738,329.67032967033,3,1,22,72,1,0
28716,-103.092783505155,4,1,22,62,0,0
44540,-212.765957446809,4,2,22,62,0,0
46518,-103.092783505155,4,1,22,62,0,0
47177,-129.870129870131,4,1,22,62,0,0
47507,-129.870129870131,4,2,22,62,0,0
48496,-114.942528735633,4,2,22,62,0,0
56408,-129.870129870131,4,2,22,62,0,0
64320,-103.092783505155,4,2,22,62,0,0
65309,-103.092783505155,4,1,22,62,0,0
65968,-212.765957446812,4,1,22,62,0,0
66298,-85.4700854700855,4,1,22,72,0,0
82122,-85.4700854700855,4,1,22,82,0,0
90034,-175.43859649123,4,1,22,82,0,0
90117,-175.43859649123,4,1,22,5,0,0
91353,-175.43859649123,4,1,22,22,0,0
92012,329.67032967033,4,1,22,72,1,0
92012,-93.4579439252336,4,1,22,72,0,0
102561,329.67032967033,3,1,22,72,1,0
104868,329.67032967033,3,1,22,72,1,0
104868,-500,4,1,22,72,0,0
104951,-500,4,1,22,22,0,0

[Colours]
Combo1 : 166,251,255
Combo2 : 172,43,140
Combo3 : 45,120,204
Combo4 : 237,139,235

[HitObjects]
42,277,8272,5,6,1:2:0:0:
113,229,8436,2,0,P|165:221|238:303,2,145.290001219322,2|2|0,1:2|1:2|1:2,0:2:0:0:
36,199,9178,1,0,1:2:0:0:
36,199,9261,2,0,P|26:152|13:107,1,72.6450006096611,10|0,1:2|0:0,0:2:0:0:
153,304,9590,2,0,P|143:339|136:374,1,72.6450006096611,2|0,0:2|0:0,0:0:0:0:
186,146,9920,2,0,P|219:129|269:131,1,72.6450006096611,2|0,0:2|1:2,0:0:0:0:
289,141,10167,1,0,1:2:0:0:
289,141,10250,5,6,1:2:0:0:
361,271,10414,2,0,P|374:208|398:117,2,145.290001219322,2|2|2,1:2|1:2|1:2,0:2:0:0:
254,113,11239,2,0,P|243:58|234:12,1,72.6450006096611,10|0,1:2|0:0,0:2:0:0:
92,188,11568,1,0,1:2:0:0:
218,251,11733,1,0,1:2:0:0:
105,85,11898,2,0,P|116:30|125:-16,1,72.6450006096611,8|0,1:2|0:0,0:0:0:0:
267,193,12228,5,6,1:2:0:0:
136,244,12392,2,0,P|153:301|253:317,2,145.290001219322,2|2|0,1:2|1:2|1:2,0:2:0:0:
171,177,13134,1,0,1:2:0:0:
171,177,13217,2,0,P|212:167|250:151,1,72.6450006096611,10|0,1:2|0:0,0:2:0:0:
101,290,13546,2,0,P|67:276|31:268,1,72.6450006096611,2|0,0:2|0:0,0:0:0:0:
211,383,13876,1,2,0:2:0:0:
326,242,14041,1,0,1:2:0:0:
326,242,14123,1,0,1:2:0:0:
326,242,14206,5,6,1:2:0:0:
224,101,14370,2,0,P|206:158|199:276,2,145.290001219322,2|2|0,1:2|1:2|1:2,0:2:0:0:
279,7,15195,5,14,1:2:0:0:
279,7,15524,2,0,P|318:61|397:55,1,137.357497904091,0|0,0:0|0:2,0:0:0:0:
458,17,16189,6,0,P|469:48|471:90,3,44.6724986367035,6|0|8|0,0:2|0:2|0:2|0:2,0:0:0:0:
411,136,16518,2,0,P|400:167|398:209,3,44.6724986367035,0|0|8|0,0:2|0:2|0:2|0:2,0:0:0:0:
496,300,16848,2,0,P|456:272|390:279,1,89.3449972734071,2|8,0:2|0:2,0:2:0:0:
327,338,17095,1,2,0:2:0:0:
327,338,17178,2,0,P|283:333|247:307,1,89.3449972734071,0|10,0:2|0:2,0:0:0:0:
103,227,17507,5,2,0:2:0:0:
103,227,17590,1,0,0:2:0:0:
103,227,17672,1,8,0:2:0:0:
103,227,17754,1,0,0:2:0:0:
103,227,17837,2,0,P|108:194|113:154,3,44.6724986367035,0|0|8|0,0:2|0:2|0:2|0:2,0:0:0:0:
178,305,18167,1,2,0:2:0:0:
178,305,18249,1,0,0:2:0:0:
178,305,18331,1,8,0:2:0:0:
178,305,18414,1,0,0:2:0:0:
178,305,18496,2,0,P|183:338|188:378,3,44.6724986367035,0|0|8|0,0:2|0:2|0:2|0:2,0:0:0:0:
225,209,18826,5,2,0:2:0:0:
245,185,18908,1,0,0:2:0:0:
274,173,18991,1,8,0:2:0:0:
305,173,19073,1,0,0:2:0:0:
335,180,19156,2,0,P|368:192|394:214,3,44.6724986367035,0|0|8|0,0:2|0:2|0:2|0:2,0:0:0:0:
443,307,19485,2,0,P|454:248|475:202,1,89.3449972734071,2|8,0:2|0:2,0:2:0:0:
427,140,19732,1,2,0:2:0:0:
427,140,19815,2,0,P|416:81|395:35,1,89.3449972734071,0|10,0:2|0:2,0:0:0:0:
192,21,20145,5,2,0:2:0:0:
192,21,20227,1,0,0:2:0:0:
192,21,20309,2,0,P|160:32|133:37,1,44.6724986367035,10|0,0:2|0:2,0:2:0:0:
67,136,20474,1,2,0:2:0:0:
67,136,20556,1,0,0:2:0:0:
67,136,20638,2,0,P|99:147|126:152,1,44.6724986367035,10|0,0:2|0:2,0:2:0:0:
252,229,20804,5,2,0:2:0:0:
252,229,20886,1,0,0:2:0:0:
252,229,20969,2,0,P|259:257|267:299,1,44.6724986367035,10|0,0:2|0:0,0:2:0:0:
125,376,21134,2,0,P|118:348|110:306,1,44.6724986367035
262,219,21298,2,0,P|269:247|277:289,1,44.6724986367035,0|0,0:0|0:2,0:0:0:0:
55,239,21463,6,0,P|38:185|57:136,1,89.3449972734071,6|8,0:2|0:2,0:0:0:0:
97,90,21710,1,0,0:2:0:0:
97,90,21793,2,0,P|115:98|145:102,3,44.6724986367035,0|0|8|0,0:2|0:2|0:2|0:2,0:0:0:0:
230,169,22123,6,0,P|275:146|324:146,1,89.3449972734071,2|8,0:2|0:2,0:2:0:0:
400,88,22370,1,2,0:2:0:0:
400,88,22452,2,0,P|445:111|494:111,1,89.3449972734071,0|10,0:2|0:2,0:0:0:0:
422,316,22782,5,2,0:2:0:0:
422,316,22864,1,0,0:2:0:0:
422,316,22947,1,8,0:2:0:0:
422,316,23029,1,0,0:2:0:0:
422,316,23112,2,0,L|405:252,3,44.6724986367035,0|0|8|0,0:2|0:2|0:2|0:2,0:0:0:0:
258,218,23441,1,2,0:2:0:0:
258,218,23523,1,0,0:2:0:0:
258,218,23606,1,8,0:2:0:0:
258,218,23688,1,0,0:2:0:0:
258,218,23771,2,0,L|241:282,3,44.6724986367035,0|0|8|0,0:2|0:2|0:2|0:2,0:0:0:0:
144,355,24101,5,2,0:2:0:0:
115,366,24183,1,0,0:2:0:0:
83,366,24265,1,8,0:2:0:0:
52,357,24348,1,0,0:2:0:0:
25,339,24430,2,0,P|8:301|12:260,3,44.6724986367035,0|0|8|0,0:2|0:2|0:2|0:2,0:0:0:0:
37,214,24760,6,0,P|72:182|136:186,1,89.3449972734071,2|8,0:2|0:2,0:2:0:0:
177,133,25007,1,2,0:2:0:0:
177,133,25090,2,0,P|142:101|78:105,1,89.3449972734071,0|10,0:2|0:2,0:0:0:0:
180,280,25419,5,2,0:2:0:0:
206,296,25502,1,2,0:2:0:0:
237,294,25584,1,10,0:2:0:0:
263,277,25667,1,2,0:2:0:0:
286,256,25749,2,0,L|291:199,3,44.6724986367035,2|2|10|2,0:2|0:2|0:2|0:2,0:0:0:0:
220,127,26079,2,0,L|215:70,3,44.6724986367035,2|2|10|2,0:2|0:2|0:2|0:2,0:0:0:0:
279,20,26408,1,2,0:2:0:0:
312,8,26491,1,2,0:2:0:0:
347,9,26573,1,10,0:2:0:0:
380,22,26656,1,2,0:2:0:0:
405,43,26738,6,0,P|433:83|422:192,1,125.25,6|0,0:2|0:2,0:2:0:0:
390,219,27067,2,0,P|364:237|340:246,3,41.75,8|8|8|8,0:2|0:2|0:2|0:2,0:0:0:0:
459,287,27397,2,0,P|485:305|509:314,3,41.75,8|8|4|4,0:3|0:3|0:3|0:3,0:0:0:0:
352,316,27727,6,0,P|301:311|234:386,1,125.25,6|0,0:2|0:2,0:2:0:0:
160,315,28056,2,0,L|149:261,3,41.75,8|8|8|8,0:2|0:2|0:2|0:2,0:0:0:0:
224,221,28386,2,0,L|235:167,3,41.75,8|8|4|4,0:3|0:3|0:3|0:3,0:0:0:0:
201,70,28716,6,0,P|153:60|108:26,1,80.9950019156228,0|8,0:2|0:2,0:2:0:0:
339,120,29045,2,0,P|374:100|414:93,1,80.9950019156228,2|10,0:2|0:2,0:0:0:0:
155,224,29375,1,2,0:2:0:0:
155,224,29457,1,0,0:2:0:0:
155,224,29540,1,10,0:2:0:0:
258,94,29705,6,0,P|267:49|270:0,1,80.9950019156228,2|8,0:2|0:2,0:2:0:0:
379,192,30034,2,0,P|382:232|390:271,1,80.9950019156228,2|8,0:2|0:2,0:2:0:0:
238,192,30364,1,2,0:2:0:0:
238,192,30446,1,0,0:2:0:0:
238,192,30529,1,8,0:2:0:0:
335,351,30694,6,0,P|381:373|436:366,1,80.9950019156228,2|8,0:2|0:2,0:0:0:0:
162,266,31023,2,0,P|121:269|86:288,1,80.9950019156228,2|8,0:2|0:2,0:2:0:0:
343,226,31353,1,0,0:2:0:0:
343,226,31435,1,0,0:2:0:0:
343,226,31518,1,10,0:2:0:0:
163,151,31683,5,2,0:2:0:0:
238,307,31847,1,8,0:2:0:0:
282,144,32012,1,0,0:2:0:0:
151,251,32177,1,8,0:2:0:0:
324,283,32342,1,2,0:2:0:0:
324,283,32424,1,0,0:2:0:0:
324,283,32507,1,10,0:2:0:0:
159,124,32672,6,0,P|115:108|58:105,1,80.9950019156228,2|8,0:2|0:2,0:2:0:0:
138,328,33001,2,0,P|178:322|215:307,1,80.9950019156228,2|8,0:2|0:2,0:2:0:0:
30,220,33331,1,2,0:2:0:0:
30,220,33413,1,0,0:2:0:0:
30,220,33496,1,8,0:2:0:0:
237,184,33661,6,0,P|255:131|263:84,1,80.9950019156228,2|8,0:2|0:2,0:0:0:0:
35,27,33990,2,0,P|44:66|58:104,1,80.9950019156228,2|8,0:2|0:2,0:2:0:0:
225,22,34320,1,2,0:2:0:0:
225,22,34402,1,0,0:2:0:0:
225,22,34485,1,8,0:2:0:0:
125,249,34650,6,0,P|86:274|31:275,1,80.9950019156228,2|8,0:2|0:2,0:0:0:0:
261,350,34979,2,0,P|300:375|355:376,1,80.9950019156228,0|8,0:2|0:2,0:0:0:0:
241,215,35309,1,2,0:2:0:0:
241,215,35391,1,0,0:2:0:0:
241,215,35474,1,8,0:2:0:0:
189,330,35639,5,2,0:2:0:0:
141,155,35803,1,8,0:2:0:0:
264,301,35968,1,0,0:2:0:0:
299,119,36133,1,8,0:2:0:0:
168,253,36298,1,0,0:2:0:0:
168,253,36380,1,0,0:2:0:0:
168,253,36463,1,8,0:2:0:0:
405,175,36628,6,0,P|424:131|418:65,1,80.9950019156228,4|8,0:2|0:2,0:2:0:0:
220,87,36957,1,2,0:2:0:0:
320,203,37122,1,10,0:2:0:0:
357,40,37287,1,0,0:2:0:0:
357,40,37369,1,0,0:2:0:0:
357,40,37452,1,10,0:2:0:0:
214,195,37617,6,0,P|176:220|122:225,1,80.9950019156228,2|8,0:2|0:2,0:2:0:0:
371,314,37946,2,0,P|410:322|443:345,1,80.9950019156228,2|8,0:2|0:2,0:2:0:0:
318,151,38276,1,2,0:2:0:0:
318,151,38358,1,0,0:2:0:0:
318,151,38441,1,8,0:2:0:0:
213,354,38606,6,0,P|168:347|125:313,1,80.9950019156228,2|8,0:2|0:2,0:0:0:0:
4,189,38935,2,0,P|23:227|34:279,1,80.9950019156228,2|8,0:2|0:2,0:2:0:0:
164,138,39265,1,0,0:2:0:0:
164,138,39347,1,0,0:2:0:0:
164,138,39430,1,10,0:2:0:0:
13,248,39595,5,2,0:2:0:0:
165,298,39759,1,8,0:2:0:0:
44,157,39924,1,0,0:2:0:0:
7,331,40089,1,8,0:2:0:0:
159,218,40254,1,2,0:2:0:0:
159,218,40336,1,0,0:2:0:0:
159,218,40419,1,10,0:2:0:0:
298,380,40584,6,0,P|348:363|391:359,1,80.9950019156228,2|8,0:2|0:2,0:2:0:0:
341,192,40913,2,0,P|291:175|248:171,1,80.9950019156228,2|8,0:2|0:2,0:2:0:0:
437,305,41243,1,2,0:2:0:0:
437,305,41325,1,0,0:2:0:0:
437,305,41408,1,8,0:2:0:0:
385,125,41573,6,0,P|400:71|423:29,1,80.9950019156228,2|8,0:2|0:2,0:0:0:0:
248,252,41902,2,0,P|264:289|273:328,1,80.9950019156228,2|8,0:2|0:2,0:2:0:0:
194,90,42232,1,2,0:2:0:0:
194,90,42314,1,0,0:2:0:0:
194,90,42397,1,8,0:2:0:0:
351,233,42562,6,0,P|391:250|446:241,1,80.9950019156228,2|8,0:2|0:2,0:0:0:0:
180,286,42891,2,0,P|139:284|103:301,1,80.9950019156228,0|8,0:2|0:2,0:0:0:0:
308,140,43221,1,0,0:2:0:0:
308,140,43303,1,0,0:2:0:0:
308,140,43386,1,8,0:2:0:0:
262,302,43551,6,0,P|279:352|289:392,1,80.9950019156228,0|8,0:2|0:2,0:0:0:0:
426,182,43880,2,0,P|409:232|399:272,1,80.9950019156228,0|8,0:2|0:2,0:0:0:0:
306,56,44210,1,2,0:2:0:0:
306,56,44292,1,0,0:2:0:0:
306,56,44375,1,10,0:2:0:0:
165,244,44540,6,0,P|101:241|64:163,1,156.979997604675,6|0,1:2|2:2,0:2:0:0:
352,205,45529,2,0,P|390:186|506:160,1,156.979997604675,6|0,1:2|0:2,0:2:0:0:
210,345,46518,5,8,0:2:0:0:
210,345,46600,1,8,0:2:0:0:
210,345,46683,2,0,L|190:291,1,40.4975009578114,8|8,0:2|0:2,0:0:0:0:
258,197,46847,1,8,0:3:0:0:
258,197,46929,1,8,0:3:0:0:
258,197,47012,2,0,L|278:143,1,40.4975009578114,8|8,0:3|0:3,0:0:0:0:
213,43,47177,1,4,0:3:0:0:
213,43,47259,1,4,0:3:0:0:
213,43,47342,2,0,L|198:0,1,32.1474993623085,4|4,0:3|0:3,0:0:0:0:
293,62,47507,6,0,P|212:60|153:216,1,257.179994898468,4|2,1:2|0:2,0:2:0:0:
447,297,48496,5,6,1:2:0:0:
371,356,48661,2,0,P|315:336|202:327,1,145.290001219322,2|0,1:2|1:2,0:2:0:0:
80,252,49155,2,0,P|62:215|60:170,1,72.6450006096611,10|0,0:2|1:2,0:0:0:0:
307,117,49485,2,0,P|302:152|285:184,1,72.6450006096611,2|0,0:2|1:2,0:0:0:0:
164,95,49814,2,0,L|144:8,1,72.6450006096611,2|0,0:2|1:2,0:2:0:0:
186,221,50144,2,0,L|163:364,1,145.290001219322,2|2,1:2|1:2,0:2:0:0:
94,274,50639,5,2,1:2:0:0:
94,274,50803,2,0,P|58:258|13:242,1,72.6450006096611,0|0,0:0|1:2,0:0:0:0:
214,217,51133,2,0,P|250:201|295:185,1,72.6450006096611,10|0,0:2|0:2,0:2:0:0:
92,190,51463,1,2,1:2:0:0:
218,306,51628,1,0,1:2:0:0:
163,151,51792,2,0,P|170:106|193:66,1,72.6450006096611,2|0,0:2|1:2,0:2:0:0:
341,239,52122,2,0,P|369:248|391:250,2,36.3225003048306,10|8|0,0:2|0:2|1:2,0:0:0:0:
157,290,52452,5,2,1:2:0:0:
204,375,52617,1,2,1:2:0:0:
176,210,52781,1,0,0:0:0:0:
75,276,52946,1,0,1:2:0:0:
251,240,53111,1,2,0:2:0:0:
175,134,53276,1,0,1:2:0:0:
61,298,53441,6,0,P|74:341|178:367,2,145.290001219322,10|2|2,0:2|0:2|0:2,0:0:0:0:
61,298,54430,2,0,P|75:250|79:203,1,72.6450006096611,2|2,1:2|1:2,0:0:0:0:
0,61,54759,2,0,P|5:96|17:131,1,72.6450006096611,2|0,0:2|1:2,0:2:0:0:
223,72,55089,2,0,P|180:43|137:43,1,72.6450006096611,2|0,0:2|1:2,0:2:0:0:
227,215,55419,6,0,P|272:187|352:170,1,108.967500914492,10|0,0:2|0:2,0:2:0:0:
397,201,55748,2,0,P|429:213|453:217,3,36.3225003048306,8|8|8|8,0:2|0:2|0:2|0:2,0:0:0:0:
509,172,56078,1,10,0:2:0:0:
509,172,56408,6,0,L|495:324,2,128.589997449234,6|2|2,1:2|0:2|0:2,0:2:0:0:
397,56,57397,2,0,P|358:45|325:22,1,64.294998724617,14|0,0:2|0:0,0:2:0:0:
242,187,57727,2,0,P|270:171|301:163,1,64.294998724617,0|0,0:2|0:0,0:0:0:0:
239,59,58056,1,10,0:2:0:0:
239,59,58221,1,10,0:2:0:0:
355,239,58386,6,0,P|386:202|374:105,1,128.589997449234,6|2,1:2|0:2,0:2:0:0:
243,216,58880,1,0,1:2:0:0:
294,300,59045,2,0,P|309:332|318:384,1,64.294998724617,2|0,0:2|1:2,0:2:0:0:
164,184,59375,6,0,P|149:222|138:328,1,128.589997449234,14|0,0:2|0:2,0:2:0:0:
88,156,59869,1,0,0:0:0:0:
228,270,60034,1,10,0:2:0:0:
158,102,60199,1,10,0:2:0:0:
130,296,60364,6,0,P|98:323|6:312,1,128.589997449234,6|2,1:2|0:2,0:2:0:0:
229,376,60858,2,0,P|183:375|126:310,1,128.589997449234,2|2,1:2|1:2,0:0:0:0:
293,327,61353,2,0,P|280:293|285:247,1,64.294998724617,14|0,0:2|0:2,0:2:0:0:
385,368,61683,2,0,P|397:336|432:308,1,64.294998724617,2|0,0:2|0:2,0:2:0:0:
229,379,62012,1,10,0:2:0:0:
229,379,62177,1,8,0:2:0:0:
406,228,62342,5,6,1:2:0:0:
406,228,62507,2,0,P|451:228|508:293,2,128.589997449234,0|0|0,1:2|1:2|1:2,0:2:0:0:
269,154,63331,2,0,P|243:186|234:225,1,64.294998724617,8|0,0:2|0:0,0:2:0:0:
89,263,63661,2,0,P|100:303|129:331,1,64.294998724617,0|0,1:2|1:2,0:0:0:0:
291,336,63990,1,8,0:2:0:0:
291,336,64320,5,10,0:2:0:0:
314,320,64402,1,8,0:2:0:0:
325,293,64485,1,8,0:2:0:0:
329,265,64567,1,8,0:2:0:0:
327,236,64650,2,0,P|295:221|262:216,3,40.4975009578114,8|8|4|4,0:2|0:3|0:3|0:3,0:0:0:0:
370,171,64979,2,0,P|402:156|435:151,3,40.4975009578114,8|8|8|8,0:3|0:3|0:2|0:2,0:0:0:0:
295,110,65309,5,14,1:2:0:0:
131,295,65968,5,14,0:2:0:0:
131,295,66298,5,6,0:2:0:0:
149,272,66380,1,0,0:2:0:0:
176,261,66463,1,8,0:2:0:0:
205,259,66545,1,0,0:2:0:0:
233,266,66628,1,0,0:2:0:0:
256,282,66710,1,0,0:2:0:0:
273,305,66792,2,0,P|280:342|287:380,3,48.8475001863384,10|0|0|0,0:2|0:2|0:2|0:2,0:0:0:0:
362,265,67122,1,10,0:2:0:0:
214,203,67287,6,0,P|170:188|113:183,1,97.6950003726768,2|8,0:2|0:2,0:0:0:0:
309,97,67617,2,0,P|353:82|410:77,1,97.6950003726768,0|8,0:2|0:2,0:0:0:0:
163,63,67946,1,2,0:2:0:0:
163,63,68029,1,0,0:2:0:0:
163,63,68111,1,10,0:2:0:0:
387,183,68276,5,2,0:2:0:0:
399,209,68358,1,0,0:2:0:0:
399,238,68441,1,8,0:2:0:0:
390,265,68523,1,0,0:2:0:0:
372,288,68606,1,0,0:2:0:0:
348,305,68688,1,0,0:2:0:0:
320,313,68770,2,0,P|278:308|242:291,3,48.8475001863384,10|0|0|0,0:2|0:2|0:2|0:2,0:0:0:0:
399,365,69100,1,10,0:2:0:0:
213,245,69265,6,0,P|180:284|181:345,1,97.6950003726768,2|8,0:2|0:2,0:0:0:0:
324,168,69595,2,0,P|308:120|253:88,1,97.6950003726768,0|8,0:2|0:2,0:0:0:0:
308,318,69924,1,2,0:2:0:0:
433,237,70089,1,10,0:2:0:0:
213,174,70254,6,0,P|176:164|147:151,3,48.8475001863384,2|0|8|0,0:2|0:2|0:2|0:2,0:0:0:0:
206,256,70584,2,0,P|169:246|140:233,3,48.8475001863384,2|0|8|0,0:2|0:2|0:2|0:2,0:0:0:0:
210,337,70913,2,0,P|173:327|144:314,3,48.8475001863384,2|0|8|0,0:2|0:2|0:2|0:2,0:0:0:0:
29,273,71243,5,2,0:2:0:0:
29,273,71325,1,0,0:2:0:0:
29,273,71408,2,0,L|44:332,1,48.8475001863384,8|0,0:2|0:2,0:0:0:0:
110,147,71573,1,2,0:2:0:0:
110,147,71655,1,0,0:2:0:0:
110,147,71738,2,0,L|95:206,1,48.8475001863384,8|0,0:2|0:2,0:0:0:0:
6,42,71902,1,2,0:2:0:0:
6,42,71984,1,0,0:2:0:0:
6,42,72067,2,0,L|21:101,1,48.8475001863384,8|0,0:2|0:2,0:0:0:0:
197,221,72232,6,0,P|245:243|295:238,1,97.6950003726768,2|8,0:2|0:2,0:0:0:0:
387,58,72562,2,0,P|338:55|295:77,1,97.6950003726768,0|8,0:2|0:2,0:0:0:0:
421,197,72891,1,2,0:2:0:0:
421,197,72974,1,0,0:2:0:0:
421,197,73056,1,10,0:2:0:0:
202,17,73221,5,10,0:2:0:0:
213,49,73303,1,8,0:2:0:0:
219,82,73386,1,8,0:2:0:0:
222,115,73468,1,8,0:2:0:0:
219,149,73551,2,0,P|214:188|204:224,3,48.8475001863384,10|8|10|8,0:3|0:3|0:3|0:3,0:0:0:0:
92,85,73880,2,0,P|89:60|84:36,3,48.8475001863384,6|4|6|4,0:3|0:3|0:3|0:3,0:0:0:0:
220,35,74210,6,0,P|266:65|326:67,1,97.6950003726768,6|8,0:2|0:2,0:0:0:0:
97,180,74540,2,0,P|49:187|9:215,1,97.6950003726768,0|10,0:2|0:2,0:0:0:0:
279,284,74869,1,0,0:2:0:0:
279,284,74952,1,0,0:2:0:0:
279,284,75034,1,10,0:2:0:0:
198,127,75199,6,0,P|186:186|175:242,1,97.6950003726768,2|8,0:2|0:2,0:0:0:0:
399,319,75529,2,0,P|389:271|379:223,1,97.6950003726768,0|8,0:2|0:2,0:0:0:0:
213,363,75858,1,2,0:2:0:0:
213,363,75941,1,0,0:2:0:0:
213,363,76023,1,10,0:2:0:0:
294,182,76188,5,2,0:2:0:0:
309,157,76270,1,0,0:2:0:0:
332,139,76353,1,8,0:2:0:0:
360,130,76435,1,0,0:2:0:0:
389,127,76518,1,0,0:2:0:0:
417,130,76600,1,0,0:2:0:0:
443,141,76683,2,0,P|470:155|494:180,3,48.8475001863384,10|0|0|0,0:2|0:2|0:2|0:2,0:0:0:0:
441,37,77012,1,10,0:2:0:0:
346,257,77177,6,0,P|306:294|246:290,1,97.6950003726768,2|8,0:2|0:2,0:0:0:0:
167,99,77507,2,0,P|219:115|245:169,1,97.6950003726768,0|8,0:2|0:2,0:0:0:0:
109,237,77836,1,2,0:2:0:0:
109,237,77919,1,0,0:2:0:0:
109,237,78001,1,10,0:2:0:0:
310,328,78166,5,2,0:2:0:0:
334,343,78248,1,0,0:2:0:0:
362,352,78331,1,8,0:2:0:0:
391,352,78413,1,0,0:2:0:0:
420,352,78496,2,0,P|434:309|437:275,3,48.8475001863384,0|0|8|0,0:2|0:2|0:2|0:2,0:0:0:0:
503,224,78825,2,0,P|497:200|488:177,3,48.8475001863384,2|0|8|0,0:2|0:2|0:2|0:2,0:0:0:0:
370,148,79155,5,2,0:2:0:0:
370,148,79238,1,0,0:2:0:0:
370,148,79320,2,0,L|301:133,1,48.8475001863384,8|0,0:2|0:2,0:0:0:0:
463,75,79485,1,2,0:2:0:0:
463,75,79568,1,0,0:2:0:0:
463,75,79650,2,0,L|532:60,1,48.8475001863384,8|0,0:2|0:2,0:0:0:0:
350,19,79814,1,2,0:2:0:0:
350,19,79897,1,0,0:2:0:0:
350,19,79979,2,0,L|281:4,1,48.8475001863384,8|0,0:2|0:2,0:0:0:0:
200,57,80144,5,2,0:2:0:0:
189,84,80227,1,0,0:2:0:0:
188,113,80309,1,8,0:2:0:0:
189,142,80391,1,0,0:2:0:0:
203,167,80474,2,0,P|231:189|262:196,3,48.8475001863384,0|0|8|0,0:2|0:2|0:2|0:2,0:0:0:0:
119,253,80803,2,0,P|91:275|60:282,3,48.8475001863384,0|0|8|0,0:2|0:2|0:2|0:2,0:0:0:0:
227,374,81133,6,0,P|237:320|245:264,1,97.6950003726768,2|8,0:2|0:2,0:0:0:0:
62,182,81463,2,0,P|69:230|78:278,1,97.6950003726768,0|8,0:2|0:2,0:0:0:0:
216,146,81792,1,8,0:2:0:0:
225,118,81875,1,8,0:2:0:0:
229,89,81957,1,8,0:2:0:0:
232,59,82040,1,8,0:2:0:0:
235,30,82122,6,0,P|180:12|127:11,1,97.6950003726768,14|0,0:2|0:2,0:0:0:0:
370,201,82452,2,0,P|418:197|464:180,1,97.6950003726768,8|0,0:2|0:2,0:0:0:0:
219,103,82781,2,0,P|164:85|111:84,1,97.6950003726768,8|0,0:2|0:2,0:0:0:0:
366,117,83111,6,0,P|380:57|386:0,1,97.6950003726768,10|0,0:2|0:2,0:0:0:0:
168,197,83441,2,0,P|174:245|186:292,1,97.6950003726768,8|0,0:2|0:2,0:0:0:0:
294,99,83770,2,0,P|308:39|314:-18,1,97.6950003726768,10|0,0:2|0:2,0:0:0:0:
353,303,84100,6,0,P|403:325|466:330,1,97.6950003726768,14|0,0:2|0:2,0:0:0:0:
168,197,84430,2,0,P|119:204|75:224,1,97.6950003726768,8|0,0:2|0:2,0:0:0:0:
379,233,84759,2,0,P|429:255|492:260,1,97.6950003726768,8|0,0:2|0:2,0:0:0:0:
189,289,85089,6,0,P|196:345|216:400,1,97.6950003726768,10|0,0:2|0:2,0:0:0:0:
332,154,85419,2,0,P|346:107|351:58,1,97.6950003726768,8|0,0:2|0:2,0:0:0:0:
263,274,85748,2,0,P|270:330|290:385,1,97.6950003726768,8|0,0:2|0:2,0:0:0:0:
107,92,86078,6,0,P|49:72|-19:68,1,97.6950003726768,14|0,0:2|0:2,0:0:0:0:
332,154,86408,2,0,P|380:146|425:129,1,97.6950003726768,8|0,0:2|0:2,0:0:0:0:
94,233,86738,2,0,P|45:240|0:257,1,97.6950003726768,8|0,0:2|0:2,0:0:0:0:
386,357,87067,6,0,P|401:298|399:233,1,97.6950003726768,10|0,0:2|0:2,0:0:0:0:
201,101,87397,2,0,P|203:149|217:196,1,97.6950003726768,8|0,0:2|0:2,0:0:0:0:
463,96,87727,2,0,P|476:49|479:0,1,97.6950003726768,10|0,0:2|0:2,0:0:0:0:
374,300,88056,6,0,P|422:329|480:333,1,97.6950003726768,14|0,0:2|0:2,0:0:0:0:
174,186,88386,2,0,P|126:194|85:220,1,97.6950003726768,8|0,0:2|0:2,0:0:0:0:
374,130,88716,2,0,P|421:121|462:95,1,97.6950003726768,8|0,0:2|0:2,0:0:0:0:
165,80,89045,5,0,0:2:0:0:
266,235,89210,1,8,0:2:0:0:
317,34,89375,1,8,0:2:0:0:
137,183,89540,1,8,0:2:0:0:
379,250,89705,1,8,0:2:0:0:
233,20,89869,1,8,0:2:0:0:
125,259,90034,5,0,0:0:0:0:
251,355,91353,6,0,P|211:305|101:328,1,166.582497966522,0|0,2:2|2:0,0:0:0:0:
33,367,92012,6,0,P|23:322|24:290,3,44.6724986367035,6|0|8|0,0:2|0:2|0:2|0:2,0:0:0:0:
49,242,92341,2,0,P|59:197|58:165,3,44.6724986367035,0|0|8|0,0:2|0:2|0:2|0:2,0:0:0:0:
3,108,92671,2,0,P|51:113|111:79,1,89.3449972734071,2|8,0:2|0:2,0:2:0:0:
155,44,92918,1,2,0:2:0:0:
155,44,93001,2,0,P|198:38|240:53,1,89.3449972734071,0|10,0:2|0:2,0:0:0:0:
336,171,93330,5,2,0:2:0:0:
336,171,93413,1,0,0:2:0:0:
336,171,93495,1,8,0:2:0:0:
336,171,93577,1,0,0:2:0:0:
336,171,93660,2,0,P|342:205|348:249,3,44.6724986367035,0|0|8|0,0:2|0:2|0:2|0:2,0:0:0:0:
207,292,93990,1,2,0:2:0:0:
207,292,94073,1,0,0:2:0:0:
207,292,94155,1,8,0:2:0:0:
207,292,94237,1,0,0:2:0:0:
207,292,94320,2,0,P|213:258|219:214,3,44.6724986367035,0|0|8|0,0:2|0:2|0:2|0:2,0:0:0:0:
349,354,94649,5,2,0:2:0:0:
379,361,94731,1,0,0:2:0:0:
410,357,94814,1,8,0:2:0:0:
435,339,94896,1,0,0:2:0:0:
454,314,94979,2,0,P|449:292|444:270,3,44.6724986367035,0|0|8|0,0:2|0:2|0:2|0:2,0:0:0:0:
386,171,95308,2,0,P|338:146|268:152,1,89.3449972734071,2|8,0:2|0:2,0:2:0:0:
256,221,95555,1,2,0:2:0:0:
256,221,95638,2,0,P|208:246|138:240,1,89.3449972734071,0|10,0:2|0:2,0:0:0:0:
48,154,95968,5,2,0:2:0:0:
48,154,96050,1,0,0:2:0:0:
48,154,96132,2,0,L|36:89,1,44.6724986367035,10|0,0:2|0:2,0:2:0:0:
70,280,96297,1,2,0:2:0:0:
70,280,96380,1,0,0:2:0:0:
70,280,96462,2,0,L|61:323,1,44.6724986367035,10|0,0:2|0:2,0:2:0:0:
218,136,96627,6,0,L|232:70,1,44.6724986367035,2|0,0:2|0:2,0:2:0:0:
223,263,96792,2,0,L|232:306,1,44.6724986367035,10|0,0:2|0:0,0:2:0:0:
126,117,96957,2,0,L|112:51,1,44.6724986367035
121,244,97122,2,0,L|111:287,1,44.6724986367035,0|0,0:0|0:2,0:0:0:0:
323,184,97286,6,0,P|370:183|426:229,1,89.3449972734071,6|8,0:2|0:2,0:0:0:0:
461,266,97533,1,0,0:2:0:0:
461,266,97616,2,0,P|457:296|444:328,3,44.6724986367035,0|0|8|0,0:2|0:2|0:2|0:2,0:0:0:0:
369,368,97946,2,0,P|320:367|265:328,1,89.3449972734071,2|8,0:2|0:2,0:2:0:0:
218,285,98193,1,2,0:2:0:0:
218,285,98275,2,0,P|169:286|114:325,1,89.3449972734071,0|10,0:2|0:2,0:0:0:0:
21,376,98605,5,2,0:2:0:0:
21,376,98687,1,0,0:2:0:0:
21,376,98770,1,8,0:2:0:0:
21,376,98852,1,0,0:2:0:0:
21,376,98935,2,0,L|7:308,3,44.6724986367035,0|0|8|0,0:2|0:2|0:2|0:2,0:0:0:0:
75,224,99264,1,2,0:2:0:0:
75,224,99346,1,0,0:2:0:0:
75,224,99429,1,8,0:2:0:0:
75,224,99511,1,0,0:2:0:0:
75,224,99594,2,0,L|89:156,3,44.6724986367035,0|0|8|0,0:2|0:2|0:2|0:2,0:0:0:0:
13,45,99924,5,2,0:2:0:0:
35,66,100006,1,0,0:2:0:0:
64,76,100088,1,8,0:2:0:0:
95,76,100171,1,0,0:2:0:0:
125,70,100253,2,0,P|148:60|190:53,3,44.6724986367035,0|0|8|0,0:2|0:2|0:2|0:2,0:0:0:0:
278,109,100583,2,0,P|298:152|301:210,1,89.3449972734071,2|8,0:2|0:2,0:2:0:0:
230,269,100830,1,2,0:2:0:0:
230,269,100913,2,0,P|210:226|207:168,1,89.3449972734071,0|10,0:2|0:2,0:0:0:0:
414,322,101242,5,2,0:2:0:0:
391,344,101325,1,2,0:2:0:0:
362,356,101407,1,10,0:2:0:0:
330,357,101490,1,2,0:2:0:0:
299,350,101572,2,0,P|273:339|236:335,3,44.6724986367035,2|2|10|2,0:2|0:2|0:2|0:2,0:0:0:0:
164,363,101902,2,0,P|138:374|101:378,3,44.6724986367035,2|2|10|2,0:2|0:2|0:2|0:2,0:0:0:0:
39,340,102231,1,2,0:2:0:0:
17,310,102314,1,2,0:2:0:0:
10,275,102396,1,10,0:2:0:0:
20,240,102479,1,2,0:2:0:0:
42,216,102561,5,2,0:2:0:0:
284,330,102890,1,8,0:2:0:0:
284,330,102973,1,8,0:2:0:0:
284,330,103055,2,0,L|293:268,1,41.75,8|8,0:2|0:2,0:0:0:0:
226,212,103220,2,0,L|217:150,3,41.75,8|8|4|4,0:3|0:3|0:3|0:3,0:0:0:0:
289,101,103550,5,6,1:2:0:0:
47,257,103879,1,8,0:2:0:0:
47,257,103962,1,8,0:2:0:0:
47,257,104044,2,0,L|38:195,1,41.75,8|8,0:2|0:2,0:0:0:0:
105,139,104209,2,0,L|114:77,3,41.75,8|0|4|4,0:3|0:3|0:3|0:3,0:0:0:0:
110,97,104868,6,0,B|326:66|213:312|422:283,1,400.8,6|0,1:2|2:2,0:2:0:0:
