osu file format v14

[General]
AudioFilename: audio.mp3
AudioLeadIn: 0
PreviewTime: 65556
Countdown: 0
SampleSet: Soft
StackLeniency: 0.4
Mode: 0
LetterboxInBreaks: 0
WidescreenStoryboard: 1

[Editor]
DistanceSpacing: 1.4
BeatDivisor: 4
GridSize: 32
TimelineZoom: 1.999999

[Metadata]
Title:DROPOUT!?
TitleUnicode:DROPOUT!?
Artist:Saint Snow
ArtistUnicode:Saint Snow
Creator:Sotarks
Version:Kowari's Hard
Source:ラブライブ!サンシャイン!!
Tags:basensorex reform kujinn kowari smokelind love live sunshine school idol project japanese female vocalist anime tv show size deathstreams short version
BeatmapID:2335826
BeatmapSetID:1115534

[Difficulty]
HPDrainRate:5
CircleSize:3.5
OverallDifficulty:6.5
ApproachRate:8
SliderMultiplier:1.32
SliderTickRate:1

[Events]
//Background and Video events
0,0,"bg.jpg",0,0
//Break Periods
//Storyboard Layer 0 (Background)
//Storyboard Layer 1 (Fail)
//Storyboard Layer 2 (Pass)
//Storyboard Layer 3 (Foreground)
//Storyboard Layer 4 (Overlay)
//Storyboard Sound Samples

[TimingPoints]
360,329.67032967033,3,2,22,52,1,0
8272,-111.111111111111,4,2,22,52,0,0
15524,-100,4,2,22,52,0,0
16101,-100,4,2,22,5,0,0
16189,329.67032967033,4,1,22,72,1,0
16189,-100,4,1,22,72,0,0
26738,329.67032967033,3,1,22,72,1,0
28716,-111.111111111111,4,1,22,62,0,0
44540,-125,4,2,22,62,0,0
46518,-100,4,1,22,62,0,0
47177,-100,4,1,22,62,0,0
47507,-111.111111111111,4,2,22,62,0,0
48496,-111.111111111111,4,2,22,62,0,0
56408,-111.111111111111,4,2,22,62,0,0
64320,-100,4,2,22,62,0,0
65309,-100,4,1,22,62,0,0
65968,-100,4,1,22,62,0,0
66298,-90.9090909090909,4,1,22,72,0,0
82122,-90.9090909090909,4,1,22,82,0,0
90034,-100,4,1,22,82,0,0
90117,-100,4,1,22,5,0,0
92012,329.67032967033,4,1,22,72,1,0
92012,-100,4,1,22,72,0,0
102561,329.67032967033,3,1,22,72,1,0
104868,329.67032967033,3,1,22,72,1,0
104868,-100,4,1,22,72,0,0
104951,-100,4,1,22,22,0,0

[Colours]
Combo1 : 166,251,255
Combo2 : 172,43,140
Combo3 : 45,120,204
Combo4 : 237,139,235

[HitObjects]
38,93,8272,5,6,1:2:0:0:
87,26,8436,2,0,P|118:13|196:46,2,118.799996374512,2|2|0,1:2|1:2|1:2,0:2:0:0:
38,93,9261,1,10,1:2:0:0:
159,206,9590,1,2,0:2:0:0:
46,325,9920,1,2,0:2:0:0:
122,381,10085,5,0,1:2:0:0:
122,381,10167,1,0,1:2:0:0:
122,381,10250,1,6,1:2:0:0:
186,329,10414,2,0,L|315:345,2,118.799996374512,2|2|2,1:2|1:2|1:2,0:2:0:0:
134,263,11239,1,10,1:2:0:0:
232,129,11568,1,0,1:2:0:0:
232,129,11733,1,0,1:2:0:0:
263,206,11898,2,0,P|311:220|344:212,1,59.3999981872559,8|0,1:2|0:0,0:0:0:0:
396,186,12228,5,6,1:2:0:0:
355,113,12392,2,0,B|368:73|368:73|359:38|359:38|374:-7,2,118.799996374512,2|2|0,1:2|1:2|1:2,0:2:0:0:
395,186,13217,1,10,1:2:0:0:
299,321,13546,1,2,0:2:0:0:
186,197,13876,1,2,0:2:0:0:
113,238,14041,5,0,1:2:0:0:
113,238,14123,1,0,1:2:0:0:
113,238,14206,1,6,1:2:0:0:
40,184,14370,2,0,P|26:127|75:72,2,118.799996374512,2|2|0,1:2|1:2|1:2,0:2:0:0:
112,238,15195,1,14,1:2:0:0:
235,100,15524,1,0,0:0:0:0:
382,211,15854,1,0,0:0:0:0:
511,75,16189,6,0,B|457:66|457:66|428:81|428:81|372:75,1,132,6|0,0:2|0:2,0:0:0:0:
304,29,16683,1,8,0:2:0:0:
252,106,16848,2,0,L|268:220,1,99,2|2,0:2|0:2,0:2:0:0:
269,240,17178,2,0,P|232:257|192:257,1,66,0|10,0:2|0:2,0:0:0:0:
150,195,17507,5,2,0:2:0:0:
77,251,17672,1,8,0:2:0:0:
77,251,17837,2,0,L|90:338,1,66,0|8,0:2|0:2,0:0:0:0:
143,380,18167,1,2,0:2:0:0:
216,324,18332,1,8,0:2:0:0:
216,324,18497,2,0,L|203:237,1,66,0|8,0:2|0:2,0:0:0:0:
243,174,18826,6,0,P|288:145|367:182,1,132,2|0,0:2|0:2,0:0:0:0:
385,257,19320,1,8,0:2:0:0:
466,212,19485,2,0,L|472:101,1,99,2|2,0:2|0:2,0:2:0:0:
475,76,19815,2,0,B|444:67|444:67|403:79,1,66,0|10,0:2|0:2,0:0:0:0:
353,149,20145,5,2,0:2:0:0:
286,85,20309,2,0,L|296:6,1,66,10|2,0:2|0:2,0:2:0:0:
200,125,20639,2,0,L|208:190,1,66,10|2,0:2|0:2,0:2:0:0:
177,278,20969,2,0,B|125:287|125:287|104:276|104:276|38:287,1,132,10|0,0:2|0:0,0:2:0:0:
0,206,21463,6,0,P|-10:139|33:82,1,132,6|0,0:2|0:2,0:0:0:0:
113,61,21958,1,8,0:2:0:0:
171,132,22123,2,0,L|289:120,1,99,2|2,0:2|0:2,0:2:0:0:
309,98,22452,2,0,L|396:107,1,66,0|10,0:2|0:2,0:0:0:0:
445,165,22782,5,2,0:2:0:0:
377,227,22947,1,8,0:2:0:0:
377,227,23112,2,0,P|359:272|369:307,1,66,0|8,0:2|0:2,0:0:0:0:
406,368,23441,1,2,0:2:0:0:
474,306,23606,1,8,0:2:0:0:
474,306,23771,2,0,P|492:261|482:226,1,66,0|8,0:2|0:2,0:0:0:0:
443,164,24101,6,0,B|462:86|462:86|424:40,1,132,2|0,0:2|0:2,0:0:0:0:
346,5,24595,1,8,0:2:0:0:
301,85,24760,2,0,P|256:114|199:103,1,99,2|2,0:2|0:2,0:2:0:0:
184,73,25090,2,0,L|193:-2,1,66,0|10,0:2|0:2,0:0:0:0:
101,115,25419,2,0,L|110:166,3,33,2|2|10|2,0:2|0:2|0:2|0:2,0:0:0:0:
139,180,25749,2,0,L|130:231,3,33,2|2|10|2,0:2|0:2|0:2|0:2,0:0:0:0:
121,257,26079,2,0,P|161:287|220:279,1,99,2|2,0:2|0:2,0:0:0:0:
247,261,26408,2,0,L|243:207,3,33,2|2|10|2,0:2|0:2|0:2|0:2,0:0:0:0:
243,181,26738,6,0,L|392:166,1,132,6|8,0:2|0:2,0:2:0:0:
451,218,27232,1,8,0:2:0:0:
451,218,27314,1,8,0:2:0:0:
451,218,27397,2,0,L|502:232,2,33,8|8|4,0:3|0:3|0:3,0:0:0:0:
408,300,27727,6,0,P|364:340|286:318,1,132,6|8,0:2|0:2,0:2:0:0:
223,292,28221,1,8,0:2:0:0:
223,292,28303,1,8,0:2:0:0:
223,292,28386,2,0,L|172:306,2,33,8|8|4,0:3|0:3|0:3,0:0:0:0:
286,224,28716,6,0,P|305:175|259:111,1,118.799996374512,0|2,0:2|0:2,0:2:0:0:
202,80,29210,1,10,0:2:0:0:
145,141,29375,2,0,L|78:135,1,59.3999981872559,2|10,0:2|0:2,0:0:0:0:
20,187,29705,6,0,L|34:316,1,118.799996374512,2|2,0:2|0:2,0:2:0:0:
97,357,30199,1,8,0:2:0:0:
157,299,30364,2,0,P|178:290|226:287,1,59.3999981872559,2|8,0:2|0:2,0:0:0:0:
240,206,30694,2,0,P|261:214|297:246,1,59.3999981872559,2|8,0:2|0:2,0:0:0:0:
334,307,31023,6,0,P|366:267|350:190,1,118.799996374512,2|0,0:2|0:2,0:2:0:0:
301,141,31518,1,10,0:2:0:0:
362,84,31683,2,0,L|435:99,2,59.3999981872559,2|8|0,0:2|0:2|0:2,0:0:0:0:
299,28,32177,1,8,0:2:0:0:
223,62,32342,2,0,P|212:104|219:130,1,59.3999981872559,2|10,0:2|0:2,0:0:0:0:
237,199,32672,6,0,L|108:221,1,118.799996374512,2|2,0:2|0:2,0:2:0:0:
42,187,33166,1,8,0:2:0:0:
2,114,33331,2,0,P|-1:72|11:46,1,59.3999981872559,2|8,0:2|0:2,0:0:0:0:
76,13,33661,2,0,B|121:8|121:8|149:27|149:27|214:27,1,118.799996374512,2|2,0:2|0:2,0:0:0:0:
271,11,34155,1,8,0:2:0:0:
327,72,34320,2,0,L|317:143,1,59.3999981872559,2|8,0:2|0:2,0:0:0:0:
305,213,34650,6,0,P|359:243|431:221,1,118.799996374512,2|0,0:2|0:2,0:0:0:0:
470,173,35144,1,8,0:2:0:0:
511,245,35309,2,0,L|494:316,1,59.3999981872559,2|8,0:2|0:2,0:0:0:0:
435,359,35639,5,2,0:2:0:0:
435,359,35803,1,8,0:2:0:0:
360,321,35968,2,0,P|318:311|283:320,1,59.3999981872559,0|8,0:2|0:2,0:0:0:0:
228,351,36298,2,0,L|237:391,2,29.699999093628,0|0|8,0:2|0:2|0:2,0:0:0:0:
168,291,36628,6,0,L|192:170,1,118.799996374512,4|2,0:2|0:2,0:2:0:0:
204,94,37122,2,0,P|163:63|91:83,1,118.799996374512,10|10,0:2|0:2,0:0:0:0:
33,125,37617,2,0,L|41:186,1,59.3999981872559,2|8,0:2|0:2,0:2:0:0:
87,252,37946,2,0,L|79:313,1,59.3999981872559,2|8,0:2|0:2,0:2:0:0:
140,367,38276,1,2,0:2:0:0:
140,367,38441,1,8,0:2:0:0:
213,327,38606,6,0,P|236:283|231:253,1,59.3999981872559,2|8,0:2|0:2,0:0:0:0:
187,207,38935,2,0,L|180:80,1,118.799996374512,2|0,0:2|0:2,0:2:0:0:
232,23,39430,1,10,0:2:0:0:
290,81,39595,6,0,P|319:96|359:101,1,59.3999981872559,2|8,0:2|0:2,0:0:0:0:
354,183,39924,2,0,P|385:173|416:148,1,59.3999981872559,0|8,0:2|0:2,0:0:0:0:
469,102,40254,1,2,0:2:0:0:
469,102,40419,1,10,0:2:0:0:
500,178,40584,6,0,L|484:312,1,118.799996374512,2|2,0:2|0:2,0:2:0:0:
429,356,41078,1,8,0:2:0:0:
364,303,41243,2,0,P|325:291|288:293,1,59.3999981872559,2|8,0:2|0:2,0:0:0:0:
237,338,41573,2,0,P|185:366|116:350,1,118.799996374512,2|2,0:2|0:2,0:0:0:0:
73,294,42067,1,8,0:2:0:0:
127,231,42232,2,0,L|127:152,1,59.3999981872559,2|8,0:2|0:2,0:0:0:0:
67,112,42562,6,0,L|-4:126,1,59.3999981872559,2|8,0:2|0:2,0:0:0:0:
118,42,42891,2,0,L|189:56,1,59.3999981872559,0|8,0:2|0:2,0:0:0:0:
259,45,43221,2,0,L|252:9,2,29.699999093628,0|0|8,0:2|0:2|0:2,0:0:0:0:
311,109,43551,5,0,0:2:0:0:
311,109,43716,1,8,0:2:0:0:
248,163,43880,2,0,B|236:192|236:192|245:221,1,59.3999981872559,0|8,0:2|0:2,0:0:0:0:
306,274,44210,1,2,0:2:0:0:
306,274,44375,1,10,0:2:0:0:
381,220,44540,6,0,L|497:203,2,105.6,6|0|0,1:2|0:0|2:2,0:2:0:0:
234,330,45529,2,0,L|118:313,2,105.6,6|0|0,1:2|0:0|0:2,0:2:0:0:
333,174,46518,6,0,L|319:128,3,33,8|8|8|8,0:2|0:2|0:2|0:2,0:0:0:0:
282,121,46847,2,0,L|296:75,3,33,8|8|8|8,0:3|0:3|0:3|0:3,0:0:0:0:
328,61,47177,2,0,L|314:15,3,33,4|4|4|4,0:3|0:3|0:3|0:3,0:0:0:0:
295,2,47507,6,0,B|189:-2|243:59|128:59,1,178.199994561768,4|0,1:2|0:0,0:2:0:0:
54,30,48166,1,2,0:2:0:0:
10,209,48496,5,6,1:2:0:0:
10,209,48661,2,0,L|148:194,1,118.799996374512,2|0,1:2|1:2,0:2:0:0:
186,254,49155,2,0,L|174:320,1,59.3999981872559,10|0,0:2|1:2,0:0:0:0:
256,335,49485,2,0,L|266:276,1,59.3999981872559,2|0,0:2|1:2,0:0:0:0:
287,196,49814,5,2,0:2:0:0:
287,196,49979,1,0,1:2:0:0:
350,141,50144,2,0,P|399:128|464:164,1,118.799996374512,2|2,1:2|1:2,0:2:0:0:
490,233,50639,5,2,1:2:0:0:
490,233,50803,2,0,L|474:306,1,59.3999981872559,0|0,0:0|1:2,0:0:0:0:
448,369,51133,2,0,L|389:356,1,59.3999981872559,10|0,0:2|0:2,0:2:0:0:
328,299,51463,2,0,L|269:311,1,59.3999981872559,2|0,1:2|1:2,0:0:0:0:
193,344,51792,5,2,0:2:0:0:
193,344,51957,1,0,1:2:0:0:
118,306,52122,2,0,B|87:272|87:272|124:187,1,118.799996374512,10|2,0:2|1:2,0:0:0:0:
190,167,52617,5,2,1:2:0:0:
190,167,52781,2,0,P|206:133|202:103,1,59.3999981872559,0|0,0:0|1:2,0:0:0:0:
143,54,53111,2,0,L|72:59,1,59.3999981872559,2|0,0:2|1:2,0:2:0:0:
0,64,53441,2,0,L|10:135,1,59.3999981872559,10|0,0:2|0:0,0:0:0:0:
81,174,53770,2,0,P|103:205|100:235,1,59.3999981872559,2|0,0:2|0:2,0:2:0:0:
22,272,54100,2,0,P|4:312|15:347,1,59.3999981872559,2|0,0:2|0:2,0:2:0:0:
79,376,54430,5,2,1:2:0:0:
79,376,54595,1,2,1:2:0:0:
145,318,54759,2,0,L|223:308,1,59.3999981872559,2|0,0:2|1:2,0:2:0:0:
262,250,55089,2,0,L|320:257,1,59.3999981872559,2|0,0:2|1:2,0:2:0:0:
402,277,55419,1,10,0:2:0:0:
511,152,55748,2,0,L|499:107,3,29.699999093628,8|8|8|8,0:2|0:2|0:2|0:2,0:0:0:0:
492,82,56078,2,0,P|456:76|421:91,1,59.3999981872559,10|0,0:2|0:0,0:0:0:0:
375,141,56408,6,0,L|398:273,1,118.799996374512,6|2,1:2|0:2,0:2:0:0:
353,329,56902,1,0,1:2:0:0:
272,348,57067,2,0,P|236:340|216:321,1,59.3999981872559,2|0,0:2|1:2,0:0:0:0:
151,374,57397,6,0,P|135:308|163:250,1,118.799996374512,14|0,0:2|0:2,0:2:0:0:
220,214,57891,1,0,0:0:0:0:
165,151,58056,1,10,0:2:0:0:
165,151,58221,1,10,0:2:0:0:
194,73,58386,6,0,L|323:57,1,118.799996374512,6|2,1:2|0:2,0:2:0:0:
395,54,58880,2,0,P|420:96|404:165,1,118.799996374512,0|0,1:2|1:2,0:0:0:0:
359,230,59375,6,0,L|370:297,2,59.3999981872559,14|0|0,0:2|0:0|0:2,0:2:0:0:
302,169,59869,1,0,0:0:0:0:
219,161,60034,2,0,P|184:168|164:189,1,59.3999981872559,10|10,0:2|0:2,0:0:0:0:
119,252,60364,6,0,L|136:372,1,118.799996374512,6|2,1:2|0:2,0:2:0:0:
217,382,60858,2,0,B|286:372|249:338|324:332,1,118.799996374512,2|2,1:2|1:2,0:0:0:0:
387,281,61353,2,0,L|518:308,2,118.799996374512,14|2|10,0:2|0:2|0:2,0:2:0:0:
324,226,62177,1,8,0:2:0:0:
391,176,62342,5,6,1:2:0:0:
391,176,62507,2,0,P|406:134|402:103,1,59.3999981872559,0|0,1:2|0:0,0:2:0:0:
344,63,62836,2,0,L|215:83,1,118.799996374512,0|0,1:2|1:2,0:0:0:0:
146,105,63331,1,8,0:2:0:0:
5,15,63661,1,0,1:2:0:0:
5,15,63825,1,0,1:2:0:0:
58,79,63990,2,0,L|51:146,1,59.3999981872559,8|0,0:2|0:2,0:2:0:0:
26,227,64320,6,0,L|82:220,3,33,10|8|8|8,0:2|0:2|0:2|0:2,0:0:0:0:
101,205,64650,2,0,L|157:212,3,33,8|8|4|4,0:2|0:3|0:3|0:3,0:0:0:0:
174,230,64979,2,0,L|230:223,3,33,8|8|8|8,0:3|0:3|0:2|0:2,0:0:0:0:
252,218,65309,1,14,1:2:0:0:
512,183,65968,1,14,0:2:0:0:
424,366,66298,6,0,P|351:373|308:310,1,145.200004431152,6|0,0:2|0:2,0:0:0:0:
287,222,66792,2,0,L|201:235,1,72.6000022155762,10|0,0:2|0:2,0:0:0:0:
116,261,67122,1,10,0:2:0:0:
34,199,67287,2,0,P|13:140|61:56,1,145.200004431152,2|0,0:2|0:2,0:0:0:0:
138,27,67781,1,8,0:2:0:0:
213,95,67946,1,2,0:2:0:0:
213,95,68029,1,0,0:2:0:0:
213,95,68111,1,10,0:2:0:0:
307,58,68276,6,0,B|394:64|360:114|451:106,1,145.200004431152,2|0,0:2|0:2,0:0:0:0:
511,187,68770,2,0,P|512:235|485:266,1,72.6000022155762,10|0,0:2|0:2,0:0:0:0:
406,297,69100,1,10,0:2:0:0:
304,291,69265,2,0,L|333:145,1,145.200004431152,2|0,0:2|0:2,0:0:0:0:
285,58,69759,1,8,0:2:0:0:
188,95,69924,1,2,0:2:0:0:
188,95,70007,1,0,0:2:0:0:
188,95,70089,1,10,0:2:0:0:
179,196,70254,6,0,P|127:218|46:174,1,145.200004431152,2|2,0:2|0:2,0:0:0:0:
25,83,70748,1,8,0:2:0:0:
124,63,70913,2,0,L|207:77,1,72.6000022155762,2|8,0:2|0:2,0:0:0:0:
280,131,71243,2,0,L|351:118,1,72.6000022155762,2|8,0:2|0:2,0:0:0:0:
451,128,71573,2,0,P|453:88|430:52,1,72.6000022155762,2|8,0:2|0:2,0:0:0:0:
380,204,71902,2,0,P|378:244|401:280,1,72.6000022155762,2|8,0:2|0:2,0:0:0:0:
467,341,72232,6,0,P|430:312|340:352,1,145.200004431152,2|0,0:2|0:2,0:0:0:0:
249,378,72727,1,8,0:2:0:0:
191,294,72891,2,0,L|207:212,1,72.6000022155762,2|10,0:2|0:2,0:0:0:0:
221,121,73221,2,0,L|171:117,3,36.3000011077881,10|8|8|8,0:2|0:2|0:2|0:2,0:0:0:0:
145,85,73551,2,0,L|108:87,3,36.3000011077881,10|8|10|8,0:3|0:3|0:3|0:3,0:0:0:0:
59,97,73880,1,6,0:3:0:0:
10,186,74045,1,6,0:3:0:0:
64,272,74210,6,0,B|140:267|113:214|208:222,1,145.200004431152,6|0,0:2|0:2,0:0:0:0:
286,269,74705,2,0,L|275:352,1,72.6000022155762,10|0,0:2|0:2,0:0:0:0:
372,375,75034,1,10,0:2:0:0:
450,309,75199,2,0,B|474:237|474:237|447:164,1,145.200004431152,2|0,0:2|0:2,0:0:0:0:
382,95,75694,1,8,0:2:0:0:
303,158,75858,1,2,0:2:0:0:
303,158,75941,1,0,0:2:0:0:
303,158,76023,1,10,0:2:0:0:
214,88,76188,6,0,P|176:49|87:72,1,145.200004431152,2|0,0:2|0:2,0:0:0:0:
33,147,76683,2,0,L|48:230,1,72.6000022155762,10|0,0:2|0:2,0:0:0:0:
69,317,77012,1,10,0:2:0:0:
160,362,77177,2,0,P|192:319|160:230,1,145.200004431152,2|0,0:2|0:2,0:0:0:0:
141,137,77672,1,8,0:2:0:0:
226,83,77836,1,2,0:2:0:0:
226,83,77919,1,0,0:2:0:0:
226,83,78001,1,10,0:2:0:0:
316,36,78166,6,0,P|340:94|305:179,1,145.200004431152,2|0,0:2|0:2,0:0:0:0:
288,267,78661,1,8,0:2:0:0:
379,311,78825,2,0,L|464:303,1,72.6000022155762,2|8,0:2|0:2,0:0:0:0:
305,370,79155,2,0,L|220:362,1,72.6000022155762,2|8,0:2|0:2,0:0:0:0:
130,366,79485,2,0,P|121:321|138:280,1,72.6000022155762,2|8,0:2|0:2,0:0:0:0:
221,255,79814,2,0,P|230:210|213:169,1,72.6000022155762,2|8,0:2|0:2,0:0:0:0:
153,110,80144,6,0,B|102:123|102:123|73:109|73:109|2:122,1,145.200004431152,2|0,0:2|0:2,0:0:0:0:
6,221,80639,1,8,0:2:0:0:
89,277,80803,2,0,L|134:268,3,36.3000011077881,0|0|8|0,0:2|0:2|0:2|0:2,0:0:0:0:
174,260,81133,1,2,0:2:0:0:
238,181,81298,1,8,0:2:0:0:
320,240,81463,2,0,P|340:292|331:323,1,72.6000022155762,0|8,0:2|0:2,0:0:0:0:
419,367,81792,1,8,0:2:0:0:
419,367,81957,1,8,0:2:0:0:
485,290,82122,6,0,L|478:206,1,72.6000022155762,14|0,0:2|0:2,0:0:0:0:
412,139,82452,2,0,L|419:55,1,72.6000022155762,8|0,0:2|0:2,0:0:0:0:
331,12,82781,1,8,0:2:0:0:
331,12,82946,1,0,0:2:0:0:
235,47,83111,6,0,P|206:100|211:135,1,72.6000022155762,10|0,0:2|0:2,0:0:0:0:
103,113,83441,2,0,P|119:170|148:192,1,72.6000022155762,8|0,0:2|0:2,0:0:0:0:
218,223,83770,1,10,0:2:0:0:
218,223,83935,1,0,0:2:0:0:
187,319,84100,6,0,L|106:306,1,72.6000022155762,14|0,0:2|0:2,0:0:0:0:
262,380,84430,2,0,L|333:368,1,72.6000022155762,8|0,0:2|0:2,0:0:0:0:
397,289,84759,1,8,0:2:0:0:
333,209,84924,1,0,0:2:0:0:
349,108,85089,6,0,P|391:72|486:95,1,145.200004431152,10|8,0:2|0:2,0:0:0:0:
510,180,85584,1,0,0:2:0:0:
483,282,85748,2,0,L|400:273,1,72.6000022155762,8|0,0:2|0:2,0:0:0:0:
321,224,86078,6,0,L|228:242,1,72.6000022155762,14|0,0:2|0:2,0:0:0:0:
161,289,86408,2,0,P|146:243|156:200,1,72.6000022155762,8|0,0:2|0:2,0:0:0:0:
217,144,86738,1,8,0:2:0:0:
188,46,86902,1,0,0:2:0:0:
89,19,87067,6,0,L|6:27,1,72.6000022155762,10|0,0:2|0:2,0:0:0:0:
8,127,87397,2,0,P|46:135|91:116,1,72.6000022155762,8|0,0:2|0:2,0:0:0:0:
163,70,87727,1,10,0:2:0:0:
236,139,87891,1,0,0:2:0:0:
309,68,88056,6,0,P|346:105|328:200,1,145.200004431152,14|8,0:2|0:2,0:0:0:0:
259,259,88551,1,0,0:2:0:0:
332,328,88716,2,0,L|429:317,1,72.6000022155762,8|0,0:2|0:2,0:0:0:0:
499,354,89045,6,0,P|506:310|493:278,1,72.6000022155762,0|8,0:2|0:2,0:0:0:0:
423,213,89375,1,8,0:2:0:0:
423,213,89540,1,8,0:2:0:0:
474,125,89705,1,8,0:2:0:0:
474,125,89869,1,8,0:2:0:0:
10,18,92012,6,0,L|20:164,1,132,6|0,0:2|0:2,0:0:0:0:
27,241,92506,1,8,0:2:0:0:
92,305,92671,2,0,P|145:318|204:289,1,99,2|2,0:2|0:2,0:2:0:0:
208,263,93001,2,0,L|199:190,1,66,0|10,0:2|0:2,0:0:0:0:
251,120,93330,5,2,0:2:0:0:
321,60,93495,1,8,0:2:0:0:
321,60,93660,2,0,P|360:52|391:62,1,66,0|8,0:2|0:2,0:0:0:0:
436,135,93990,1,2,0:2:0:0:
366,195,94155,1,8,0:2:0:0:
366,195,94320,2,0,P|327:203|296:193,1,66,0|8,0:2|0:2,0:0:0:0:
251,120,94649,6,0,B|195:115|195:115|174:125|174:125|110:124,1,132,2|0,0:2|0:2,0:0:0:0:
48,181,95144,1,8,0:2:0:0:
70,270,95308,2,0,L|180:258,1,99,2|2,0:2|0:2,0:2:0:0:
214,257,95638,2,0,B|224:291|224:291|212:327,1,66,0|10,0:2|0:2,0:0:0:0:
292,370,95968,5,2,0:2:0:0:
374,329,96132,2,0,P|388:292|378:260,1,66,10|2,0:2|0:2,0:2:0:0:
456,210,96462,2,0,P|422:181|388:178,1,66,10|2,0:2|0:2,0:2:0:0:
312,202,96792,2,0,B|283:142|283:142|321:75,1,132,10|0,0:2|0:0,0:2:0:0:
401,52,97286,6,0,P|346:2|272:19,1,132,6|0,0:2|0:2,0:0:0:0:
222,67,97781,1,8,0:2:0:0:
132,41,97946,2,0,L|21:30,1,99,2|2,0:2|0:2,0:2:0:0:
0,63,98275,2,0,P|-8:100|6:135,1,66,0|10,0:2|0:2,0:0:0:0:
83,167,98605,5,2,0:2:0:0:
48,252,98770,1,8,0:2:0:0:
48,252,98935,2,0,L|-22:245,1,66,0|8,0:2|0:2,0:0:0:0:
113,331,99264,1,2,0:2:0:0:
148,246,99429,1,8,0:2:0:0:
148,246,99594,2,0,L|218:253,1,66,0|8,0:2|0:2,0:0:0:0:
268,327,99924,6,0,B|341:323|317:276|394:280,1,132,2|0,0:2|0:2,0:0:0:0:
476,302,100418,1,8,0:2:0:0:
509,215,100583,2,0,P|516:171|478:103,1,99,2|2,0:2|0:2,0:2:0:0:
455,98,100913,2,0,L|386:112,1,66,0|10,0:2|0:2,0:0:0:0:
317,168,101242,2,0,L|272:162,3,33,2|2|10|2,0:2|0:2|0:2|0:2,0:0:0:0:
242,142,101572,2,0,L|209:146,3,33,2|2|10|2,0:2|0:2|0:2|0:2,0:0:0:0:
168,169,101902,2,0,P|120:185|66:166,1,99,2|2,0:2|0:2,0:0:0:0:
51,132,102231,2,0,L|59:81,3,33,2|2|10|2,0:2|0:2|0:2|0:2,0:0:0:0:
63,53,102561,5,2,0:2:0:0:
243,13,102890,2,0,L|236:67,3,33,8|8|8|8,0:2|0:2|0:2|0:2,0:0:0:0:
232,91,103220,2,0,L|239:145,3,33,8|8|4|4,0:3|0:3|0:3|0:3,0:0:0:0:
248,168,103550,1,6,1:2:0:0:
337,329,103879,2,0,L|391:336,3,33,8|8|8|8,0:2|0:2|0:2|0:2,0:0:0:0:
415,340,104209,2,0,L|469:333,3,33,8|0|4|4,0:3|0:3|0:3|0:3,0:0:0:0:
498,109,104868,1,6,1:2:0:0:
256,192,105033,12,0,108824,2:2:0:0:
