osu file format v14

[General]
AudioFilename: audio.mp3
AudioLeadIn: 0
PreviewTime: 172284
Countdown: 0
SampleSet: Normal
StackLeniency: 0.7
Mode: 1
LetterboxInBreaks: 0
WidescreenStoryboard: 0

[Editor]
Bookmarks: 8192,16103,26653,28795,44455,48411,56323,60279,66213,74125,82037,85993,95883,104125,115663,123576,133466,141378,149290,153246,161158,167092,171048,173026,180938,188850,196762,204674,212587,214565,219839,225114,227421,231377
DistanceSpacing: 0.5
BeatDivisor: 4
GridSize: 16
TimelineZoom: 1.6

[Metadata]
Title:DROPOUT!?
TitleUnicode:DROPOUT!?
Artist:Saint Snow
ArtistUnicode:Saint Snow
Creator:Slyme
Version:LOVED BY THE DARKNESS!?
Source:ラブライブ!サンシャイン!!
Tags:Journey to the Sunshine season 2 2期 episode 8 TV TVアニメ アニメ lovelive! live! sunshine!! school idol project 鹿角聖良 Sarah Kazuno 田野アサミ Tano Asami 鹿角理亞 Leah Kazuno 佐藤日向 Satou Sato Satō Hinata Awaken the power 畑 亜貴 Aki Hata 馬渕直純 Naozumi Mabuchi japanese anime rock jpop j-pop jrock j-rock female vocal full version ver deathstream Eloxrad Minslime Mari_0hara Mari 0hara Jonarwhal
BeatmapID:3679201
BeatmapSetID:1795003

[Difficulty]
HPDrainRate:6
CircleSize:2
OverallDifficulty:6.5
ApproachRate:10
SliderMultiplier:1.4
SliderTickRate:1

[Events]
//Background and Video events
0,0,"bg.jpg",0,90
//Break Periods
2,173225,180486
//Storyboard Layer 0 (Background)
//Storyboard Layer 1 (Fail)
//Storyboard Layer 2 (Pass)
//Storyboard Layer 3 (Foreground)
//Storyboard Layer 4 (Overlay)
//Storyboard Sound Samples

[TimingPoints]
279,329.67032967033,3,1,0,40,1,0
279,-166.66667,3,1,0,40,0,0
438,-166.13176,3,1,0,40,0,0
603,-165.59853,3,1,0,40,0,0
768,-165.06706,3,1,0,40,0,0
1098,-164.00916,3,1,0,40,0,0
1263,-163.48595,3,1,0,40,0,0
1922,-161.39716,3,1,0,40,0,0
2252,-160.36592,3,1,0,40,0,0
2416,-159.85121,3,1,0,40,0,0
2581,-159.33817,3,1,0,40,0,0
2746,-158.82675,3,1,0,40,0,0
2911,-158.317,3,1,0,40,0,0
3076,-157.80887,3,1,0,40,0,0
3241,-157.30544,3,1,0,40,0,0
3405,-156.80055,3,1,0,40,0,0
3570,-156.2973,3,1,0,40,0,0
3735,-155.79564,3,1,0,40,0,0
3900,-155.29561,3,1,0,40,0,0
4065,-154.79718,3,1,0,40,0,0
4230,-154.30336,3,1,0,40,0,0
4394,-153.8081,3,1,0,40,0,0
4559,-153.31445,3,1,0,40,0,0
4724,-152.82237,3,1,0,40,0,0
5054,-151.84299,3,1,0,40,0,0
5219,-151.35858,3,1,0,40,0,0
5548,-150.38853,3,1,0,40,0,0
5878,-149.42474,3,1,0,40,0,0
6208,-148.46999,3,1,0,40,0,0
6372,-147.99347,3,1,0,40,0,0
6537,-147.51848,3,1,0,40,0,0
6702,-147.045,3,1,0,40,0,0
6867,-146.57306,3,1,0,40,0,0
7032,-146.10262,3,1,0,40,0,0
7197,-145.63654,3,1,0,40,0,0
7361,-145.16911,3,1,0,40,0,0
7526,-144.70317,3,1,0,40,0,0
7691,-144.23874,3,1,0,40,0,0
7856,-143.7758,3,1,0,40,0,0
8021,-143.31435,3,1,0,40,0,0
8186,-111.111115432099,3,1,0,40,0,0
16103,329.67032967033,4,1,0,90,1,1
16103,-90.9090909090909,4,1,0,90,0,1
25328,-90.92291,4,1,0,90,0,1
25411,-92.07832,4,1,0,90,0,1
25493,-93.23423,4,1,0,90,0,1
25576,-94.419014,4,1,0,90,0,1
25658,-95.60431,4,1,0,90,0,1
25740,-96.804474,4,1,0,90,0,1
25823,-98.03462,4,1,0,90,0,1
25905,-99.265305,4,1,0,90,0,1
25988,-100.52672,4,1,0,90,0,1
26070,-101.78868,4,1,0,90,0,1
26152,-103.06649,4,1,0,90,0,1
26235,-104.37621,4,1,0,90,0,1
26317,-105.68651,4,1,0,90,0,1
26400,-107.029526,4,1,0,90,0,1
26482,-108.37312,4,1,0,90,0,1
26652,329.67032967033,3,1,0,90,1,0
26652,-111.12803,3,1,0,90,0,0
27636,-111.11619,3,1,0,90,0,0
27718,-110.1496,3,1,0,90,0,0
27800,-109.19142,3,1,0,90,0,0
27883,-108.23005,3,1,0,90,0,0
27965,-107.28858,3,1,0,90,0,0
28048,-106.343956,3,1,0,90,0,0
28130,-105.41889,3,1,0,90,0,0
28212,-104.50185,3,1,0,90,0,0
28295,-103.58177,3,1,0,90,0,0
28377,-102.68073,3,1,0,90,0,0
28460,-101.77669,3,1,0,90,0,0
28542,-100.89134,3,1,0,90,0,0
28625,-100.00305,3,1,0,80,0,0
28630,329.67032967033,3,1,0,80,1,0
43789,-100.036865,3,1,0,80,0,0
43872,-102.883965,3,1,0,80,0,0
43954,-105.77631,3,1,0,80,0,0
44119,-111.84504,3,1,0,80,0,0
44201,-114.98932,3,1,0,80,0,0
44284,-118.261955,3,1,0,80,0,0
44449,-125.04703,3,1,0,80,0,0
46427,-100.030096935266,3,1,0,80,0,0
48075,-111.148269063917,3,1,0,80,0,0
48405,-90.94503,3,1,0,80,0,0
48487,-91.85793,3,1,0,80,0,0
48570,-92.7913,3,1,0,80,0,0
48899,-96.58525,3,1,0,80,0,0
48982,-97.56665,3,1,0,80,0,0
49064,-98.54601,3,1,0,80,0,0
49229,-100.54658,3,1,0,80,0,0
49394,-102.58776,3,1,0,80,0,0
49559,-104.67038,3,1,0,80,0,0
49723,-106.782265,3,1,0,80,0,0
49806,-107.86727,3,1,0,80,0,0
49888,-108.95003,3,1,0,80,0,0
50053,-111.16181,3,1,0,80,0,0
50383,-90.95225,3,1,0,80,0,0
50548,-92.488205,3,1,0,80,0,0
50630,-93.26114,3,1,0,80,0,0
50712,-94.04054,3,1,0,80,0,0
50877,-95.62865,3,1,0,80,0,0
51042,-97.24356,3,1,0,80,0,0
51207,-98.88575,3,1,0,80,0,0
51372,-100.55567,3,1,0,80,0,0
51537,-102.2538,3,1,0,80,0,0
51701,-103.97005,3,1,0,80,0,0
51784,-104.84958,3,1,0,80,0,0
51866,-105.72583,3,1,0,80,0,0
52031,-107.51125,3,1,0,80,0,0
52114,-108.42076,3,1,0,80,0,0
52196,-109.32684,3,1,0,80,0,0
52361,-111.173096,3,1,0,80,0,0
52526,-90.9571,3,1,0,80,0,0
52690,-92.03225,3,1,0,80,0,0
52855,-93.12679,3,1,0,80,0,0
53020,-94.23434,3,1,0,80,0,0
53103,-94.79644,3,1,0,80,0,0
53185,-95.355064,3,1,0,80,0,0
53350,-96.48911,3,1,0,80,0,0
53679,-98.790764,3,1,0,80,0,0
53762,-99.38004,3,1,0,80,0,0
53844,-99.96567,3,1,0,80,0,0
54009,-101.15456,3,1,0,80,0,0
54174,-102.35758,3,1,0,80,0,0
54339,-103.574905,3,1,0,80,0,0
54421,-104.185265,3,1,0,80,0,0
54504,-104.80671,3,1,0,80,0,0
54668,-106.045586,3,1,0,80,0,0
54833,-107.30678,3,1,0,80,0,0
54998,-108.58297,3,1,0,80,0,0
55163,-109.87434,3,1,0,80,0,0
55245,-110.521805,3,1,0,80,0,0
55328,-111.18106,3,1,0,80,0,0
55657,-100.09047,3,1,0,80,0,0
55740,-102.93652,3,1,0,80,0,0
55822,-105.82774,3,1,0,80,0,0
55905,-108.836945,3,1,0,80,0,0
55987,-111.89389,3,1,0,80,0,0
56152,-118.30776,3,1,0,80,0,0
56317,-125.08927,3,1,0,80,0,0
64229,-125.04898,3,1,0,80,0,0
64311,-121.78847,3,1,0,80,0,0
64394,-118.57476,3,1,0,80,0,0
64476,-115.48307,3,1,0,80,0,0
64559,-112.43574,3,1,0,80,0,0
64641,-109.504105,3,1,0,80,0,0
64723,-106.64892,3,1,0,80,0,0
64806,-103.83472,3,1,0,80,0,0
64888,-101.12734,3,1,0,80,0,0
64971,-98.45883,3,1,0,80,0,0
65053,-95.891624,3,1,0,80,0,0
65135,-93.36128,3,1,0,80,0,0
65218,-90.926994,3,1,0,80,0,0
66212,329.67032967033,3,1,0,100,1,1
66212,-76.9230769230769,3,1,0,100,0,1
80053,-76.929306,3,1,0,100,0,1
80135,-77.447815,3,1,0,100,0,1
80217,-77.9635,3,1,0,100,0,1
80300,-78.482635,3,1,0,100,0,1
80382,-79.01161,3,1,0,100,0,1
80465,-79.537704,3,1,0,100,0,1
80547,-80.0738,3,1,0,100,0,1
80630,-80.60698,3,1,0,100,0,1
80712,-81.14371,3,1,0,100,0,1
80794,-81.69061,3,1,0,100,0,1
80877,-82.23456,3,1,0,100,0,1
80959,-82.78883,3,1,0,100,0,1
81042,-83.34493,3,1,0,100,0,1
81207,-84.14858,3,1,0,100,0,1
81371,-84.96,3,1,0,100,0,1
81454,-85.36615,3,1,0,100,0,1
81536,-85.77923,3,1,0,100,0,1
81701,-86.60133,3,1,0,100,0,1
81783,-87.020386,3,1,0,100,0,1
81866,-87.43639,3,1,0,100,0,1
81948,-87.8595,3,1,0,100,0,1
82031,-88.2795,3,1,0,100,0,1
82196,-89.130745,3,1,0,100,0,1
82360,-89.9902,3,1,0,100,0,1
82525,-90.85793,3,1,0,100,0,1
82690,-91.728714,3,1,0,100,0,1
82855,-92.613205,3,1,0,100,0,1
83020,-93.50625,3,1,0,100,0,1
83102,-93.95872,3,1,0,100,0,1
83185,-94.40788,3,1,0,100,0,1
83349,-95.31822,3,1,0,100,0,1
83432,-95.7739,3,1,0,100,0,1
83514,-96.23734,3,1,0,100,0,1
83679,-97.15966,3,1,0,100,0,1
83844,-98.09653,3,1,0,100,0,1
84009,-99.042435,3,1,0,100,0,1
84091,-99.5217,3,1,0,100,0,1
84174,-99.997475,3,1,0,100,0,1
84338,-100.96169,3,1,0,100,0,1
84421,-101.44434,3,1,0,100,0,1
84503,-101.935234,3,1,0,100,0,1
84668,-102.91217,3,1,0,100,0,1
84833,-103.90451,3,1,0,100,0,1
84998,-104.90642,3,1,0,100,0,1
85080,-105.41405,3,1,0,100,0,1
85163,-105.91798,3,1,0,100,0,1
85327,-106.939316,3,1,0,100,0,1
85410,-107.45054,3,1,0,100,0,1
85492,-107.97048,3,1,0,100,0,1
85657,-109.005264,3,1,0,100,0,1
85822,-110.05634,3,1,0,100,0,1
85992,-111.11758,3,1,0,80,0,0
93899,-111.10631,3,1,0,80,0,0
93981,-110.17462,3,1,0,80,0,0
94064,-109.261826,3,1,0,80,0,0
94146,-108.34562,3,1,0,80,0,0
94228,-107.44797,3,1,0,80,0,0
94311,-106.55778,3,1,0,80,0,0
94393,-105.66423,3,1,0,80,0,0
94476,-104.78881,3,1,0,80,0,0
94558,-103.910095,3,1,0,80,0,0
94641,-103.04921,3,1,0,80,0,0
94723,-102.19546,3,1,0,80,0,0
94888,-100.49891,3,1,0,80,0,0
94970,-99.65617,3,1,0,80,0,0
95053,-98.83052,3,1,0,80,0,0
95135,-98.00178,3,1,0,80,0,0
95217,-97.18984,3,1,0,80,0,0
95300,-96.38462,3,1,0,80,0,0
95382,-95.57639,3,1,0,80,0,0
95465,-94.78454,3,1,0,80,0,0
95547,-93.98972,3,1,0,80,0,0
95630,-93.21102,3,1,0,80,0,0
95712,-92.43878,3,1,0,80,0,0
95794,-91.663635,3,1,0,80,0,0
95882,329.67032967033,3,1,0,80,1,0
95882,-90.90421,3,1,0,80,0,0
96041,-99.9940941317084,3,1,0,80,0,0
109723,-99.99943,3,1,0,80,0,0
109805,-100.44248,3,1,0,80,0,0
109887,-100.882126,3,1,0,80,0,0
110052,-101.77262,3,1,0,80,0,0
110135,-102.22354,3,1,0,80,0,0
110217,-102.67098,3,1,0,80,0,0
110382,-103.57727,3,1,0,80,0,0
110464,-104.03064,3,1,0,80,0,0
110547,-104.491554,3,1,0,80,0,0
110712,-105.4083,3,1,0,80,0,0
110877,-106.33875,3,1,0,80,0,0
111041,-107.27742,3,1,0,80,0,0
111206,-108.224365,3,1,0,80,0,0
111371,-109.179665,3,1,0,80,0,0
111453,-109.657555,3,1,0,80,0,0
111536,-110.14341,3,1,0,80,0,0
111701,-111.114136,3,1,0,80,0,0
111866,-111.84434,3,1,0,80,0,0
112030,-112.57932,3,1,0,80,0,0
112195,-113.31914,3,1,0,80,0,0
112360,-114.06382,3,1,0,80,0,0
112442,-114.43573,3,1,0,80,0,0
112525,-114.81339,3,1,0,80,0,0
112690,-115.57249,3,1,0,80,0,0
112772,-116.33634,3,1,0,80,0,0
112855,-117.09594,3,1,0,80,0,0
113019,-118.63949,3,1,0,80,0,0
113184,-120.20338,3,1,0,80,0,0
113349,-121.78789,3,1,0,80,0,0
113514,-123.393295,3,1,0,80,0,0
113679,-124.969666,3,1,0,80,0,0
113761,-121.67378,3,1,0,80,0,0
113844,-118.502975,3,1,0,80,0,0
113926,-115.37765,3,1,0,80,0,0
114008,-112.370926,3,1,0,80,0,0
114091,-109.40732,3,1,0,80,0,0
114173,-106.556175,3,1,0,80,0,0
114256,-103.779335,3,1,0,80,0,0
114338,-101.04231,3,1,0,80,0,0
114420,-98.40918,3,1,0,80,0,0
114503,-95.813774,3,1,0,80,0,0
114585,-93.31689,3,1,0,80,0,0
114668,-90.885056,3,1,0,80,0,0
115327,-111.148269063917,3,1,0,80,0,0
115657,-90.956116,3,1,0,80,0,0
115821,-92.80285,3,1,0,80,0,0
116151,-96.5978,3,1,0,80,0,0
116316,-98.559074,3,1,0,80,0,0
116398,-99.54854,3,1,0,80,0,0
116481,-100.56019,3,1,0,80,0,0
116646,-102.60191,3,1,0,80,0,0
116810,-104.6851,3,1,0,80,0,0
116975,-106.79757,3,1,0,80,0,0
117058,-107.88289,3,1,0,80,0,0
117140,-108.96595,3,1,0,80,0,0
117305,-111.178345,3,1,0,80,0,0
117635,-90.963326,3,1,0,80,0,0
117799,-92.499664,3,1,0,80,0,0
117882,-93.27281,3,1,0,80,0,0
117964,-94.05242,3,1,0,80,0,0
118129,-95.64094,3,1,0,80,0,0
118294,-97.25628,3,1,0,80,0,0
118459,-98.8989,3,1,0,80,0,0
118624,-100.569275,3,1,0,80,0,0
118706,-101.40987,3,1,0,80,0,0
118788,-102.26787,3,1,0,80,0,0
118953,-103.98458,3,1,0,80,0,0
119036,-104.86436,3,1,0,80,0,0
119118,-105.74084,3,1,0,80,0,0
119283,-107.52677,3,1,0,80,0,0
119365,-108.425514,3,1,0,80,0,0
119448,-109.34287,3,1,0,80,0,0
119530,-110.256775,3,1,0,80,0,0
119613,-111.18964,3,1,0,80,0,0
119777,-90.97469,3,1,0,80,0,0
119942,-92.04981,3,1,0,80,0,0
120107,-93.14431,3,1,0,80,0,0
120272,-94.25181,3,1,0,80,0,0
120354,-94.80711,3,1,0,80,0,0
120437,-95.372505,3,1,0,80,0,0
120602,-96.50649,3,1,0,80,0,0
120931,-98.808044,3,1,0,80,0,0
121014,-99.39729,3,1,0,80,0,0
121096,-99.982895,3,1,0,80,0,0
121261,-101.171715,3,1,0,80,0,0
121426,-102.37469,3,1,0,80,0,0
121591,-103.59195,3,1,0,80,0,0
121673,-104.202255,3,1,0,80,0,0
121755,-104.82369,3,1,0,80,0,0
121920,-106.06246,3,1,0,80,0,0
122085,-107.32358,3,1,0,80,0,0
122250,-108.59968,3,1,0,80,0,0
122332,-109.2395,3,1,0,80,0,0
122415,-109.89096,3,1,0,80,0,0
122580,-111.19759,3,1,0,80,0,0
122909,-100.10391,3,1,0,80,0,0
122992,-102.95508,3,1,0,80,0,0
123074,-105.85164,3,1,0,80,0,0
123157,-108.82968,3,1,0,80,0,0
123239,-111.92938,3,1,0,80,0,0
123569,-125.1518,3,1,0,80,0,0
131481,-125.111465,3,1,0,80,0,0
131563,-121.847946,3,1,0,80,0,0
131646,-118.631325,3,1,0,80,0,0
131728,-115.53684,3,1,0,80,0,0
131810,-112.48681,3,1,0,80,0,0
131893,-109.55261,3,1,0,80,0,0
131975,-106.69495,3,1,0,80,0,0
132058,-103.878334,3,1,0,80,0,0
132140,-101.16868,3,1,0,80,0,0
132222,-98.497955,3,1,0,80,0,0
132305,-95.92866,3,1,0,80,0,0
132387,-93.396255,3,1,0,80,0,0
132470,-90.96002,3,1,0,80,0,0
133464,329.67032967033,3,1,0,100,1,1
133464,-76.9230769230769,3,1,0,100,0,1
147305,-76.929306,3,1,0,100,0,1
147387,-77.447815,3,1,0,100,0,1
147469,-77.9635,3,1,0,100,0,1
147552,-78.482635,3,1,0,100,0,1
147634,-79.01161,3,1,0,100,0,1
147717,-79.537704,3,1,0,100,0,1
147799,-80.0738,3,1,0,100,0,1
147882,-80.60698,3,1,0,100,0,1
147964,-81.14371,3,1,0,100,0,1
148046,-81.69061,3,1,0,100,0,1
148129,-82.23456,3,1,0,100,0,1
148211,-82.78883,3,1,0,100,0,1
148294,-83.34493,3,1,0,100,0,1
148459,-84.14858,3,1,0,100,0,1
148623,-84.96,3,1,0,100,0,1
148706,-85.36615,3,1,0,100,0,1
148788,-85.77923,3,1,0,100,0,1
148953,-86.60133,3,1,0,100,0,1
149035,-87.020386,3,1,0,100,0,1
149118,-87.43639,3,1,0,100,0,1
149200,-87.8595,3,1,0,100,0,1
149283,-88.2795,3,1,0,100,0,1
149448,-89.130745,3,1,0,100,0,1
149612,-89.9902,3,1,0,100,0,1
149777,-90.85793,3,1,0,100,0,1
149942,-91.728714,3,1,0,100,0,1
150107,-92.613205,3,1,0,100,0,1
150272,-93.50625,3,1,0,100,0,1
150354,-93.95872,3,1,0,100,0,1
150437,-94.40788,3,1,0,100,0,1
150601,-95.31822,3,1,0,100,0,1
150684,-95.7739,3,1,0,100,0,1
150766,-96.23734,3,1,0,100,0,1
150931,-97.15966,3,1,0,100,0,1
151096,-98.09653,3,1,0,100,0,1
151261,-99.042435,3,1,0,100,0,1
151343,-99.5217,3,1,0,100,0,1
151426,-99.997475,3,1,0,100,0,1
151590,-100.96169,3,1,0,100,0,1
151673,-101.44434,3,1,0,100,0,1
151755,-101.935234,3,1,0,100,0,1
151920,-102.91217,3,1,0,100,0,1
152085,-103.90451,3,1,0,100,0,1
152250,-104.90642,3,1,0,100,0,1
152332,-105.41405,3,1,0,100,0,1
152415,-105.91798,3,1,0,100,0,1
152579,-106.939316,3,1,0,100,0,1
152662,-107.45054,3,1,0,100,0,1
152744,-107.97048,3,1,0,100,0,1
152909,-109.005264,3,1,0,100,0,1
153074,-110.05634,3,1,0,100,0,1
153244,-111.111111111111,3,1,0,80,0,0
161156,-111.111111111111,3,1,0,90,0,1
161316,-90.9090909090909,3,1,0,90,0,1
169393,-90.920166,3,1,0,90,0,1
169475,-91.83252,3,1,0,90,0,1
169557,-92.76535,3,1,0,90,0,1
169722,-94.63646,3,1,0,90,0,1
169887,-96.55708,3,1,0,90,0,1
170052,-98.51666,3,1,0,90,0,1
170134,-99.51739,3,1,0,90,0,1
170217,-100.51602,3,1,0,90,0,1
170382,-102.555954,3,1,0,90,0,1
170464,-103.58509,3,1,0,90,0,1
170546,-104.63729,3,1,0,90,0,1
170711,-106.74786,3,1,0,90,0,1
170876,-108.914276,3,1,0,90,0,1
171046,-111.13878,3,1,0,40,0,0
171865,-123.40695,3,1,0,40,0,0
172030,-126.021736,3,1,0,40,0,0
172195,-128.69193,3,1,0,40,0,0
172360,-131.41869,3,1,0,40,0,0
172524,-134.20322,3,1,0,40,0,0
172689,-137.02934,3,1,0,40,0,0
172854,-139.93277,3,1,0,40,0,0
173019,-142.8977,3,1,0,40,0,0
180931,-125.02856,3,1,0,60,0,0
181096,-124.61966,3,1,0,60,0,0
181426,-123.80587,3,1,0,60,0,0
181755,-122.99983,3,1,0,60,0,0
181920,-122.59756,3,1,0,60,0,0
182250,-121.796974,3,1,0,60,0,0
182579,-121.0016,3,1,0,60,0,0
182744,-120.60828,3,1,0,60,0,0
182909,-120.21383,3,1,0,60,0,0
183074,-119.82067,3,1,0,60,0,0
183404,-119.038216,3,1,0,60,0,0
183733,-118.26321,3,1,0,60,0,0
183898,-117.876434,3,1,0,60,0,0
184228,-117.10668,3,1,0,60,0,0
184557,-116.34195,3,1,0,60,0,0
184722,-115.963745,3,1,0,60,0,0
184887,-115.584496,3,1,0,60,0,0
185052,-115.20648,3,1,0,60,0,0
185382,-114.454155,3,1,0,60,0,0
185546,-114.079834,3,1,0,60,0,0
185711,-113.709,3,1,0,60,0,0
185876,-113.33712,3,1,0,60,0,0
186206,-112.597,3,1,0,60,0,0
186535,-111.86172,3,1,0,60,0,0
186865,-111.13345,3,1,0,60,0,0
188184,-110.99242,3,1,0,60,0,0
188349,-101.27527,3,1,0,60,0,0
188513,-92.35723,3,1,0,60,0,0
188678,-84.224495,3,1,0,60,0,0
188848,-76.8079,3,1,0,100,0,1
202689,-76.81411,3,1,0,100,0,1
202772,-77.33103,3,1,0,100,0,1
202854,-77.84513,3,1,0,100,0,1
202937,-78.36266,3,1,0,100,0,1
203019,-78.89,3,1,0,100,0,1
203101,-79.41448,3,1,0,100,0,1
203184,-79.9489,3,1,0,100,0,1
203266,-80.48041,3,1,0,100,0,1
203349,-81.01545,3,1,0,100,0,1
203431,-81.560646,3,1,0,100,0,1
203513,-82.10288,3,1,0,100,0,1
203596,-82.65538,3,1,0,100,0,1
203678,-83.20489,3,1,0,100,0,1
212584,-83.3333333333333,3,1,0,80,0,0
214562,329.67032967033,4,1,0,80,1,8
214564,329.67032967033,4,1,0,90,1,1
223789,-90.92291,4,1,0,90,0,1
223872,-92.07832,4,1,0,90,0,1
223954,-93.23423,4,1,0,90,0,1
224037,-94.419014,4,1,0,90,0,1
224119,-95.60431,4,1,0,90,0,1
224201,-96.804474,4,1,0,90,0,1
224284,-98.03462,4,1,0,90,0,1
224366,-99.265305,4,1,0,90,0,1
224449,-100.52672,4,1,0,90,0,1
224531,-101.78868,4,1,0,90,0,1
224613,-103.06649,4,1,0,90,0,1
224696,-104.37621,4,1,0,90,0,1
224778,-105.68651,4,1,0,90,0,1
224861,-107.029526,4,1,0,90,0,1
224943,-108.37312,4,1,0,90,0,1
225113,329.67032967033,3,1,0,80,1,0
225113,-111.12803,3,1,0,80,0,0
226097,-111.11619,3,1,0,80,0,0
226179,-110.1496,3,1,0,80,0,0
226261,-109.19142,3,1,0,80,0,0
226344,-108.23005,3,1,0,80,0,0
226426,-107.28858,3,1,0,80,0,0
226509,-106.343956,3,1,0,80,0,0
226591,-105.41889,3,1,0,80,0,0
226673,-104.50185,3,1,0,80,0,0
226756,-103.58177,3,1,0,80,0,0
226838,-102.68073,3,1,0,80,0,0
226921,-101.77669,3,1,0,80,0,0
227003,-100.89134,3,1,0,80,0,0
227086,-83.3354513781221,3,1,0,80,0,8
227091,329.67032967033,3,1,0,80,1,8
227415,-83.3333333333333,3,1,0,80,0,0
227420,329.67032967033,3,1,0,80,1,0
231371,-83.3333333333333,3,1,0,5,0,0

[HitObjects]
256,192,279,5,0,1:0:0:0:
256,192,443,1,8,1:0:0:0:
256,192,608,1,0,1:0:0:0:
256,192,773,1,8,1:0:0:0:
256,192,1103,1,0,1:0:0:0:
256,192,1268,1,8,1:0:0:0:
256,192,1927,1,0,1:0:0:0:
256,192,2257,1,0,1:0:0:0:
256,192,2421,1,8,1:0:0:0:
256,192,2586,1,0,1:0:0:0:
256,192,2751,1,8,1:0:0:0:
256,192,2916,1,8,1:0:0:0:
256,192,3081,1,0,1:0:0:0:
256,192,3246,1,8,1:0:0:0:
256,192,3410,1,0,1:0:0:0:
256,192,3575,1,8,1:0:0:0:
256,192,3740,1,8,1:0:0:0:
256,192,3905,1,0,1:0:0:0:
256,192,4070,1,8,1:0:0:0:
256,192,4235,1,0,1:0:0:0:
256,192,4399,1,8,1:0:0:0:
256,192,4564,1,0,1:0:0:0:
256,192,4729,1,8,1:0:0:0:
256,192,5059,1,0,1:0:0:0:
256,192,5224,1,8,1:0:0:0:
256,192,5553,1,8,1:0:0:0:
256,192,5883,1,0,1:0:0:0:
256,192,6213,1,0,1:0:0:0:
256,192,6377,1,8,1:0:0:0:
256,192,6542,1,0,1:0:0:0:
256,192,6707,1,8,1:0:0:0:
256,192,6872,1,8,1:0:0:0:
256,192,7037,1,0,1:0:0:0:
256,192,7202,1,8,1:0:0:0:
256,192,7366,1,0,1:0:0:0:
256,192,7531,1,0,1:0:0:0:
256,192,7696,1,8,1:0:0:0:
256,192,7861,1,8,1:0:0:0:
256,192,8026,1,0,1:0:0:0:
256,192,8191,1,12,1:0:0:0:
256,192,8355,1,0,1:0:0:0:
256,192,8685,1,0,1:0:0:0:
256,192,9015,1,0,1:0:0:0:
256,192,9097,1,0,1:0:0:0:
256,192,9180,1,8,1:0:0:0:
256,192,9509,1,8,1:0:0:0:
256,192,9839,1,0,1:0:0:0:
256,192,10004,1,8,1:0:0:0:
256,192,10086,1,8,1:0:0:0:
256,192,10169,1,4,1:0:0:0:
256,192,10333,1,8,1:0:0:0:
256,192,10663,1,0,1:0:0:0:
256,192,10993,1,0,1:0:0:0:
256,192,11158,1,8,1:0:0:0:
256,192,11487,1,8,1:0:0:0:
256,192,11652,1,0,1:0:0:0:
256,192,11817,1,8,1:0:0:0:
256,192,12147,1,4,1:0:0:0:
256,192,12311,1,0,1:0:0:0:
256,192,12641,1,0,1:0:0:0:
256,192,12971,1,0,1:0:0:0:
256,192,13053,1,0,1:0:0:0:
256,192,13136,1,8,1:0:0:0:
256,192,13465,1,8,1:0:0:0:
256,192,13795,1,0,1:0:0:0:
256,192,13960,1,8,1:0:0:0:
256,192,14042,1,8,1:0:0:0:
256,192,14125,1,4,1:0:0:0:
256,192,14289,1,8,1:0:0:0:
256,192,14619,1,0,1:0:0:0:
256,192,14949,1,0,1:0:0:0:
256,192,15114,1,8,1:0:0:0:
256,192,15443,1,8,1:0:0:0:
256,192,16103,1,8,1:0:0:0:
256,192,16185,1,0,1:0:0:0:
256,192,16267,1,8,1:0:0:0:
256,192,16350,1,8,1:0:0:0:
256,192,16432,1,0,1:0:0:0:
256,192,16515,1,0,1:0:0:0:
256,192,16597,1,8,1:0:0:0:
256,192,16679,1,0,1:0:0:0:
256,192,16762,1,8,1:0:0:0:
256,192,16844,1,0,1:0:0:0:
256,192,16927,1,0,1:0:0:0:
256,192,17009,1,8,1:0:0:0:
256,192,17092,1,0,1:0:0:0:
256,192,17174,1,0,1:0:0:0:
256,192,17256,1,8,1:0:0:0:
256,192,17421,1,0,1:0:0:0:
256,192,17504,1,0,1:0:0:0:
256,192,17586,1,8,1:0:0:0:
256,192,17668,1,0,1:0:0:0:
256,192,17751,1,8,1:0:0:0:
256,192,17833,1,8,1:0:0:0:
256,192,17916,1,0,1:0:0:0:
256,192,17998,1,0,1:0:0:0:
256,192,18081,1,8,1:0:0:0:
256,192,18163,1,8,1:0:0:0:
256,192,18245,1,0,1:0:0:0:
256,192,18328,1,0,1:0:0:0:
256,192,18410,1,8,1:0:0:0:
256,192,18493,1,0,1:0:0:0:
256,192,18575,1,8,1:0:0:0:
256,192,18740,1,8,1:0:0:0:
256,192,18822,1,0,1:0:0:0:
256,192,18905,1,8,1:0:0:0:
256,192,18987,1,8,1:0:0:0:
256,192,19070,1,0,1:0:0:0:
256,192,19152,1,0,1:0:0:0:
256,192,19234,1,8,1:0:0:0:
256,192,19317,1,0,1:0:0:0:
256,192,19399,1,8,1:0:0:0:
256,192,19482,1,8,1:0:0:0:
256,192,19564,1,0,1:0:0:0:
256,192,19646,1,8,1:0:0:0:
256,192,19729,1,0,1:0:0:0:
256,192,19811,1,0,1:0:0:0:
256,192,19894,1,8,1:0:0:0:
256,192,20059,1,0,1:0:0:0:
256,192,20141,1,0,1:0:0:0:
256,192,20223,1,8,1:0:0:0:
256,192,20388,1,8,1:0:0:0:
256,192,20471,1,8,1:0:0:0:
256,192,20553,1,0,1:0:0:0:
256,192,20718,1,0,1:0:0:0:
256,192,20883,1,8,1:0:0:0:
256,192,20965,1,0,1:0:0:0:
256,192,21048,1,8,1:0:0:0:
256,192,21130,1,0,1:0:0:0:
256,192,21212,1,8,1:0:0:0:
256,192,21377,1,8,1:0:0:0:
256,192,21460,1,0,1:0:0:0:
256,192,21542,1,8,1:0:0:0:
256,192,21624,1,8,1:0:0:0:
256,192,21707,1,0,1:0:0:0:
256,192,21789,1,0,1:0:0:0:
256,192,21872,1,8,1:0:0:0:
256,192,21954,1,0,1:0:0:0:
256,192,22037,1,8,1:0:0:0:
256,192,22119,1,8,1:0:0:0:
256,192,22201,1,8,1:0:0:0:
256,192,22284,1,8,1:0:0:0:
256,192,22366,1,0,1:0:0:0:
256,192,22449,1,0,1:0:0:0:
256,192,22531,1,8,1:0:0:0:
256,192,22696,1,0,1:0:0:0:
256,192,22778,1,0,1:0:0:0:
256,192,22861,1,8,1:0:0:0:
256,192,22943,1,0,1:0:0:0:
256,192,23026,1,8,1:0:0:0:
256,192,23108,1,8,1:0:0:0:
256,192,23190,1,0,1:0:0:0:
256,192,23273,1,0,1:0:0:0:
256,192,23355,1,8,1:0:0:0:
256,192,23438,1,8,1:0:0:0:
256,192,23520,1,0,1:0:0:0:
256,192,23603,1,0,1:0:0:0:
256,192,23685,1,8,1:0:0:0:
256,192,23767,1,0,1:0:0:0:
256,192,23850,1,8,1:0:0:0:
256,192,24015,1,8,1:0:0:0:
256,192,24097,1,0,1:0:0:0:
256,192,24179,1,8,1:0:0:0:
256,192,24262,1,8,1:0:0:0:
256,192,24344,1,0,1:0:0:0:
256,192,24427,1,0,1:0:0:0:
256,192,24509,1,8,1:0:0:0:
256,192,24592,1,0,1:0:0:0:
256,192,24674,1,8,1:0:0:0:
256,192,24756,1,8,1:0:0:0:
256,192,24839,1,0,1:0:0:0:
256,192,24921,1,0,1:0:0:0:
256,192,25004,1,8,1:0:0:0:
256,192,25086,1,0,1:0:0:0:
256,192,25168,1,8,1:0:0:0:
256,192,25333,1,0,1:0:0:0:
256,192,25416,1,0,1:0:0:0:
256,192,25498,1,8,1:0:0:0:
256,192,25581,1,8,1:0:0:0:
256,192,25663,1,0,1:0:0:0:
256,192,25745,1,0,1:0:0:0:
256,192,25828,1,8,1:0:0:0:
256,192,25910,1,0,1:0:0:0:
256,192,25993,1,8,1:0:0:0:
256,192,26075,1,8,1:0:0:0:
256,192,26157,1,0,1:0:0:0:
256,192,26240,1,0,1:0:0:0:
256,192,26322,1,8,1:0:0:0:
256,192,26405,1,0,1:0:0:0:
256,192,26487,1,8,1:0:0:0:
256,192,26652,1,8,1:0:0:0:
256,192,26734,1,8,1:0:0:0:
256,192,26816,1,0,1:0:0:0:
256,192,26899,1,0,1:0:0:0:
256,192,26981,1,8,1:0:0:0:
256,192,27064,1,8,1:0:0:0:
256,192,27146,1,8,1:0:0:0:
256,192,27228,1,8,1:0:0:0:
256,192,27311,1,0,1:0:0:0:
256,192,27393,1,0,1:0:0:0:
256,192,27476,1,0,1:0:0:0:
256,192,27641,1,8,1:0:0:0:
256,192,27723,1,8,1:0:0:0:
256,192,27805,1,0,1:0:0:0:
256,192,27888,1,0,1:0:0:0:
256,192,27970,1,8,1:0:0:0:
256,192,28053,1,8,1:0:0:0:
256,192,28135,1,8,1:0:0:0:
256,192,28217,1,8,1:0:0:0:
256,192,28300,1,0,1:0:0:0:
256,192,28382,1,0,1:0:0:0:
256,192,28465,1,0,1:0:0:0:
256,192,28547,1,0,1:0:0:0:
256,192,28630,1,12,1:0:0:0:
256,192,28794,1,0,1:0:0:0:
256,192,28959,1,8,1:0:0:0:
256,192,29124,1,0,1:0:0:0:
256,192,29289,1,8,1:0:0:0:
256,192,29371,1,8,1:0:0:0:
256,192,29454,1,0,1:0:0:0:
256,192,29619,1,8,1:0:0:0:
256,192,29783,1,8,1:0:0:0:
256,192,29948,1,0,1:0:0:0:
256,192,30113,1,8,1:0:0:0:
256,192,30278,1,0,1:0:0:0:
256,192,30360,1,0,1:0:0:0:
256,192,30443,1,8,1:0:0:0:
256,192,30608,1,0,1:0:0:0:
256,192,30772,1,0,1:0:0:0:
256,192,30937,1,8,1:0:0:0:
256,192,31102,1,0,1:0:0:0:
256,192,31267,1,8,1:0:0:0:
256,192,31349,1,8,1:0:0:0:
256,192,31432,1,0,1:0:0:0:
256,192,31597,1,8,1:0:0:0:
256,192,31761,1,8,1:0:0:0:
256,192,31926,1,0,1:0:0:0:
256,192,32091,1,8,1:0:0:0:
256,192,32256,1,0,1:0:0:0:
256,192,32338,1,0,1:0:0:0:
256,192,32421,1,8,1:0:0:0:
256,192,32586,1,0,1:0:0:0:
256,192,32750,1,8,1:0:0:0:
256,192,32915,1,0,1:0:0:0:
256,192,33080,1,8,1:0:0:0:
256,192,33245,1,0,1:0:0:0:
256,192,33327,1,0,1:0:0:0:
256,192,33410,1,8,1:0:0:0:
256,192,33575,1,0,1:0:0:0:
256,192,33739,1,8,1:0:0:0:
256,192,33904,1,0,1:0:0:0:
256,192,34069,1,0,1:0:0:0:
256,192,34234,1,8,1:0:0:0:
256,192,34316,1,8,1:0:0:0:
256,192,34399,1,0,1:0:0:0:
256,192,34564,1,8,1:0:0:0:
256,192,34728,1,0,1:0:0:0:
256,192,34811,1,0,1:0:0:0:
256,192,34893,1,8,1:0:0:0:
256,192,35058,1,0,1:0:0:0:
256,192,35223,1,8,1:0:0:0:
256,192,35305,1,0,1:0:0:0:
256,192,35388,1,0,1:0:0:0:
256,192,35470,1,0,1:0:0:0:
256,192,35553,1,8,1:0:0:0:
256,192,35717,1,0,1:0:0:0:
256,192,35882,1,0,1:0:0:0:
256,192,36047,1,8,1:0:0:0:
256,192,36212,1,0,1:0:0:0:
256,192,36294,1,0,1:0:0:0:
256,192,36377,1,8,1:0:0:0:
256,192,36542,1,4,1:0:0:0:
256,192,36706,1,8,1:0:0:0:
256,192,36789,1,8,1:0:0:0:
256,192,36871,1,8,1:0:0:0:
256,192,37036,1,8,1:0:0:0:
256,192,37201,1,0,1:0:0:0:
256,192,37283,1,0,1:0:0:0:
256,192,37366,1,8,1:0:0:0:
256,192,37531,1,8,1:0:0:0:
256,192,37695,1,0,1:0:0:0:
256,192,37860,1,8,1:0:0:0:
256,192,38025,1,0,1:0:0:0:
256,192,38190,1,8,1:0:0:0:
256,192,38272,1,8,1:0:0:0:
256,192,38355,1,0,1:0:0:0:
256,192,38520,1,8,1:0:0:0:
256,192,38684,1,0,1:0:0:0:
256,192,38849,1,8,1:0:0:0:
256,192,39014,1,8,1:0:0:0:
256,192,39179,1,0,1:0:0:0:
256,192,39261,1,0,1:0:0:0:
256,192,39344,1,8,1:0:0:0:
256,192,39509,1,8,1:0:0:0:
256,192,39673,1,0,1:0:0:0:
256,192,39838,1,8,1:0:0:0:
256,192,40003,1,0,1:0:0:0:
256,192,40168,1,8,1:0:0:0:
256,192,40250,1,8,1:0:0:0:
256,192,40333,1,0,1:0:0:0:
256,192,40498,1,8,1:0:0:0:
256,192,40662,1,0,1:0:0:0:
256,192,40827,1,8,1:0:0:0:
256,192,40992,1,8,1:0:0:0:
256,192,41157,1,0,1:0:0:0:
256,192,41239,1,0,1:0:0:0:
256,192,41322,1,8,1:0:0:0:
256,192,41487,1,0,1:0:0:0:
256,192,41651,1,0,1:0:0:0:
256,192,41816,1,8,1:0:0:0:
256,192,41981,1,0,1:0:0:0:
256,192,42146,1,8,1:0:0:0:
256,192,42228,1,8,1:0:0:0:
256,192,42311,1,0,1:0:0:0:
256,192,42476,1,8,1:0:0:0:
256,192,42640,1,8,1:0:0:0:
256,192,42805,1,0,1:0:0:0:
256,192,42970,1,8,1:0:0:0:
256,192,43135,1,0,1:0:0:0:
256,192,43217,1,0,1:0:0:0:
256,192,43300,1,8,1:0:0:0:
256,192,43465,1,0,1:0:0:0:
256,192,43630,1,8,1:0:0:0:
256,192,43794,1,0,1:0:0:0:
256,192,43877,1,0,1:0:0:0:
256,192,43959,1,0,1:0:0:0:
256,192,44124,1,8,1:0:0:0:
256,192,44206,1,8,1:0:0:0:
256,192,44289,1,0,1:0:0:0:
256,192,44454,1,12,1:0:0:0:
256,192,44783,1,0,1:0:0:0:
256,192,45113,1,8,1:0:0:0:
256,192,45443,1,12,1:0:0:0:
256,192,45772,1,0,1:0:0:0:
256,192,46102,1,0,1:0:0:0:
256,192,46432,1,0,1:0:0:0:
256,192,46514,1,0,1:0:0:0:
256,192,46597,1,8,1:0:0:0:
256,192,46679,1,8,1:0:0:0:
256,192,46761,1,0,1:0:0:0:
256,192,46844,1,0,1:0:0:0:
256,192,46926,1,0,1:0:0:0:
256,192,47009,1,0,1:0:0:0:
256,192,47091,1,8,1:0:0:0:
256,192,47173,1,0,1:0:0:0:
256,192,47256,1,8,1:0:0:0:
256,192,47338,1,8,1:0:0:0:
256,192,47421,1,0,1:0:0:0:
256,192,48080,1,4,1:0:0:0:
256,192,48410,1,12,1:0:0:0:
256,192,48904,1,0,1:0:0:0:
256,192,48987,1,0,1:0:0:0:
256,192,49069,1,8,1:0:0:0:
256,192,49234,1,0,1:0:0:0:
256,192,49399,1,8,1:0:0:0:
256,192,49564,1,0,1:0:0:0:
256,192,49728,1,8,1:0:0:0:
256,192,49811,1,8,1:0:0:0:
256,192,49893,1,0,1:0:0:0:
256,192,50058,1,8,1:0:0:0:
256,192,50388,1,8,1:0:0:0:
256,192,50553,1,0,1:0:0:0:
256,192,50635,1,0,1:0:0:0:
256,192,50717,1,8,1:0:0:0:
256,192,50882,1,0,1:0:0:0:
256,192,51047,1,8,1:0:0:0:
256,192,51212,1,8,1:0:0:0:
256,192,51377,1,0,1:0:0:0:
256,192,51542,1,8,1:0:0:0:
256,192,51706,1,0,1:0:0:0:
256,192,51789,1,0,1:0:0:0:
256,192,51871,1,8,1:0:0:0:
256,192,52036,1,8,1:0:0:0:
256,192,52119,1,8,1:0:0:0:
256,192,52201,1,0,1:0:0:0:
256,192,52366,1,0,1:0:0:0:
256,192,52531,1,8,1:0:0:0:
256,192,52695,1,8,1:0:0:0:
256,192,52860,1,0,1:0:0:0:
256,192,53025,1,8,1:0:0:0:
256,192,53108,1,8,1:0:0:0:
256,192,53190,1,0,1:0:0:0:
256,192,53355,1,0,1:0:0:0:
256,192,53684,1,8,1:0:0:0:
256,192,53767,1,8,1:0:0:0:
256,192,53849,1,0,1:0:0:0:
256,192,54014,1,8,1:0:0:0:
256,192,54179,1,0,1:0:0:0:
256,192,54344,1,8,1:0:0:0:
256,192,54426,1,8,1:0:0:0:
256,192,54509,1,8,1:0:0:0:
256,192,54673,1,0,1:0:0:0:
256,192,54838,1,0,1:0:0:0:
256,192,55003,1,8,1:0:0:0:
256,192,55168,1,0,1:0:0:0:
256,192,55250,1,0,1:0:0:0:
256,192,55333,1,8,1:0:0:0:
256,192,55662,1,8,1:0:0:0:
256,192,55745,1,8,1:0:0:0:
256,192,55827,1,0,1:0:0:0:
256,192,55910,1,0,1:0:0:0:
256,192,55992,1,8,1:0:0:0:
256,192,56157,1,0,1:0:0:0:
256,192,56322,1,12,1:0:0:0:
256,192,56651,1,0,1:0:0:0:
256,192,56816,1,0,1:0:0:0:
256,192,56981,1,8,1:0:0:0:
256,192,57064,1,8,1:0:0:0:
256,192,57146,1,0,1:0:0:0:
256,192,57311,1,12,1:0:0:0:
256,192,57640,1,0,1:0:0:0:
256,192,57970,1,8,1:0:0:0:
256,192,58053,1,8,1:0:0:0:
256,192,58135,1,0,1:0:0:0:
256,192,58300,1,12,1:0:0:0:
256,192,58630,1,0,1:0:0:0:
256,192,58794,1,8,1:0:0:0:
256,192,58959,1,0,1:0:0:0:
256,192,59042,1,0,1:0:0:0:
256,192,59124,1,8,1:0:0:0:
256,192,59289,1,12,1:0:0:0:
256,192,59454,1,8,1:0:0:0:
256,192,59619,1,0,1:0:0:0:
256,192,59783,1,0,1:0:0:0:
256,192,59948,1,8,1:0:0:0:
256,192,60031,1,8,1:0:0:0:
256,192,60113,1,0,1:0:0:0:
256,192,60278,1,12,1:0:0:0:
256,192,60608,1,8,1:0:0:0:
256,192,60772,1,8,1:0:0:0:
256,192,60937,1,0,1:0:0:0:
256,192,61102,1,8,1:0:0:0:
256,192,61267,1,4,1:0:0:0:
256,192,61432,1,8,1:0:0:0:
256,192,61514,1,8,1:0:0:0:
256,192,61597,1,0,1:0:0:0:
256,192,61761,1,8,1:0:0:0:
256,192,61926,1,0,1:0:0:0:
256,192,62009,1,0,1:0:0:0:
256,192,62091,1,8,1:0:0:0:
256,192,62256,1,4,1:0:0:0:
256,192,62421,1,0,1:0:0:0:
256,192,62750,1,0,1:0:0:0:
256,192,62915,1,8,1:0:0:0:
256,192,62998,1,8,1:0:0:0:
256,192,63080,1,0,1:0:0:0:
256,192,63245,1,8,1:0:0:0:
256,192,63410,1,8,1:0:0:0:
256,192,63575,1,0,1:0:0:0:
256,192,63739,1,0,1:0:0:0:
256,192,63904,1,8,1:0:0:0:
256,192,64069,1,0,1:0:0:0:
256,192,64234,1,8,1:0:0:0:
256,192,64316,1,8,1:0:0:0:
256,192,64399,1,0,1:0:0:0:
256,192,64481,1,0,1:0:0:0:
256,192,64564,1,8,1:0:0:0:
256,192,64646,1,0,1:0:0:0:
256,192,64728,1,0,1:0:0:0:
256,192,64811,1,0,1:0:0:0:
256,192,64893,1,8,1:0:0:0:
256,192,64976,1,0,1:0:0:0:
256,192,65058,1,8,1:0:0:0:
256,192,65140,1,0,1:0:0:0:
256,192,65223,1,12,1:0:0:0:
256,192,65553,1,0,1:0:0:0:
256,192,65717,1,8,1:0:0:0:
256,192,65882,1,8,1:0:0:0:
256,192,66047,1,0,1:0:0:0:
256,192,66212,1,8,1:0:0:0:
256,192,66294,1,8,1:0:0:0:
256,192,66376,1,8,1:0:0:0:
256,192,66459,1,8,1:0:0:0:
256,192,66541,1,0,1:0:0:0:
256,192,66624,1,0,1:0:0:0:
256,192,66706,1,8,1:0:0:0:
256,192,66788,1,8,1:0:0:0:
256,192,66871,1,0,1:0:0:0:
256,192,66953,1,0,1:0:0:0:
256,192,67036,1,8,1:0:0:0:
256,192,67118,1,0,1:0:0:0:
256,192,67201,1,8,1:0:0:0:
256,192,67283,1,8,1:0:0:0:
256,192,67365,1,8,1:0:0:0:
256,192,67448,1,8,1:0:0:0:
256,192,67530,1,0,1:0:0:0:
256,192,67613,1,0,1:0:0:0:
256,192,67695,1,0,1:0:0:0:
256,192,67777,1,0,1:0:0:0:
256,192,67860,1,8,1:0:0:0:
256,192,67942,1,0,1:0:0:0:
256,192,68025,1,8,1:0:0:0:
256,192,68107,1,0,1:0:0:0:
256,192,68190,1,8,1:0:0:0:
256,192,68272,1,8,1:0:0:0:
256,192,68354,1,8,1:0:0:0:
256,192,68437,1,8,1:0:0:0:
256,192,68519,1,0,1:0:0:0:
256,192,68602,1,0,1:0:0:0:
256,192,68684,1,8,1:0:0:0:
256,192,68766,1,8,1:0:0:0:
256,192,68849,1,0,1:0:0:0:
256,192,68931,1,0,1:0:0:0:
256,192,69014,1,8,1:0:0:0:
256,192,69096,1,0,1:0:0:0:
256,192,69179,1,8,1:0:0:0:
256,192,69261,1,8,1:0:0:0:
256,192,69343,1,8,1:0:0:0:
256,192,69426,1,8,1:0:0:0:
256,192,69508,1,0,1:0:0:0:
256,192,69591,1,0,1:0:0:0:
256,192,69673,1,0,1:0:0:0:
256,192,69755,1,0,1:0:0:0:
256,192,69838,1,8,1:0:0:0:
256,192,69920,1,0,1:0:0:0:
256,192,70003,1,8,1:0:0:0:
256,192,70085,1,0,1:0:0:0:
256,192,70168,1,8,1:0:0:0:
256,192,70250,1,8,1:0:0:0:
256,192,70332,1,0,1:0:0:0:
256,192,70415,1,0,1:0:0:0:
256,192,70497,1,8,1:0:0:0:
256,192,70580,1,0,1:0:0:0:
256,192,70662,1,0,1:0:0:0:
256,192,70744,1,0,1:0:0:0:
256,192,70827,1,8,1:0:0:0:
256,192,70909,1,8,1:0:0:0:
256,192,70992,1,0,1:0:0:0:
256,192,71074,1,0,1:0:0:0:
256,192,71157,1,8,1:0:0:0:
256,192,71239,1,8,1:0:0:0:
256,192,71321,1,0,1:0:0:0:
256,192,71404,1,0,1:0:0:0:
256,192,71486,1,8,1:0:0:0:
256,192,71569,1,0,1:0:0:0:
256,192,71651,1,8,1:0:0:0:
256,192,71733,1,0,1:0:0:0:
256,192,71816,1,8,1:0:0:0:
256,192,71898,1,8,1:0:0:0:
256,192,71981,1,0,1:0:0:0:
256,192,72063,1,0,1:0:0:0:
256,192,72146,1,8,1:0:0:0:
256,192,72228,1,8,1:0:0:0:
256,192,72310,1,8,1:0:0:0:
256,192,72393,1,8,1:0:0:0:
256,192,72475,1,0,1:0:0:0:
256,192,72558,1,0,1:0:0:0:
256,192,72640,1,0,1:0:0:0:
256,192,72722,1,0,1:0:0:0:
256,192,72805,1,8,1:0:0:0:
256,192,72887,1,0,1:0:0:0:
256,192,72970,1,8,1:0:0:0:
256,192,73052,1,0,1:0:0:0:
256,192,73135,1,8,1:0:0:0:
256,192,73217,1,8,1:0:0:0:
256,192,73299,1,8,1:0:0:0:
256,192,73382,1,8,1:0:0:0:
256,192,73464,1,0,1:0:0:0:
256,192,73547,1,0,1:0:0:0:
256,192,73629,1,0,1:0:0:0:
256,192,73712,1,0,1:0:0:0:
256,192,73794,1,8,1:0:0:0:
256,192,73876,1,8,1:0:0:0:
256,192,73959,1,0,1:0:0:0:
256,192,74041,1,0,1:0:0:0:
256,192,74124,1,8,1:0:0:0:
256,192,74206,1,8,1:0:0:0:
256,192,74288,1,8,1:0:0:0:
256,192,74371,1,8,1:0:0:0:
256,192,74453,1,0,1:0:0:0:
256,192,74536,1,0,1:0:0:0:
256,192,74618,1,8,1:0:0:0:
256,192,74701,1,8,1:0:0:0:
256,192,74783,1,0,1:0:0:0:
256,192,74865,1,0,1:0:0:0:
256,192,74948,1,8,1:0:0:0:
256,192,75030,1,0,1:0:0:0:
256,192,75113,1,8,1:0:0:0:
256,192,75195,1,8,1:0:0:0:
256,192,75277,1,8,1:0:0:0:
256,192,75360,1,8,1:0:0:0:
256,192,75442,1,0,1:0:0:0:
256,192,75525,1,0,1:0:0:0:
256,192,75607,1,0,1:0:0:0:
256,192,75690,1,0,1:0:0:0:
256,192,75772,1,8,1:0:0:0:
256,192,75854,1,0,1:0:0:0:
256,192,75937,1,8,1:0:0:0:
256,192,76019,1,0,1:0:0:0:
256,192,76102,1,8,1:0:0:0:
256,192,76184,1,8,1:0:0:0:
256,192,76266,1,8,1:0:0:0:
256,192,76349,1,8,1:0:0:0:
256,192,76431,1,0,1:0:0:0:
256,192,76514,1,0,1:0:0:0:
256,192,76596,1,8,1:0:0:0:
256,192,76679,1,8,1:0:0:0:
256,192,76761,1,0,1:0:0:0:
256,192,76843,1,0,1:0:0:0:
256,192,76926,1,8,1:0:0:0:
256,192,77008,1,0,1:0:0:0:
256,192,77091,1,8,1:0:0:0:
256,192,77173,1,8,1:0:0:0:
256,192,77255,1,8,1:0:0:0:
256,192,77338,1,8,1:0:0:0:
256,192,77420,1,0,1:0:0:0:
256,192,77503,1,0,1:0:0:0:
256,192,77585,1,0,1:0:0:0:
256,192,77668,1,0,1:0:0:0:
256,192,77750,1,8,1:0:0:0:
256,192,77832,1,0,1:0:0:0:
256,192,77915,1,8,1:0:0:0:
256,192,77997,1,0,1:0:0:0:
256,192,78080,1,8,1:0:0:0:
256,192,78162,1,8,1:0:0:0:
256,192,78244,1,8,1:0:0:0:
256,192,78327,1,8,1:0:0:0:
256,192,78409,1,0,1:0:0:0:
256,192,78492,1,0,1:0:0:0:
256,192,78574,1,0,1:0:0:0:
256,192,78657,1,0,1:0:0:0:
256,192,78739,1,8,1:0:0:0:
256,192,78821,1,8,1:0:0:0:
256,192,78904,1,0,1:0:0:0:
256,192,78986,1,0,1:0:0:0:
256,192,79069,1,8,1:0:0:0:
256,192,79151,1,8,1:0:0:0:
256,192,79233,1,0,1:0:0:0:
256,192,79316,1,0,1:0:0:0:
256,192,79398,1,8,1:0:0:0:
256,192,79481,1,0,1:0:0:0:
256,192,79563,1,8,1:0:0:0:
256,192,79646,1,0,1:0:0:0:
256,192,79728,1,8,1:0:0:0:
256,192,79810,1,8,1:0:0:0:
256,192,79893,1,0,1:0:0:0:
256,192,79975,1,0,1:0:0:0:
256,192,80058,1,8,1:0:0:0:
256,192,80140,1,8,1:0:0:0:
256,192,80222,1,8,1:0:0:0:
256,192,80305,1,8,1:0:0:0:
256,192,80387,1,0,1:0:0:0:
256,192,80470,1,0,1:0:0:0:
256,192,80552,1,8,1:0:0:0:
256,192,80635,1,0,1:0:0:0:
256,192,80717,1,8,1:0:0:0:
256,192,80799,1,8,1:0:0:0:
256,192,80882,1,0,1:0:0:0:
256,192,80964,1,8,1:0:0:0:
256,192,81047,1,0,1:0:0:0:
256,192,81212,1,8,1:0:0:0:
256,192,81376,1,0,1:0:0:0:
256,192,81459,1,0,1:0:0:0:
256,192,81541,1,8,1:0:0:0:
256,192,81706,1,8,1:0:0:0:
256,192,81788,1,8,1:0:0:0:
256,192,81871,1,0,1:0:0:0:
256,192,81953,1,0,1:0:0:0:
256,192,82036,1,12,1:0:0:0:
256,192,82201,1,0,1:0:0:0:
256,192,82365,1,8,1:0:0:0:
256,192,82530,1,0,1:0:0:0:
256,192,82695,1,8,1:0:0:0:
256,192,82860,1,0,1:0:0:0:
256,192,83025,1,8,1:0:0:0:
256,192,83107,1,8,1:0:0:0:
256,192,83190,1,0,1:0:0:0:
256,192,83354,1,0,1:0:0:0:
256,192,83437,1,0,1:0:0:0:
256,192,83519,1,8,1:0:0:0:
256,192,83684,1,0,1:0:0:0:
256,192,83849,1,8,1:0:0:0:
256,192,84014,1,0,1:0:0:0:
256,192,84096,1,0,1:0:0:0:
256,192,84179,1,8,1:0:0:0:
256,192,84343,1,8,1:0:0:0:
256,192,84426,1,8,1:0:0:0:
256,192,84508,1,0,1:0:0:0:
256,192,84673,1,8,1:0:0:0:
256,192,84838,1,0,1:0:0:0:
256,192,85003,1,8,1:0:0:0:
256,192,85085,1,8,1:0:0:0:
256,192,85168,1,8,1:0:0:0:
256,192,85332,1,0,1:0:0:0:
256,192,85415,1,0,1:0:0:0:
256,192,85497,1,0,1:0:0:0:
256,192,85662,1,8,1:0:0:0:
256,192,85827,1,0,1:0:0:0:
256,192,85992,1,12,1:0:0:0:
256,192,86157,1,0,1:0:0:0:
256,192,86486,1,8,1:0:0:0:
256,192,86651,1,0,1:0:0:0:
256,192,86816,1,8,1:0:0:0:
256,192,86981,1,0,1:0:0:0:
256,192,87063,1,0,1:0:0:0:
256,192,87146,1,0,1:0:0:0:
256,192,87310,1,8,1:0:0:0:
256,192,87475,1,0,1:0:0:0:
256,192,87640,1,8,1:0:0:0:
256,192,87970,1,12,1:0:0:0:
256,192,88135,1,0,1:0:0:0:
256,192,88464,1,8,1:0:0:0:
256,192,88629,1,0,1:0:0:0:
256,192,88712,1,8,1:0:0:0:
256,192,88794,1,8,1:0:0:0:
256,192,88959,1,0,1:0:0:0:
256,192,89124,1,0,1:0:0:0:
256,192,89288,1,8,1:0:0:0:
256,192,89453,1,0,1:0:0:0:
256,192,89618,1,8,1:0:0:0:
256,192,89948,1,12,1:0:0:0:
256,192,90113,1,0,1:0:0:0:
256,192,90442,1,8,1:0:0:0:
256,192,90607,1,0,1:0:0:0:
256,192,90690,1,0,1:0:0:0:
256,192,90772,1,8,1:0:0:0:
256,192,90937,1,0,1:0:0:0:
256,192,91102,1,0,1:0:0:0:
256,192,91266,1,8,1:0:0:0:
256,192,91431,1,0,1:0:0:0:
256,192,91596,1,8,1:0:0:0:
256,192,91761,1,0,1:0:0:0:
256,192,91926,1,12,1:0:0:0:
256,192,92091,1,0,1:0:0:0:
256,192,92255,1,0,1:0:0:0:
256,192,92420,1,8,1:0:0:0:
256,192,92503,1,8,1:0:0:0:
256,192,92585,1,0,1:0:0:0:
256,192,92750,1,8,1:0:0:0:
256,192,92915,1,0,1:0:0:0:
256,192,92997,1,0,1:0:0:0:
256,192,93080,1,0,1:0:0:0:
256,192,93244,1,8,1:0:0:0:
256,192,93327,1,8,1:0:0:0:
256,192,93409,1,8,1:0:0:0:
256,192,93492,1,8,1:0:0:0:
256,192,93574,1,8,1:0:0:0:
256,192,93657,1,8,1:0:0:0:
256,192,93739,1,0,1:0:0:0:
256,192,93904,1,0,1:0:0:0:
256,192,93986,1,0,1:0:0:0:
256,192,94069,1,8,1:0:0:0:
256,192,94151,1,0,1:0:0:0:
256,192,94233,1,8,1:0:0:0:
256,192,94316,1,8,1:0:0:0:
256,192,94398,1,0,1:0:0:0:
256,192,94481,1,8,1:0:0:0:
256,192,94563,1,8,1:0:0:0:
256,192,94646,1,8,1:0:0:0:
256,192,94728,1,0,1:0:0:0:
256,192,94893,1,0,1:0:0:0:
256,192,94975,1,0,1:0:0:0:
256,192,95058,1,8,1:0:0:0:
256,192,95140,1,8,1:0:0:0:
256,192,95222,1,8,1:0:0:0:
256,192,95305,1,0,1:0:0:0:
256,192,95387,1,8,1:0:0:0:
256,192,95470,1,8,1:0:0:0:
256,192,95552,1,0,1:0:0:0:
256,192,95635,1,0,1:0:0:0:
256,192,95717,1,8,1:0:0:0:
256,192,95799,1,8,1:0:0:0:
256,192,95882,1,4,1:0:0:0:
256,192,96211,1,8,1:0:0:0:
256,192,96376,1,8,1:0:0:0:
256,192,96458,1,8,1:0:0:0:
256,192,96541,1,0,1:0:0:0:
256,192,96706,1,0,1:0:0:0:
256,192,96871,1,8,1:0:0:0:
256,192,97200,1,8,1:0:0:0:
256,192,97365,1,0,1:0:0:0:
256,192,97447,1,0,1:0:0:0:
256,192,97530,1,8,1:0:0:0:
256,192,97695,1,8,1:0:0:0:
256,192,97860,1,0,1:0:0:0:
256,192,98189,1,8,1:0:0:0:
256,192,98354,1,0,1:0:0:0:
256,192,98436,1,0,1:0:0:0:
256,192,98519,1,8,1:0:0:0:
256,192,98684,1,8,1:0:0:0:
256,192,98849,1,0,1:0:0:0:
256,192,99178,1,8,1:0:0:0:
256,192,99343,1,0,1:0:0:0:
256,192,99425,1,0,1:0:0:0:
256,192,99508,1,8,1:0:0:0:
256,192,99673,1,8,1:0:0:0:
256,192,99838,1,0,1:0:0:0:
256,192,99920,1,0,1:0:0:0:
256,192,100002,1,0,1:0:0:0:
256,192,100167,1,8,1:0:0:0:
256,192,100497,1,8,1:0:0:0:
256,192,100662,1,0,1:0:0:0:
256,192,100827,1,8,1:0:0:0:
256,192,100909,1,8,1:0:0:0:
256,192,100991,1,0,1:0:0:0:
256,192,101156,1,8,1:0:0:0:
256,192,101486,1,8,1:0:0:0:
256,192,101651,1,0,1:0:0:0:
256,192,101816,1,8,1:0:0:0:
256,192,101898,1,8,1:0:0:0:
256,192,101980,1,0,1:0:0:0:
256,192,102145,1,8,1:0:0:0:
256,192,102310,1,0,1:0:0:0:
256,192,102392,1,0,1:0:0:0:
256,192,102475,1,8,1:0:0:0:
258,185,102640,1,8,1:0:0:0:
256,192,102805,1,0,1:0:0:0:
256,192,103134,1,8,1:0:0:0:
256,192,103217,1,0,1:0:0:0:
256,192,103299,1,0,1:0:0:0:
256,192,103382,1,0,1:0:0:0:
256,192,103464,1,8,1:0:0:0:
256,192,103794,1,4,1:0:0:0:
256,192,103958,1,0,1:0:0:0:
256,192,104123,1,8,1:0:0:0:
256,192,104288,1,8,1:0:0:0:
256,192,104453,1,0,1:0:0:0:
256,192,104535,1,0,1:0:0:0:
256,192,104618,1,8,1:0:0:0:
256,192,104783,1,0,1:0:0:0:
256,192,104947,1,8,1:0:0:0:
256,192,105112,1,0,1:0:0:0:
256,192,105277,1,0,1:0:0:0:
256,192,105442,1,8,1:0:0:0:
256,192,105524,1,8,1:0:0:0:
256,192,105607,1,0,1:0:0:0:
256,192,105772,1,0,1:0:0:0:
256,192,105936,1,8,1:0:0:0:
256,192,106101,1,8,1:0:0:0:
256,192,106266,1,8,1:0:0:0:
256,192,106431,1,0,1:0:0:0:
256,192,106513,1,0,1:0:0:0:
256,192,106596,1,8,1:0:0:0:
256,192,106761,1,8,1:0:0:0:
256,192,106843,1,8,1:0:0:0:
256,192,106925,1,0,1:0:0:0:
256,192,107008,1,0,1:0:0:0:
256,192,107090,1,8,1:0:0:0:
256,192,107173,1,0,1:0:0:0:
256,192,107255,1,8,1:0:0:0:
256,192,107420,1,8,1:0:0:0:
256,192,107502,1,8,1:0:0:0:
256,192,107585,1,0,1:0:0:0:
256,192,107750,1,8,1:0:0:0:
256,192,107914,1,8,1:0:0:0:
256,192,108079,1,0,1:0:0:0:
256,192,108244,1,8,1:0:0:0:
256,192,108409,1,0,1:0:0:0:
256,192,108491,1,0,1:0:0:0:
256,192,108574,1,8,1:0:0:0:
256,192,108739,1,8,1:0:0:0:
256,192,108903,1,0,1:0:0:0:
256,192,109068,1,8,1:0:0:0:
256,192,109233,1,0,1:0:0:0:
256,192,109398,1,8,1:0:0:0:
256,192,109480,1,8,1:0:0:0:
256,192,109563,1,0,1:0:0:0:
256,192,109728,1,0,1:0:0:0:
256,192,109810,1,0,1:0:0:0:
256,192,109892,1,8,1:0:0:0:
256,192,110057,1,8,1:0:0:0:
256,192,110140,1,8,1:0:0:0:
256,192,110222,1,0,1:0:0:0:
256,192,110387,1,0,1:0:0:0:
256,192,110469,1,0,1:0:0:0:
256,192,110552,1,8,1:0:0:0:
256,192,110717,1,8,1:0:0:0:
256,192,110882,1,8,1:0:0:0:
256,192,111046,1,0,1:0:0:0:
256,192,111211,1,8,1:0:0:0:
256,192,111376,1,0,1:0:0:0:
256,192,111458,1,0,1:0:0:0:
256,192,111541,1,8,1:0:0:0:
256,192,111706,1,8,1:0:0:0:
256,192,111871,1,8,1:0:0:0:
256,192,112035,1,0,1:0:0:0:
256,192,112200,1,0,1:0:0:0:
256,192,112365,1,8,1:0:0:0:
256,192,112447,1,8,1:0:0:0:
256,192,112530,1,0,1:0:0:0:
256,192,112695,1,0,1:0:0:0:
256,192,112777,1,0,1:0:0:0:
256,192,112860,1,8,1:0:0:0:
256,192,113024,1,8,1:0:0:0:
256,192,113189,1,0,1:0:0:0:
256,192,113354,1,8,1:0:0:0:
256,192,113519,1,0,1:0:0:0:
256,192,113684,1,8,1:0:0:0:
256,192,113766,1,0,1:0:0:0:
256,192,113849,1,8,1:0:0:0:
256,192,113931,1,8,1:0:0:0:
256,192,114013,1,0,1:0:0:0:
256,192,114096,1,0,1:0:0:0:
256,192,114178,1,0,1:0:0:0:
256,192,114261,1,0,1:0:0:0:
256,192,114343,1,8,1:0:0:0:
256,192,114425,1,8,1:0:0:0:
256,192,114508,1,0,1:0:0:0:
256,192,114590,1,8,1:0:0:0:
256,192,114673,1,4,1:0:0:0:
256,192,115332,1,4,1:0:0:0:
256,192,115662,1,12,1:0:0:0:
256,192,115826,1,0,1:0:0:0:
256,192,116156,1,0,1:0:0:0:
256,192,116321,1,8,1:0:0:0:
256,192,116403,1,8,1:0:0:0:
256,192,116486,1,0,1:0:0:0:
256,192,116651,1,0,1:0:0:0:
256,192,116815,1,8,1:0:0:0:
256,192,116980,1,0,1:0:0:0:
256,192,117063,1,0,1:0:0:0:
256,192,117145,1,8,1:0:0:0:
256,192,117310,1,0,1:0:0:0:
256,192,117640,1,0,1:0:0:0:
256,192,117804,1,0,1:0:0:0:
256,192,117887,1,0,1:0:0:0:
256,192,117969,1,8,1:0:0:0:
256,192,118134,1,0,1:0:0:0:
256,192,118299,1,8,1:0:0:0:
256,192,118464,1,0,1:0:0:0:
256,192,118629,1,8,1:0:0:0:
256,192,118711,1,8,1:0:0:0:
256,192,118793,1,0,1:0:0:0:
256,192,118958,1,0,1:0:0:0:
256,192,119041,1,0,1:0:0:0:
256,192,119123,1,8,1:0:0:0:
256,192,119288,1,8,1:0:0:0:
256,192,119370,1,8,1:0:0:0:
256,192,119453,1,0,1:0:0:0:
256,192,119535,1,0,1:0:0:0:
256,192,119618,1,8,1:0:0:0:
256,192,119782,1,0,1:0:0:0:
256,192,119947,1,8,1:0:0:0:
256,192,120112,1,8,1:0:0:0:
256,192,120277,1,0,1:0:0:0:
256,192,120359,1,0,1:0:0:0:
256,192,120442,1,8,1:0:0:0:
256,192,120607,1,0,1:0:0:0:
256,192,120936,1,0,1:0:0:0:
256,192,121019,1,0,1:0:0:0:
256,192,121101,1,8,1:0:0:0:
256,192,121266,1,0,1:0:0:0:
256,192,121431,1,0,1:0:0:0:
256,192,121596,1,8,1:0:0:0:
256,192,121678,1,8,1:0:0:0:
256,192,121760,1,0,1:0:0:0:
256,192,121925,1,0,1:0:0:0:
256,192,122090,1,8,1:0:0:0:
256,192,122255,1,0,1:0:0:0:
256,192,122337,1,0,1:0:0:0:
256,192,122420,1,8,1:0:0:0:
256,192,122585,1,0,1:0:0:0:
256,192,122914,1,8,1:0:0:0:
256,192,122997,1,8,1:0:0:0:
256,192,123079,1,0,1:0:0:0:
256,192,123162,1,8,1:0:0:0:
256,192,123244,1,0,1:0:0:0:
256,192,123574,1,12,1:0:0:0:
256,192,123903,1,0,1:0:0:0:
256,192,124068,1,0,1:0:0:0:
256,192,124233,1,8,1:0:0:0:
256,192,124315,1,8,1:0:0:0:
256,192,124398,1,0,1:0:0:0:
256,192,124563,1,12,1:0:0:0:
256,192,124892,1,0,1:0:0:0:
256,192,125222,1,8,1:0:0:0:
256,192,125387,1,0,1:0:0:0:
256,192,125552,1,12,1:0:0:0:
256,192,125881,1,0,1:0:0:0:
256,192,126046,1,8,1:0:0:0:
256,192,126211,1,0,1:0:0:0:
256,192,126376,1,8,1:0:0:0:
256,192,126541,1,4,1:0:0:0:
256,192,126705,1,8,1:0:0:0:
256,192,126788,1,8,1:0:0:0:
256,192,126870,1,0,1:0:0:0:
256,192,127035,1,8,1:0:0:0:
256,192,127200,1,0,1:0:0:0:
256,192,127283,1,0,1:0:0:0:
256,192,127365,1,8,1:0:0:0:
256,192,127530,1,4,1:0:0:0:
256,192,127859,1,0,1:0:0:0:
256,192,127942,1,0,1:0:0:0:
256,192,128024,1,8,1:0:0:0:
256,192,128189,1,8,1:0:0:0:
256,192,128272,1,8,1:0:0:0:
256,192,128354,1,0,1:0:0:0:
256,192,128519,1,12,1:0:0:0:
256,192,128683,1,0,1:0:0:0:
256,192,128848,1,8,1:0:0:0:
256,192,129013,1,8,1:0:0:0:
256,192,129178,1,0,1:0:0:0:
256,192,129260,1,0,1:0:0:0:
256,192,129343,1,8,1:0:0:0:
256,192,129508,1,4,1:0:0:0:
256,192,129672,1,0,1:0:0:0:
256,192,130002,1,0,1:0:0:0:
256,192,130167,1,8,1:0:0:0:
256,192,130249,1,8,1:0:0:0:
256,192,130332,1,0,1:0:0:0:
256,192,130497,1,8,1:0:0:0:
256,192,130662,1,8,1:0:0:0:
256,192,130826,1,0,1:0:0:0:
256,192,130991,1,0,1:0:0:0:
256,192,131156,1,8,1:0:0:0:
256,192,131321,1,0,1:0:0:0:
256,192,131486,1,8,1:0:0:0:
256,192,131568,1,8,1:0:0:0:
256,192,131651,1,0,1:0:0:0:
256,192,131733,1,0,1:0:0:0:
256,192,131815,1,8,1:0:0:0:
256,192,131898,1,8,1:0:0:0:
256,192,131980,1,0,1:0:0:0:
256,192,132063,1,8,1:0:0:0:
256,192,132145,1,8,1:0:0:0:
256,192,132227,1,0,1:0:0:0:
256,192,132310,1,8,1:0:0:0:
256,192,132392,1,0,1:0:0:0:
256,192,132475,1,12,1:0:0:0:
256,192,132804,1,0,1:0:0:0:
256,192,132969,1,8,1:0:0:0:
256,192,133134,1,8,1:0:0:0:
256,192,133299,1,0,1:0:0:0:
256,192,133464,1,8,1:0:0:0:
256,192,133546,1,8,1:0:0:0:
256,192,133628,1,8,1:0:0:0:
256,192,133711,1,8,1:0:0:0:
256,192,133793,1,0,1:0:0:0:
256,192,133876,1,0,1:0:0:0:
256,192,133958,1,8,1:0:0:0:
256,192,134040,1,8,1:0:0:0:
256,192,134123,1,0,1:0:0:0:
256,192,134205,1,0,1:0:0:0:
256,192,134288,1,8,1:0:0:0:
256,192,134370,1,0,1:0:0:0:
256,192,134453,1,8,1:0:0:0:
256,192,134535,1,8,1:0:0:0:
256,192,134617,1,8,1:0:0:0:
256,192,134700,1,8,1:0:0:0:
256,192,134782,1,0,1:0:0:0:
256,192,134865,1,0,1:0:0:0:
256,192,134947,1,0,1:0:0:0:
256,192,135029,1,0,1:0:0:0:
256,192,135112,1,8,1:0:0:0:
256,192,135194,1,0,1:0:0:0:
256,192,135277,1,8,1:0:0:0:
256,192,135359,1,0,1:0:0:0:
256,192,135442,1,8,1:0:0:0:
256,192,135524,1,8,1:0:0:0:
256,192,135606,1,8,1:0:0:0:
256,192,135689,1,8,1:0:0:0:
256,192,135771,1,0,1:0:0:0:
256,192,135854,1,0,1:0:0:0:
256,192,135936,1,8,1:0:0:0:
256,192,136018,1,8,1:0:0:0:
256,192,136101,1,0,1:0:0:0:
256,192,136183,1,0,1:0:0:0:
256,192,136266,1,8,1:0:0:0:
256,192,136348,1,0,1:0:0:0:
256,192,136431,1,8,1:0:0:0:
256,192,136513,1,8,1:0:0:0:
256,192,136595,1,8,1:0:0:0:
256,192,136678,1,8,1:0:0:0:
256,192,136760,1,0,1:0:0:0:
256,192,136843,1,0,1:0:0:0:
256,192,136925,1,0,1:0:0:0:
256,192,137007,1,0,1:0:0:0:
256,192,137090,1,8,1:0:0:0:
256,192,137172,1,0,1:0:0:0:
256,192,137255,1,8,1:0:0:0:
256,192,137337,1,0,1:0:0:0:
256,192,137420,1,8,1:0:0:0:
256,192,137502,1,8,1:0:0:0:
256,192,137584,1,0,1:0:0:0:
256,192,137667,1,0,1:0:0:0:
256,192,137749,1,8,1:0:0:0:
256,192,137832,1,8,1:0:0:0:
256,192,137914,1,0,1:0:0:0:
256,192,137996,1,0,1:0:0:0:
256,192,138079,1,8,1:0:0:0:
256,192,138161,1,0,1:0:0:0:
256,192,138244,1,8,1:0:0:0:
256,192,138326,1,0,1:0:0:0:
256,192,138409,1,8,1:0:0:0:
256,192,138491,1,8,1:0:0:0:
256,192,138573,1,0,1:0:0:0:
256,192,138656,1,0,1:0:0:0:
256,192,138738,1,8,1:0:0:0:
256,192,138821,1,0,1:0:0:0:
256,192,138903,1,8,1:0:0:0:
256,192,138985,1,0,1:0:0:0:
256,192,139068,1,8,1:0:0:0:
256,192,139150,1,8,1:0:0:0:
256,192,139233,1,0,1:0:0:0:
256,192,139315,1,0,1:0:0:0:
256,192,139398,1,8,1:0:0:0:
256,192,139480,1,8,1:0:0:0:
256,192,139562,1,0,1:0:0:0:
256,192,139645,1,8,1:0:0:0:
256,192,139727,1,0,1:0:0:0:
256,192,139810,1,8,1:0:0:0:
256,192,139892,1,8,1:0:0:0:
256,192,139974,1,0,1:0:0:0:
256,192,140057,1,8,1:0:0:0:
256,192,140139,1,0,1:0:0:0:
256,192,140222,1,8,1:0:0:0:
256,192,140304,1,0,1:0:0:0:
256,192,140387,1,8,1:0:0:0:
256,192,140469,1,8,1:0:0:0:
256,192,140551,1,0,1:0:0:0:
256,192,140634,1,0,1:0:0:0:
256,192,140716,1,8,1:0:0:0:
256,192,140799,1,0,1:0:0:0:
256,192,140881,1,8,1:0:0:0:
256,192,140964,1,0,1:0:0:0:
256,192,141046,1,8,1:0:0:0:
256,192,141128,1,8,1:0:0:0:
256,192,141211,1,0,1:0:0:0:
256,192,141293,1,0,1:0:0:0:
256,192,141376,1,8,1:0:0:0:
256,192,141458,1,8,1:0:0:0:
256,192,141540,1,8,1:0:0:0:
256,192,141623,1,8,1:0:0:0:
256,192,141705,1,0,1:0:0:0:
256,192,141788,1,0,1:0:0:0:
256,192,141870,1,8,1:0:0:0:
256,192,141953,1,8,1:0:0:0:
256,192,142035,1,0,1:0:0:0:
256,192,142117,1,0,1:0:0:0:
256,192,142200,1,8,1:0:0:0:
256,192,142282,1,0,1:0:0:0:
256,192,142365,1,8,1:0:0:0:
256,192,142447,1,8,1:0:0:0:
256,192,142529,1,8,1:0:0:0:
256,192,142612,1,8,1:0:0:0:
256,192,142694,1,0,1:0:0:0:
256,192,142777,1,0,1:0:0:0:
256,192,142859,1,0,1:0:0:0:
256,192,142942,1,0,1:0:0:0:
256,192,143024,1,8,1:0:0:0:
256,192,143106,1,0,1:0:0:0:
256,192,143189,1,8,1:0:0:0:
256,192,143271,1,0,1:0:0:0:
256,192,143354,1,8,1:0:0:0:
256,192,143436,1,8,1:0:0:0:
256,192,143518,1,8,1:0:0:0:
256,192,143601,1,8,1:0:0:0:
256,192,143683,1,0,1:0:0:0:
256,192,143766,1,0,1:0:0:0:
256,192,143848,1,8,1:0:0:0:
256,192,143931,1,8,1:0:0:0:
256,192,144013,1,0,1:0:0:0:
256,192,144095,1,0,1:0:0:0:
256,192,144178,1,8,1:0:0:0:
256,192,144260,1,0,1:0:0:0:
256,192,144343,1,8,1:0:0:0:
256,192,144425,1,8,1:0:0:0:
256,192,144507,1,8,1:0:0:0:
256,192,144590,1,8,1:0:0:0:
256,192,144672,1,0,1:0:0:0:
256,192,144755,1,0,1:0:0:0:
256,192,144837,1,0,1:0:0:0:
256,192,144920,1,0,1:0:0:0:
256,192,145002,1,8,1:0:0:0:
256,192,145084,1,0,1:0:0:0:
256,192,145167,1,8,1:0:0:0:
256,192,145249,1,0,1:0:0:0:
256,192,145332,1,8,1:0:0:0:
256,192,145414,1,8,1:0:0:0:
256,192,145496,1,8,1:0:0:0:
256,192,145579,1,8,1:0:0:0:
256,192,145661,1,0,1:0:0:0:
256,192,145744,1,0,1:0:0:0:
256,192,145826,1,0,1:0:0:0:
256,192,145909,1,0,1:0:0:0:
256,192,145991,1,8,1:0:0:0:
256,192,146073,1,8,1:0:0:0:
256,192,146156,1,0,1:0:0:0:
256,192,146238,1,0,1:0:0:0:
256,192,146321,1,8,1:0:0:0:
256,192,146403,1,0,1:0:0:0:
256,192,146485,1,0,1:0:0:0:
256,192,146568,1,0,1:0:0:0:
256,192,146650,1,8,1:0:0:0:
256,192,146733,1,0,1:0:0:0:
256,192,146815,1,8,1:0:0:0:
256,192,146898,1,0,1:0:0:0:
256,192,146980,1,8,1:0:0:0:
256,192,147062,1,8,1:0:0:0:
256,192,147145,1,0,1:0:0:0:
256,192,147227,1,0,1:0:0:0:
256,192,147310,1,8,1:0:0:0:
256,192,147392,1,0,1:0:0:0:
256,192,147474,1,8,1:0:0:0:
256,192,147557,1,8,1:0:0:0:
256,192,147639,1,0,1:0:0:0:
256,192,147722,1,0,1:0:0:0:
256,192,147804,1,8,1:0:0:0:
256,192,147887,1,0,1:0:0:0:
256,192,147969,1,8,1:0:0:0:
256,192,148051,1,8,1:0:0:0:
256,192,148134,1,0,1:0:0:0:
256,192,148216,1,8,1:0:0:0:
256,192,148299,1,0,1:0:0:0:
256,192,148464,1,8,1:0:0:0:
256,192,148628,1,0,1:0:0:0:
256,192,148711,1,0,1:0:0:0:
256,192,148793,1,8,1:0:0:0:
256,192,148958,1,8,1:0:0:0:
256,192,149040,1,8,1:0:0:0:
256,192,149123,1,0,1:0:0:0:
256,192,149205,1,0,1:0:0:0:
256,192,149288,1,12,1:0:0:0:
256,192,149453,1,0,1:0:0:0:
256,192,149617,1,8,1:0:0:0:
256,192,149782,1,0,1:0:0:0:
256,192,149947,1,8,1:0:0:0:
256,192,150112,1,0,1:0:0:0:
256,192,150277,1,0,1:0:0:0:
256,192,150359,1,0,1:0:0:0:
256,192,150442,1,8,1:0:0:0:
256,192,150606,1,8,1:0:0:0:
256,192,150689,1,8,1:0:0:0:
256,192,150771,1,0,1:0:0:0:
256,192,150936,1,0,1:0:0:0:
256,192,151101,1,8,1:0:0:0:
256,192,151266,1,0,1:0:0:0:
256,192,151348,1,8,1:0:0:0:
256,192,151431,1,0,1:0:0:0:
256,192,151595,1,8,1:0:0:0:
256,192,151678,1,0,1:0:0:0:
256,192,151760,1,8,1:0:0:0:
256,192,151925,1,8,1:0:0:0:
256,192,152090,1,0,1:0:0:0:
256,192,152255,1,0,1:0:0:0:
256,192,152337,1,0,1:0:0:0:
256,192,152420,1,0,1:0:0:0:
256,192,152584,1,8,1:0:0:0:
256,192,152667,1,8,1:0:0:0:
256,192,152749,1,0,1:0:0:0:
256,192,152914,1,8,1:0:0:0:
256,192,153079,1,0,1:0:0:0:
256,192,153244,1,8,1:0:0:0:
256,192,153326,1,8,1:0:0:0:
256,192,153409,1,0,1:0:0:0:
256,192,153573,1,8,1:0:0:0:
256,192,153738,1,0,1:0:0:0:
256,192,153903,1,8,1:0:0:0:
256,192,154068,1,8,1:0:0:0:
256,192,154233,1,0,1:0:0:0:
256,192,154315,1,0,1:0:0:0:
256,192,154398,1,8,1:0:0:0:
256,192,154562,1,0,1:0:0:0:
256,192,154727,1,8,1:0:0:0:
256,192,154892,1,0,1:0:0:0:
256,192,155222,1,0,1:0:0:0:
256,192,155304,1,0,1:0:0:0:
256,192,155387,1,0,1:0:0:0:
256,192,155551,1,8,1:0:0:0:
256,192,155716,1,0,1:0:0:0:
256,192,155881,1,8,1:0:0:0:
256,192,156046,1,0,1:0:0:0:
256,192,156211,1,8,1:0:0:0:
256,192,156293,1,8,1:0:0:0:
256,192,156376,1,0,1:0:0:0:
256,192,156540,1,8,1:0:0:0:
256,192,156705,1,0,1:0:0:0:
256,192,156870,1,8,1:0:0:0:
256,192,157200,1,8,1:0:0:0:
256,192,157282,1,8,1:0:0:0:
256,192,157365,1,0,1:0:0:0:
256,192,157529,1,8,1:0:0:0:
256,192,157694,1,0,1:0:0:0:
256,192,157859,1,8,1:0:0:0:
256,192,158024,1,8,1:0:0:0:
256,192,158189,1,0,1:0:0:0:
256,192,158271,1,0,1:0:0:0:
256,192,158354,1,8,1:0:0:0:
256,192,158518,1,0,1:0:0:0:
256,192,158683,1,8,1:0:0:0:
256,192,158848,1,8,1:0:0:0:
256,192,159013,1,0,1:0:0:0:
256,192,159178,1,8,1:0:0:0:
256,192,159260,1,8,1:0:0:0:
256,192,159343,1,0,1:0:0:0:
256,192,159507,1,8,1:0:0:0:
256,192,159672,1,0,1:0:0:0:
256,192,159837,1,8,1:0:0:0:
256,192,160002,1,8,1:0:0:0:
256,192,160167,1,0,1:0:0:0:
256,192,160332,1,8,1:0:0:0:
256,192,160414,1,0,1:0:0:0:
256,192,160496,1,8,1:0:0:0:
256,192,160579,1,8,1:0:0:0:
256,192,160661,1,0,1:0:0:0:
256,192,160744,1,0,1:0:0:0:
256,192,160826,1,8,1:0:0:0:
256,192,160909,1,8,1:0:0:0:
256,192,160991,1,0,1:0:0:0:
256,192,161073,1,0,1:0:0:0:
256,192,161156,1,12,1:0:0:0:
256,192,161321,1,0,1:0:0:0:
256,192,161403,1,0,1:0:0:0:
256,192,161485,1,8,1:0:0:0:
256,192,161650,1,0,1:0:0:0:
256,192,161815,1,8,1:0:0:0:
256,192,161898,1,0,1:0:0:0:
256,192,161980,1,8,1:0:0:0:
256,192,162145,1,0,1:0:0:0:
256,192,162227,1,0,1:0:0:0:
256,192,162310,1,8,1:0:0:0:
256,192,162392,1,0,1:0:0:0:
256,192,162474,1,8,1:0:0:0:
256,192,162639,1,0,1:0:0:0:
256,192,162722,1,0,1:0:0:0:
256,192,162804,1,8,1:0:0:0:
256,192,162969,1,8,1:0:0:0:
256,192,163051,1,0,1:0:0:0:
256,192,163134,1,8,1:0:0:0:
256,192,163299,1,0,1:0:0:0:
256,192,163464,1,8,1:0:0:0:
256,192,163628,1,8,1:0:0:0:
256,192,163711,1,8,1:0:0:0:
256,192,163793,1,0,1:0:0:0:
256,192,163958,1,8,1:0:0:0:
256,192,164123,1,0,1:0:0:0:
256,192,164288,1,0,1:0:0:0:
256,192,164453,1,8,1:0:0:0:
256,192,164535,1,8,1:0:0:0:
256,192,164617,1,0,1:0:0:0:
256,192,164782,1,8,1:0:0:0:
256,192,164947,1,0,1:0:0:0:
256,192,165112,1,8,1:0:0:0:
256,192,165277,1,8,1:0:0:0:
256,192,165442,1,0,1:0:0:0:
256,192,165606,1,8,1:0:0:0:
256,192,165689,1,8,1:0:0:0:
256,192,165771,1,0,1:0:0:0:
256,192,165936,1,8,1:0:0:0:
256,192,166101,1,0,1:0:0:0:
256,192,166266,1,0,1:0:0:0:
256,192,166431,1,8,1:0:0:0:
256,192,166513,1,0,1:0:0:0:
256,192,166595,1,8,1:0:0:0:
256,192,166760,1,0,1:0:0:0:
256,192,166843,1,8,1:0:0:0:
256,192,166925,1,0,1:0:0:0:
256,192,167090,1,8,1:0:0:0:
256,192,167172,1,8,1:0:0:0:
256,192,167255,1,0,1:0:0:0:
262,195,167337,1,0,1:0:0:0:
262,195,167420,1,8,1:0:0:0:
262,195,167502,1,8,1:0:0:0:
262,195,167584,1,0,1:0:0:0:
256,192,167667,1,0,1:0:0:0:
256,192,167749,1,8,1:0:0:0:
256,192,167832,1,0,1:0:0:0:
256,192,167914,1,8,1:0:0:0:
256,192,167996,1,0,1:0:0:0:
256,192,168079,1,8,1:0:0:0:
256,192,168161,1,8,1:0:0:0:
256,192,168244,1,0,1:0:0:0:
262,195,168326,1,0,1:0:0:0:
262,195,168409,1,8,1:0:0:0:
262,195,168491,1,8,1:0:0:0:
262,195,168573,1,0,1:0:0:0:
256,192,168656,1,0,1:0:0:0:
256,192,168738,1,8,1:0:0:0:
250,187,168821,1,8,1:0:0:0:
250,187,168903,1,8,1:0:0:0:
250,187,168985,1,0,1:0:0:0:
250,187,169068,1,8,1:0:0:0:
250,187,169150,1,8,1:0:0:0:
250,187,169233,1,0,1:0:0:0:
246,185,169398,1,8,1:0:0:0:
249,186,169480,1,8,1:0:0:0:
246,185,169562,1,0,1:0:0:0:
246,185,169727,1,8,1:0:0:0:
250,187,169892,1,0,1:0:0:0:
250,187,170057,1,8,1:0:0:0:
250,187,170139,1,8,1:0:0:0:
250,187,170222,1,8,1:0:0:0:
246,185,170387,1,0,1:0:0:0:
249,186,170469,1,0,1:0:0:0:
246,185,170551,1,8,1:0:0:0:
246,185,170716,1,8,1:0:0:0:
250,187,170881,1,8,1:0:0:0:
250,187,171046,1,0,1:0:0:0:
251,193,171870,1,8,1:0:0:0:
250,187,172035,1,0,1:0:0:0:
250,187,172200,1,8,1:0:0:0:
251,193,172365,1,0,1:0:0:0:
251,193,172529,1,0,1:0:0:0:
251,193,172694,1,8,1:0:0:0:
251,193,172859,1,0,1:0:0:0:
250,187,173024,1,8,1:0:0:0:
250,187,180936,5,8,1:0:0:0:
250,187,181101,1,0,1:0:0:0:
250,187,181431,1,8,1:0:0:0:
250,187,181760,1,8,1:0:0:0:
250,187,181925,1,0,1:0:0:0:
250,187,182255,1,0,1:0:0:0:
250,187,182584,1,0,1:0:0:0:
250,187,182749,1,0,1:0:0:0:
250,187,182914,1,8,1:0:0:0:
250,187,183079,1,0,1:0:0:0:
250,187,183409,1,8,1:0:0:0:
250,187,183738,1,8,1:0:0:0:
250,187,183903,1,0,1:0:0:0:
250,187,184233,1,0,1:0:0:0:
250,187,184562,1,8,1:0:0:0:
250,187,184727,1,0,1:0:0:0:
250,187,184892,1,8,1:0:0:0:
250,187,185057,1,0,1:0:0:0:
250,187,185387,1,8,1:0:0:0:
250,187,185551,1,8,1:0:0:0:
250,187,185716,1,8,1:0:0:0:
250,187,185881,1,0,1:0:0:0:
250,187,186211,1,8,1:0:0:0:
250,187,186540,1,8,1:0:0:0:
250,187,186870,1,0,1:0:0:0:
250,187,187035,1,0,1:0:0:0:
250,187,187365,1,8,1:0:0:0:
250,187,187694,1,8,1:0:0:0:
250,187,187859,1,0,1:0:0:0:
256,192,188189,1,0,1:0:0:0:
256,192,188354,1,8,1:0:0:0:
256,192,188518,1,8,1:0:0:0:
256,192,188683,1,0,1:0:0:0:
256,192,188848,1,8,1:0:0:0:
256,192,188931,1,8,1:0:0:0:
256,192,189013,1,8,1:0:0:0:
256,192,189095,1,8,1:0:0:0:
256,192,189178,1,0,1:0:0:0:
256,192,189260,1,0,1:0:0:0:
256,192,189343,1,8,1:0:0:0:
256,192,189425,1,8,1:0:0:0:
256,192,189507,1,0,1:0:0:0:
256,192,189590,1,0,1:0:0:0:
256,192,189672,1,8,1:0:0:0:
256,192,189755,1,0,1:0:0:0:
256,192,189837,1,8,1:0:0:0:
256,192,189920,1,8,1:0:0:0:
256,192,190002,1,8,1:0:0:0:
256,192,190084,1,8,1:0:0:0:
256,192,190167,1,0,1:0:0:0:
256,192,190249,1,0,1:0:0:0:
256,192,190332,1,0,1:0:0:0:
256,192,190414,1,0,1:0:0:0:
256,192,190496,1,8,1:0:0:0:
256,192,190579,1,0,1:0:0:0:
256,192,190661,1,8,1:0:0:0:
256,192,190744,1,0,1:0:0:0:
256,192,190826,1,8,1:0:0:0:
256,192,190909,1,8,1:0:0:0:
256,192,190991,1,8,1:0:0:0:
256,192,191073,1,8,1:0:0:0:
256,192,191156,1,0,1:0:0:0:
256,192,191238,1,0,1:0:0:0:
256,192,191321,1,8,1:0:0:0:
256,192,191403,1,8,1:0:0:0:
256,192,191485,1,0,1:0:0:0:
256,192,191568,1,0,1:0:0:0:
256,192,191650,1,8,1:0:0:0:
256,192,191733,1,0,1:0:0:0:
256,192,191815,1,8,1:0:0:0:
256,192,191898,1,8,1:0:0:0:
256,192,191980,1,8,1:0:0:0:
256,192,192062,1,8,1:0:0:0:
256,192,192145,1,0,1:0:0:0:
256,192,192227,1,0,1:0:0:0:
256,192,192310,1,0,1:0:0:0:
256,192,192392,1,0,1:0:0:0:
256,192,192474,1,8,1:0:0:0:
256,192,192557,1,0,1:0:0:0:
256,192,192639,1,8,1:0:0:0:
256,192,192722,1,0,1:0:0:0:
256,192,192804,1,8,1:0:0:0:
256,192,192887,1,8,1:0:0:0:
256,192,192969,1,0,1:0:0:0:
256,192,193051,1,0,1:0:0:0:
256,192,193134,1,8,1:0:0:0:
256,192,193216,1,0,1:0:0:0:
256,192,193299,1,0,1:0:0:0:
256,192,193381,1,0,1:0:0:0:
256,192,193464,1,8,1:0:0:0:
256,192,193546,1,8,1:0:0:0:
256,192,193628,1,0,1:0:0:0:
256,192,193711,1,0,1:0:0:0:
256,192,193793,1,8,1:0:0:0:
256,192,193876,1,8,1:0:0:0:
256,192,193958,1,0,1:0:0:0:
256,192,194040,1,0,1:0:0:0:
256,192,194123,1,8,1:0:0:0:
256,192,194205,1,0,1:0:0:0:
256,192,194288,1,8,1:0:0:0:
256,192,194370,1,0,1:0:0:0:
256,192,194453,1,8,1:0:0:0:
256,192,194535,1,8,1:0:0:0:
256,192,194617,1,0,1:0:0:0:
256,192,194700,1,0,1:0:0:0:
256,192,194782,1,8,1:0:0:0:
256,192,194865,1,8,1:0:0:0:
256,192,194947,1,8,1:0:0:0:
256,192,195029,1,8,1:0:0:0:
256,192,195112,1,0,1:0:0:0:
256,192,195194,1,0,1:0:0:0:
256,192,195277,1,0,1:0:0:0:
256,192,195359,1,0,1:0:0:0:
256,192,195442,1,8,1:0:0:0:
256,192,195524,1,0,1:0:0:0:
256,192,195606,1,8,1:0:0:0:
256,192,195689,1,0,1:0:0:0:
256,192,195771,1,8,1:0:0:0:
256,192,195854,1,8,1:0:0:0:
256,192,195936,1,0,1:0:0:0:
256,192,196018,1,0,1:0:0:0:
256,192,196101,1,8,1:0:0:0:
256,192,196183,1,0,1:0:0:0:
256,192,196266,1,8,1:0:0:0:
256,192,196348,1,0,1:0:0:0:
256,192,196431,1,8,1:0:0:0:
256,192,196513,1,8,1:0:0:0:
256,192,196595,1,0,1:0:0:0:
256,192,196678,1,0,1:0:0:0:
256,192,196760,1,8,1:0:0:0:
256,192,196843,1,8,1:0:0:0:
256,192,196925,1,8,1:0:0:0:
256,192,197007,1,8,1:0:0:0:
256,192,197090,1,0,1:0:0:0:
256,192,197172,1,0,1:0:0:0:
256,192,197255,1,8,1:0:0:0:
256,192,197337,1,8,1:0:0:0:
256,192,197420,1,0,1:0:0:0:
256,192,197502,1,0,1:0:0:0:
256,192,197584,1,8,1:0:0:0:
256,192,197667,1,0,1:0:0:0:
256,192,197749,1,8,1:0:0:0:
256,192,197832,1,8,1:0:0:0:
256,192,197914,1,8,1:0:0:0:
256,192,197996,1,8,1:0:0:0:
256,192,198079,1,0,1:0:0:0:
256,192,198161,1,0,1:0:0:0:
256,192,198244,1,0,1:0:0:0:
256,192,198326,1,0,1:0:0:0:
256,192,198409,1,8,1:0:0:0:
256,192,198491,1,0,1:0:0:0:
256,192,198573,1,8,1:0:0:0:
256,192,198656,1,0,1:0:0:0:
256,192,198738,1,8,1:0:0:0:
256,192,198821,1,8,1:0:0:0:
256,192,198903,1,8,1:0:0:0:
256,192,198985,1,8,1:0:0:0:
256,192,199068,1,0,1:0:0:0:
256,192,199150,1,0,1:0:0:0:
256,192,199233,1,8,1:0:0:0:
256,192,199315,1,8,1:0:0:0:
256,192,199398,1,0,1:0:0:0:
256,192,199480,1,0,1:0:0:0:
256,192,199562,1,8,1:0:0:0:
256,192,199645,1,0,1:0:0:0:
256,192,199727,1,8,1:0:0:0:
256,192,199810,1,8,1:0:0:0:
256,192,199892,1,8,1:0:0:0:
256,192,199974,1,8,1:0:0:0:
256,192,200057,1,0,1:0:0:0:
256,192,200139,1,0,1:0:0:0:
256,192,200222,1,0,1:0:0:0:
256,192,200304,1,0,1:0:0:0:
256,192,200387,1,8,1:0:0:0:
256,192,200469,1,0,1:0:0:0:
256,192,200551,1,8,1:0:0:0:
256,192,200634,1,0,1:0:0:0:
256,192,200716,1,8,1:0:0:0:
256,192,200799,1,8,1:0:0:0:
256,192,200881,1,8,1:0:0:0:
256,192,200964,1,8,1:0:0:0:
256,192,201046,1,0,1:0:0:0:
256,192,201128,1,0,1:0:0:0:
256,192,201211,1,0,1:0:0:0:
256,192,201293,1,0,1:0:0:0:
256,192,201376,1,8,1:0:0:0:
256,192,201458,1,8,1:0:0:0:
256,192,201540,1,0,1:0:0:0:
256,192,201623,1,0,1:0:0:0:
256,192,201705,1,8,1:0:0:0:
256,192,201788,1,8,1:0:0:0:
256,192,201870,1,0,1:0:0:0:
256,192,201953,1,0,1:0:0:0:
256,192,202035,1,8,1:0:0:0:
256,192,202117,1,0,1:0:0:0:
256,192,202200,1,8,1:0:0:0:
256,192,202282,1,0,1:0:0:0:
256,192,202365,1,8,1:0:0:0:
256,192,202447,1,8,1:0:0:0:
256,192,202529,1,0,1:0:0:0:
256,192,202612,1,0,1:0:0:0:
256,192,202694,1,8,1:0:0:0:
256,192,202777,1,8,1:0:0:0:
256,192,202859,1,8,1:0:0:0:
256,192,202942,1,8,1:0:0:0:
256,192,203024,1,0,1:0:0:0:
256,192,203106,1,0,1:0:0:0:
256,192,203189,1,8,1:0:0:0:
256,192,203271,1,0,1:0:0:0:
256,192,203354,1,8,1:0:0:0:
256,192,203436,1,8,1:0:0:0:
256,192,203518,1,0,1:0:0:0:
256,192,203601,1,8,1:0:0:0:
256,192,203683,1,0,1:0:0:0:
256,192,203848,1,8,1:0:0:0:
256,192,204013,1,0,1:0:0:0:
256,192,204095,1,0,1:0:0:0:
256,192,204178,1,8,1:0:0:0:
256,192,204343,1,8,1:0:0:0:
256,192,204425,1,8,1:0:0:0:
256,192,204507,1,0,1:0:0:0:
256,192,204590,1,0,1:0:0:0:
256,192,204672,1,12,1:0:0:0:
256,192,204837,1,0,1:0:0:0:
256,192,205002,1,8,1:0:0:0:
256,192,205167,1,0,1:0:0:0:
256,192,205332,1,8,1:0:0:0:
256,192,205496,1,0,1:0:0:0:
256,192,205661,1,8,1:0:0:0:
256,192,205744,1,8,1:0:0:0:
256,192,205826,1,0,1:0:0:0:
256,192,205991,1,0,1:0:0:0:
256,192,206073,1,0,1:0:0:0:
256,192,206156,1,8,1:0:0:0:
256,192,206321,1,0,1:0:0:0:
256,192,206485,1,8,1:0:0:0:
256,192,206650,1,0,1:0:0:0:
256,192,206733,1,0,1:0:0:0:
256,192,206815,1,8,1:0:0:0:
256,192,206980,1,8,1:0:0:0:
256,192,207062,1,8,1:0:0:0:
256,192,207145,1,0,1:0:0:0:
256,192,207310,1,8,1:0:0:0:
256,192,207474,1,0,1:0:0:0:
256,192,207639,1,0,1:0:0:0:
256,192,207722,1,0,1:0:0:0:
256,192,207804,1,0,1:0:0:0:
256,192,207969,1,8,1:0:0:0:
256,192,208051,1,8,1:0:0:0:
256,192,208134,1,0,1:0:0:0:
256,192,208299,1,8,1:0:0:0:
256,192,208464,1,0,1:0:0:0:
256,192,208628,1,8,1:0:0:0:
256,192,208711,1,8,1:0:0:0:
256,192,208793,1,0,1:0:0:0:
256,192,208958,1,0,1:0:0:0:
256,192,209040,1,0,1:0:0:0:
256,192,209123,1,8,1:0:0:0:
256,192,209288,1,8,1:0:0:0:
256,192,209453,1,0,1:0:0:0:
256,192,209617,1,8,1:0:0:0:
256,192,209700,1,8,1:0:0:0:
256,192,209782,1,8,1:0:0:0:
256,192,209947,1,0,1:0:0:0:
256,192,210029,1,0,1:0:0:0:
256,192,210112,1,8,1:0:0:0:
256,192,210277,1,8,1:0:0:0:
256,192,210442,1,8,1:0:0:0:
256,192,210606,1,0,1:0:0:0:
256,192,210689,1,0,1:0:0:0:
256,192,210771,1,0,1:0:0:0:
256,192,210936,1,8,1:0:0:0:
256,192,211018,1,8,1:0:0:0:
256,192,211101,1,0,1:0:0:0:
256,192,211266,1,8,1:0:0:0:
256,192,211431,1,0,1:0:0:0:
256,192,211595,1,8,1:0:0:0:
256,192,211678,1,8,1:0:0:0:
256,192,211760,1,8,1:0:0:0:
256,192,211925,1,8,1:0:0:0:
256,192,212090,1,0,1:0:0:0:
256,192,212255,1,8,1:0:0:0:
256,192,212420,1,0,1:0:0:0:
256,192,212584,1,0,1:0:0:0:
256,192,214564,5,8,1:0:0:0:
256,192,214646,1,0,1:0:0:0:
256,192,214728,1,8,1:0:0:0:
256,192,214811,1,8,1:0:0:0:
256,192,214893,1,0,1:0:0:0:
256,192,214976,1,0,1:0:0:0:
256,192,215058,1,8,1:0:0:0:
256,192,215140,1,0,1:0:0:0:
256,192,215223,1,8,1:0:0:0:
256,192,215305,1,8,1:0:0:0:
256,192,215388,1,8,1:0:0:0:
256,192,215470,1,0,1:0:0:0:
256,192,215553,1,8,1:0:0:0:
256,192,215635,1,0,1:0:0:0:
256,192,215717,1,8,1:0:0:0:
256,192,215882,1,0,1:0:0:0:
256,192,215965,1,0,1:0:0:0:
256,192,216047,1,8,1:0:0:0:
256,192,216129,1,0,1:0:0:0:
256,192,216212,1,8,1:0:0:0:
256,192,216294,1,8,1:0:0:0:
256,192,216377,1,0,1:0:0:0:
256,192,216459,1,0,1:0:0:0:
256,192,216542,1,8,1:0:0:0:
256,192,216624,1,8,1:0:0:0:
256,192,216706,1,0,1:0:0:0:
256,192,216789,1,0,1:0:0:0:
256,192,216871,1,8,1:0:0:0:
256,192,216954,1,0,1:0:0:0:
256,192,217036,1,8,1:0:0:0:
256,192,217201,1,8,1:0:0:0:
256,192,217283,1,0,1:0:0:0:
256,192,217366,1,8,1:0:0:0:
256,192,217448,1,8,1:0:0:0:
256,192,217531,1,0,1:0:0:0:
256,192,217613,1,0,1:0:0:0:
256,192,217695,1,8,1:0:0:0:
256,192,217778,1,0,1:0:0:0:
256,192,217860,1,8,1:0:0:0:
256,192,217943,1,8,1:0:0:0:
256,192,218025,1,8,1:0:0:0:
256,192,218107,1,0,1:0:0:0:
256,192,218190,1,8,1:0:0:0:
256,192,218272,1,0,1:0:0:0:
256,192,218355,1,8,1:0:0:0:
256,192,218520,1,8,1:0:0:0:
256,192,218602,1,0,1:0:0:0:
256,192,218684,1,8,1:0:0:0:
256,192,218849,1,8,1:0:0:0:
256,192,218932,1,0,1:0:0:0:
256,192,219014,1,8,1:0:0:0:
256,192,219179,1,0,1:0:0:0:
256,192,219344,1,8,1:0:0:0:
256,192,219426,1,0,1:0:0:0:
256,192,219509,1,8,1:0:0:0:
256,192,219591,1,0,1:0:0:0:
256,192,219673,1,8,1:0:0:0:
256,192,219838,1,8,1:0:0:0:
256,192,219921,1,0,1:0:0:0:
256,192,220003,1,8,1:0:0:0:
256,192,220085,1,8,1:0:0:0:
256,192,220168,1,0,1:0:0:0:
256,192,220250,1,0,1:0:0:0:
256,192,220333,1,8,1:0:0:0:
256,192,220415,1,0,1:0:0:0:
256,192,220498,1,8,1:0:0:0:
256,192,220580,1,0,1:0:0:0:
256,192,220662,1,8,1:0:0:0:
256,192,220745,1,0,1:0:0:0:
256,192,220827,1,0,1:0:0:0:
256,192,220910,1,0,1:0:0:0:
256,192,220992,1,8,1:0:0:0:
256,192,221157,1,0,1:0:0:0:
256,192,221239,1,0,1:0:0:0:
256,192,221322,1,8,1:0:0:0:
256,192,221404,1,0,1:0:0:0:
256,192,221487,1,8,1:0:0:0:
256,192,221569,1,8,1:0:0:0:
256,192,221651,1,0,1:0:0:0:
256,192,221734,1,0,1:0:0:0:
256,192,221816,1,8,1:0:0:0:
256,192,221899,1,8,1:0:0:0:
256,192,221981,1,0,1:0:0:0:
256,192,222064,1,0,1:0:0:0:
256,192,222146,1,8,1:0:0:0:
256,192,222228,1,0,1:0:0:0:
256,192,222311,1,8,1:0:0:0:
256,192,222476,1,8,1:0:0:0:
256,192,222558,1,0,1:0:0:0:
256,192,222640,1,8,1:0:0:0:
256,192,222723,1,8,1:0:0:0:
256,192,222805,1,0,1:0:0:0:
256,192,222888,1,0,1:0:0:0:
256,192,222970,1,8,1:0:0:0:
256,192,223053,1,0,1:0:0:0:
256,192,223135,1,8,1:0:0:0:
256,192,223217,1,8,1:0:0:0:
256,192,223300,1,8,1:0:0:0:
256,192,223382,1,0,1:0:0:0:
256,192,223465,1,8,1:0:0:0:
256,192,223547,1,0,1:0:0:0:
256,192,223629,1,8,1:0:0:0:
256,192,223794,1,0,1:0:0:0:
256,192,223877,1,0,1:0:0:0:
256,192,223959,1,8,1:0:0:0:
256,192,224042,1,8,1:0:0:0:
256,192,224124,1,0,1:0:0:0:
256,192,224206,1,0,1:0:0:0:
256,192,224289,1,8,1:0:0:0:
256,192,224371,1,0,1:0:0:0:
256,192,224454,1,8,1:0:0:0:
256,192,224536,1,8,1:0:0:0:
256,192,224618,1,0,1:0:0:0:
256,192,224701,1,0,1:0:0:0:
256,192,224783,1,8,1:0:0:0:
256,192,224866,1,0,1:0:0:0:
256,192,224948,1,8,1:0:0:0:
256,192,225113,1,0,1:0:0:0:
256,192,225195,1,0,1:0:0:0:
256,192,225277,1,8,1:0:0:0:
256,192,225360,1,8,1:0:0:0:
256,192,225442,1,8,1:0:0:0:
256,192,225525,1,0,1:0:0:0:
256,192,225607,1,8,1:0:0:0:
256,192,225689,1,8,1:0:0:0:
256,192,225772,1,0,1:0:0:0:
256,192,225854,1,0,1:0:0:0:
256,192,225937,1,0,1:0:0:0:
256,192,226102,1,8,1:0:0:0:
256,192,226184,1,8,1:0:0:0:
256,192,226266,1,8,1:0:0:0:
256,192,226349,1,8,1:0:0:0:
256,192,226431,1,0,1:0:0:0:
256,192,226514,1,8,1:0:0:0:
256,192,226596,1,8,1:0:0:0:
256,192,226678,1,8,1:0:0:0:
256,192,226761,1,0,1:0:0:0:
256,192,226843,1,0,1:0:0:0:
256,192,226926,1,0,1:0:0:0:
256,192,227008,1,0,1:0:0:0:
256,192,227420,12,4,231376,1:0:0:0:
