osu file format v14

[General]
AudioFilename: audio.mp3
AudioLeadIn: 0
PreviewTime: 172284
Countdown: 0
SampleSet: Normal
StackLeniency: 0.7
Mode: 1
LetterboxInBreaks: 0
WidescreenStoryboard: 1

[Editor]
Bookmarks: 8192,16104,26653,28631,44455,48411,56323,60279,66213,74125,82037,85993,95883,104125,115663,123576,133466,141378,149290,153246,161158,167092,171048,173026,180938,188850,196762,204674,212587,214565,219839,225114,227421
DistanceSpacing: 1.1
BeatDivisor: 4
GridSize: 16
TimelineZoom: 2.1

[Metadata]
Title:DROPOUT!?
TitleUnicode:DROPOUT!?
Artist:Saint Snow
ArtistUnicode:Saint Snow
Creator:Slyme
Version:ELOXRAD'S MUZUKASHII!?
Source:ラブライブ!サンシャイン!!
Tags:Journey to the Sunshine season 2 2期 episode 8 TV TVアニメ アニメ lovelive! live! sunshine!! school idol project 鹿角聖良 Sarah Kazuno 田野アサミ Tano Asami 鹿角理亞 Leah Kazuno 佐藤日向 Satou Sato Satō Hinata Awaken the power 畑 亜貴 Aki Hata 馬渕直純 Naozumi Mabuchi japanese anime rock jpop j-pop jrock j-rock female vocal full version ver deathstream Eloxrad Minslime Mari_0hara Mari 0hara Jonarwhal
BeatmapID:3679843
BeatmapSetID:1795003

[Difficulty]
HPDrainRate:6
CircleSize:2
OverallDifficulty:4
ApproachRate:10
SliderMultiplier:1.4
SliderTickRate:1

[Events]
//Background and Video events
0,0,"bg.jpg",0,90
//Break Periods
2,173225,180486
//Storyboard Layer 0 (Background)
//Storyboard Layer 1 (Fail)
//Storyboard Layer 2 (Pass)
//Storyboard Layer 3 (Foreground)
//Storyboard Layer 4 (Overlay)
//Storyboard Sound Samples

[TimingPoints]
279,329.67032967033,3,1,0,40,1,0
16103,329.67032967033,4,1,0,90,1,1
26652,329.67032967033,3,1,0,90,1,0
28630,329.67032967033,3,1,0,80,1,0
66212,329.67032967033,3,1,0,100,1,1
85992,-100,3,1,0,80,0,0
95882,329.67032967033,3,1,0,80,1,0
133464,329.67032967033,3,1,0,100,1,1
153244,-100,3,1,0,80,0,0
161156,-100,3,1,0,90,0,1
171046,-100,3,1,0,40,0,0
180936,-100,3,1,0,60,0,0
188848,-100,3,1,0,100,0,1
212584,-100,3,1,0,80,0,0
214562,329.67032967033,4,1,0,80,1,8
214564,329.67032967033,4,1,0,90,1,1
225113,329.67032967033,3,1,0,80,1,0
227091,329.67032967033,3,1,0,80,1,8
227091,-83.3354513781221,3,1,0,80,0,8
227420,329.67032967033,3,1,0,80,1,0
227420,-83.3333333333333,3,1,0,80,0,0
231376,-83.3333333333333,3,1,0,5,0,0

[HitObjects]
256,192,279,5,0,1:0:0:0:
256,192,443,1,8,1:0:0:0:
256,192,608,1,0,1:0:0:0:
256,192,773,1,8,1:0:0:0:
256,192,1103,1,0,1:0:0:0:
256,192,1268,1,8,1:0:0:0:
256,192,1927,5,0,1:0:0:0:
256,192,2257,1,0,1:0:0:0:
256,192,2421,1,8,1:0:0:0:
256,192,2586,1,0,1:0:0:0:
256,192,2751,1,8,1:0:0:0:
256,192,3081,1,0,1:0:0:0:
256,192,3246,1,8,1:0:0:0:
256,192,3410,1,8,1:0:0:0:
256,192,3575,1,0,1:0:0:0:
256,192,3740,1,8,1:0:0:0:
256,192,4070,1,8,1:0:0:0:
256,192,4235,1,0,1:0:0:0:
256,192,4399,1,8,1:0:0:0:
256,192,4564,1,8,1:0:0:0:
256,192,4729,1,0,1:0:0:0:
256,192,5059,1,0,1:0:0:0:
256,192,5224,1,8,1:0:0:0:
256,192,5553,1,8,1:0:0:0:
256,192,5883,1,0,1:0:0:0:
256,192,6213,1,0,1:0:0:0:
256,192,6377,1,8,1:0:0:0:
256,192,6542,1,0,1:0:0:0:
256,192,6707,1,8,1:0:0:0:
256,192,7037,1,0,1:0:0:0:
256,192,7202,1,8,1:0:0:0:
256,192,7366,1,8,1:0:0:0:
256,192,7531,1,0,1:0:0:0:
256,192,7696,1,8,1:0:0:0:
256,192,8191,5,4,1:0:0:0:
256,192,8355,1,8,1:0:0:0:
256,192,8685,1,0,1:0:0:0:
256,192,9015,1,0,1:0:0:0:
256,192,9097,1,0,1:0:0:0:
256,192,9180,1,0,1:0:0:0:
256,192,9509,1,8,1:0:0:0:
256,192,9839,1,0,1:0:0:0:
256,192,10004,1,8,1:0:0:0:
256,192,10086,1,8,1:0:0:0:
256,192,10169,1,8,1:0:0:0:
256,192,10333,1,0,1:0:0:0:
256,192,10663,1,0,1:0:0:0:
256,192,10993,1,0,1:0:0:0:
256,192,11158,1,8,1:0:0:0:
256,192,11487,1,0,1:0:0:0:
256,192,11652,1,0,1:0:0:0:
256,192,11817,1,8,1:0:0:0:
256,192,12147,1,8,1:0:0:0:
256,192,12311,1,0,1:0:0:0:
256,192,12641,1,0,1:0:0:0:
256,192,12971,1,0,1:0:0:0:
256,192,13053,1,0,1:0:0:0:
256,192,13136,1,0,1:0:0:0:
256,192,13465,1,8,1:0:0:0:
256,192,13630,1,0,1:0:0:0:
256,192,13795,1,8,1:0:0:0:
256,192,13960,1,8,1:0:0:0:
256,192,14042,1,8,1:0:0:0:
256,192,14125,1,8,1:0:0:0:
256,192,14289,1,0,1:0:0:0:
256,192,14619,1,0,1:0:0:0:
256,192,14949,1,0,1:0:0:0:
256,192,15114,1,8,1:0:0:0:
256,192,16103,5,8,1:0:0:0:
256,192,16267,1,0,1:0:0:0:
256,192,16350,1,0,1:0:0:0:
256,192,16432,1,0,1:0:0:0:
256,192,16597,1,8,1:0:0:0:
256,192,16762,1,8,1:0:0:0:
256,192,17009,1,0,1:0:0:0:
256,192,17256,1,8,1:0:0:0:
256,192,17421,1,0,1:0:0:0:
256,192,17586,1,0,1:0:0:0:
256,192,17668,1,0,1:0:0:0:
256,192,17751,1,0,1:0:0:0:
256,192,17916,1,0,1:0:0:0:
256,192,18081,1,8,1:0:0:0:
256,192,18245,1,8,1:0:0:0:
256,192,18410,1,0,1:0:0:0:
256,192,18740,1,8,1:0:0:0:
256,192,18905,1,0,1:0:0:0:
256,192,18987,1,0,1:0:0:0:
256,192,19070,1,0,1:0:0:0:
256,192,19234,1,8,1:0:0:0:
256,192,19399,1,8,1:0:0:0:
256,192,19646,1,0,1:0:0:0:
256,192,19894,1,8,1:0:0:0:
256,192,20059,1,0,1:0:0:0:
256,192,20223,1,8,1:0:0:0:
256,192,20388,1,0,1:0:0:0:
256,192,20553,1,8,1:0:0:0:
256,192,20718,1,0,1:0:0:0:
256,192,20883,1,8,1:0:0:0:
256,192,21377,5,8,1:0:0:0:
256,192,21542,1,0,1:0:0:0:
256,192,21624,1,0,1:0:0:0:
256,192,21707,1,0,1:0:0:0:
256,192,21872,1,8,1:0:0:0:
256,192,22037,1,8,1:0:0:0:
256,192,22284,1,0,1:0:0:0:
256,192,22531,1,8,1:0:0:0:
256,192,22696,1,0,1:0:0:0:
256,192,22861,1,0,1:0:0:0:
256,192,22943,1,0,1:0:0:0:
256,192,23026,1,0,1:0:0:0:
256,192,23190,1,0,1:0:0:0:
256,192,23355,1,8,1:0:0:0:
256,192,23520,1,8,1:0:0:0:
256,192,23685,1,0,1:0:0:0:
256,192,24015,1,8,1:0:0:0:
256,192,24179,1,0,1:0:0:0:
256,192,24262,1,0,1:0:0:0:
256,192,24344,1,0,1:0:0:0:
256,192,24509,1,8,1:0:0:0:
256,192,24674,1,8,1:0:0:0:
256,192,24921,1,0,1:0:0:0:
256,192,25168,1,8,1:0:0:0:
256,192,25333,1,0,1:0:0:0:
256,192,25498,1,8,1:0:0:0:
256,192,25581,1,8,1:0:0:0:
256,192,25663,1,8,1:0:0:0:
256,192,25828,1,8,1:0:0:0:
256,192,25993,1,0,1:0:0:0:
256,192,26075,1,0,1:0:0:0:
256,192,26157,1,0,1:0:0:0:
256,192,26322,1,0,1:0:0:0:
256,192,26652,1,4,1:0:0:0:
256,192,26981,5,8,1:0:0:0:
256,192,27311,1,0,1:0:0:0:
256,192,27393,1,0,0:0:0:0:
256,192,27476,1,0,0:0:0:0:
256,192,27641,1,12,1:0:0:0:
256,192,27970,1,0,1:0:0:0:
256,192,28300,1,8,1:0:0:0:
256,192,28382,1,8,0:0:0:0:
256,192,28465,1,8,1:0:0:0:
256,192,28630,1,4,1:0:0:0:
256,192,28959,1,8,1:0:0:0:
256,192,29124,1,0,1:0:0:0:
256,192,29289,1,8,1:0:0:0:
256,192,29371,1,8,0:0:0:0:
256,192,29454,1,8,1:0:0:0:
256,192,29619,1,0,1:0:0:0:
256,192,29948,1,8,1:0:0:0:
256,192,30113,1,8,1:0:0:0:
256,192,30278,1,0,1:0:0:0:
256,192,30360,1,0,0:0:0:0:
256,192,30443,1,0,0:0:0:0:
256,192,30608,1,8,1:0:0:0:
256,192,30937,1,0,1:0:0:0:
256,192,31432,5,8,1:0:0:0:
256,192,31597,1,0,1:0:0:0:
256,192,31761,1,8,0:0:0:0:
256,192,31926,1,0,0:0:0:0:
256,192,32091,1,8,0:0:0:0:
256,192,32256,1,0,1:0:0:0:
256,192,32338,1,0,1:0:0:0:
256,192,32421,1,0,1:0:0:0:
256,192,32586,1,8,1:0:0:0:
256,192,32915,1,8,1:0:0:0:
256,192,33080,1,0,1:0:0:0:
256,192,33245,1,8,1:0:0:0:
256,192,33327,1,8,0:0:0:0:
256,192,33410,1,8,1:0:0:0:
256,192,33575,1,0,1:0:0:0:
256,192,33904,1,8,1:0:0:0:
256,192,34069,1,8,1:0:0:0:
256,192,34234,1,0,1:0:0:0:
256,192,34564,1,8,1:0:0:0:
256,192,35223,5,0,1:0:0:0:
256,192,35305,1,0,0:0:0:0:
256,192,35388,1,0,0:0:0:0:
256,192,35553,1,8,1:0:0:0:
256,192,35717,1,8,1:0:0:0:
256,192,35882,1,0,1:0:0:0:
256,192,36047,1,0,1:0:0:0:
256,192,36212,1,8,1:0:0:0:
256,192,36294,1,8,1:0:0:0:
256,192,36377,1,8,1:0:0:0:
256,192,36542,5,4,1:0:0:0:
256,192,36871,1,8,1:0:0:0:
256,192,37036,1,0,1:0:0:0:
256,192,37201,1,8,1:0:0:0:
256,192,37283,1,8,0:0:0:0:
256,192,37366,1,8,1:0:0:0:
256,192,37531,1,0,1:0:0:0:
256,192,37860,1,8,1:0:0:0:
256,192,38025,1,8,1:0:0:0:
256,192,38190,1,0,1:0:0:0:
256,192,38272,1,0,0:0:0:0:
256,192,38355,1,0,0:0:0:0:
256,192,38520,1,8,1:0:0:0:
256,192,38849,1,0,1:0:0:0:
256,192,39344,5,8,1:0:0:0:
256,192,39509,1,0,1:0:0:0:
256,192,39673,1,0,0:0:0:0:
256,192,39838,1,8,1:0:0:0:
256,192,40003,1,0,0:0:0:0:
256,192,40168,1,0,1:0:0:0:
256,192,40250,1,0,1:0:0:0:
256,192,40333,1,0,1:0:0:0:
256,192,40498,1,8,1:0:0:0:
256,192,40827,1,8,1:0:0:0:
256,192,40992,1,0,1:0:0:0:
256,192,41157,1,8,1:0:0:0:
256,192,41239,1,8,0:0:0:0:
256,192,41322,1,8,1:0:0:0:
256,192,41487,1,0,1:0:0:0:
256,192,41816,1,8,1:0:0:0:
256,192,41981,1,8,1:0:0:0:
256,192,42146,1,0,1:0:0:0:
256,192,42476,1,8,1:0:0:0:
256,192,42970,5,8,1:0:0:0:
256,192,43135,1,0,1:0:0:0:
256,192,43217,1,0,1:0:0:0:
256,192,43300,1,0,1:0:0:0:
256,192,43465,1,0,1:0:0:0:
256,192,43630,1,8,1:0:0:0:
256,192,43794,1,0,1:0:0:0:
256,192,43959,1,8,1:0:0:0:
256,192,44124,1,8,1:0:0:0:
256,192,44206,1,8,1:0:0:0:
256,192,44289,1,8,1:0:0:0:
256,192,44454,1,4,1:0:0:0:
256,192,44783,1,0,1:0:0:0:
256,192,45113,5,8,1:0:0:0:
256,192,45443,5,8,1:0:0:0:
256,192,45772,5,0,1:0:0:0:
256,192,46102,5,8,1:0:0:0:
256,192,46432,5,0,1:0:0:0:
256,192,46514,1,0,0:0:0:0:
256,192,46597,1,0,0:0:0:0:
256,192,46761,1,8,0:0:0:0:
256,192,46844,1,8,0:0:0:0:
256,192,46926,1,8,0:0:0:0:
256,192,47091,1,0,0:0:0:0:
256,192,47256,1,0,0:0:0:0:
256,192,47421,5,12,1:0:0:0:
256,192,48080,5,0,0:0:0:0:
256,192,48410,1,8,1:0:0:0:
256,192,48575,1,0,1:0:0:0:
256,192,48904,1,0,1:0:0:0:
256,192,49069,1,8,0:0:0:0:
256,192,49234,1,0,1:0:0:0:
256,192,49316,1,0,0:0:0:0:
256,192,49399,1,0,0:0:0:0:
256,192,49564,1,8,1:0:0:0:
256,192,49728,1,0,0:0:0:0:
256,192,50058,1,8,0:0:0:0:
256,192,50388,1,8,1:0:0:0:
256,192,50553,1,0,1:0:0:0:
256,192,50882,1,0,1:0:0:0:
256,192,51047,1,8,1:0:0:0:
256,192,51212,1,0,1:0:0:0:
256,192,51294,1,0,0:0:0:0:
256,192,51377,1,0,0:0:0:0:
256,192,51542,1,8,1:0:0:0:
256,192,51706,1,0,1:0:0:0:
256,192,52036,1,8,1:0:0:0:
256,192,52119,1,8,1:0:0:0:
256,192,52201,1,8,1:0:0:0:
256,192,52366,1,0,1:0:0:0:
256,192,52531,1,8,1:0:0:0:
256,192,52860,1,8,1:0:0:0:
256,192,53190,1,8,1:0:0:0:
256,192,53355,1,0,1:0:0:0:
256,192,53684,1,8,1:0:0:0:
256,192,54344,5,0,0:0:0:0:
256,192,54426,1,0,0:0:0:0:
256,192,54509,1,0,1:0:0:0:
256,192,54673,1,8,1:0:0:0:
256,192,55003,1,8,1:0:0:0:
256,192,55333,1,0,1:0:0:0:
256,192,55662,1,0,1:0:0:0:
256,192,55745,1,0,1:0:0:0:
256,192,55827,1,0,1:0:0:0:
256,192,55992,1,8,1:0:0:0:
256,192,56157,1,0,1:0:0:0:
256,192,56322,1,8,1:0:0:0:
256,192,56651,1,0,1:0:0:0:
256,192,56981,1,8,1:0:0:0:
256,192,57311,1,8,1:0:0:0:
256,192,57970,5,0,1:0:0:0:
256,192,58135,1,0,1:0:0:0:
256,192,58300,1,8,1:0:0:0:
256,192,58630,1,8,1:0:0:0:
256,192,58794,1,8,1:0:0:0:
256,192,58959,1,0,1:0:0:0:
256,192,59289,1,8,1:0:0:0:
256,192,59948,5,0,1:0:0:0:
256,192,60113,1,0,1:0:0:0:
256,192,60278,1,8,1:0:0:0:
256,192,60608,1,8,1:0:0:0:
256,192,60772,1,0,1:0:0:0:
256,192,61102,1,8,1:0:0:0:
256,192,61267,1,0,1:0:0:0:
256,192,61597,1,0,1:0:0:0:
256,192,61926,1,8,1:0:0:0:
256,192,62009,1,8,1:0:0:0:
256,192,62091,1,8,1:0:0:0:
256,192,62256,1,8,1:0:0:0:
256,192,62421,1,0,1:0:0:0:
256,192,62750,1,0,1:0:0:0:
256,192,63080,1,0,1:0:0:0:
256,192,63245,1,8,1:0:0:0:
256,192,63575,1,8,1:0:0:0:
256,192,63739,1,0,1:0:0:0:
256,192,63904,1,8,1:0:0:0:
256,192,64234,1,8,1:0:0:0:
256,192,64316,1,8,1:0:0:0:
256,192,64399,1,8,1:0:0:0:
256,192,64564,1,8,1:0:0:0:
256,192,64728,1,0,1:0:0:0:
256,192,64811,1,0,1:0:0:0:
256,192,64893,1,0,1:0:0:0:
256,192,65058,1,0,1:0:0:0:
256,192,65223,1,8,1:0:0:0:
256,192,66212,5,8,1:0:0:0:
256,192,66376,1,0,1:0:0:0:
256,192,66541,1,0,1:0:0:0:
256,192,66706,1,8,1:0:0:0:
256,192,66871,1,8,1:0:0:0:
256,192,66953,1,8,1:0:0:0:
256,192,67036,1,8,1:0:0:0:
256,192,67201,1,0,1:0:0:0:
256,192,67530,1,0,1:0:0:0:
256,192,67695,1,8,1:0:0:0:
256,192,67860,1,0,1:0:0:0:
256,192,67942,1,0,1:0:0:0:
256,192,68025,1,0,1:0:0:0:
256,192,68190,1,8,1:0:0:0:
256,192,68519,1,0,1:0:0:0:
256,192,68684,1,8,1:0:0:0:
256,192,69014,1,8,1:0:0:0:
256,192,69179,1,0,1:0:0:0:
256,192,69343,1,0,1:0:0:0:
256,192,69508,1,8,1:0:0:0:
256,192,69673,1,0,1:0:0:0:
256,192,69838,1,8,1:0:0:0:
256,192,69920,1,8,1:0:0:0:
256,192,70003,1,8,1:0:0:0:
256,192,70168,1,8,1:0:0:0:
256,192,70497,1,8,1:0:0:0:
256,192,70662,1,0,1:0:0:0:
256,192,70827,1,0,1:0:0:0:
256,192,70909,1,0,1:0:0:0:
256,192,70992,1,0,1:0:0:0:
256,192,71157,1,8,1:0:0:0:
256,192,71486,1,0,1:0:0:0:
256,192,71651,1,0,1:0:0:0:
256,192,71816,1,8,1:0:0:0:
256,192,71981,1,0,1:0:0:0:
256,192,72146,1,8,1:0:0:0:
256,192,72805,5,0,1:0:0:0:
256,192,72970,1,0,1:0:0:0:
256,192,73135,1,8,1:0:0:0:
256,192,73217,1,8,1:0:0:0:
256,192,73299,1,8,1:0:0:0:
256,192,73464,1,8,1:0:0:0:
256,192,73629,1,0,1:0:0:0:
256,192,73794,1,8,1:0:0:0:
256,192,74124,1,8,1:0:0:0:
256,192,74288,1,0,1:0:0:0:
256,192,74453,1,0,1:0:0:0:
256,192,74618,1,8,1:0:0:0:
256,192,74783,1,8,1:0:0:0:
256,192,74865,1,8,1:0:0:0:
256,192,74948,1,8,1:0:0:0:
256,192,75113,1,0,1:0:0:0:
256,192,75442,1,0,1:0:0:0:
256,192,75607,1,8,1:0:0:0:
256,192,75772,1,0,1:0:0:0:
256,192,75854,1,0,1:0:0:0:
256,192,75937,1,0,1:0:0:0:
256,192,76102,1,8,1:0:0:0:
256,192,76431,1,0,1:0:0:0:
256,192,76596,1,8,1:0:0:0:
256,192,76926,1,8,1:0:0:0:
256,192,77091,1,0,1:0:0:0:
256,192,77255,1,0,1:0:0:0:
256,192,77420,1,8,1:0:0:0:
256,192,77585,1,0,1:0:0:0:
256,192,77750,1,8,1:0:0:0:
256,192,77832,1,8,1:0:0:0:
256,192,77915,1,8,1:0:0:0:
256,192,78080,1,8,1:0:0:0:
256,192,78409,1,8,1:0:0:0:
256,192,78574,1,0,1:0:0:0:
256,192,78739,1,0,1:0:0:0:
256,192,78821,1,0,1:0:0:0:
256,192,78904,1,0,1:0:0:0:
256,192,79069,1,8,1:0:0:0:
256,192,79398,1,0,1:0:0:0:
256,192,79563,1,0,1:0:0:0:
256,192,79728,1,8,1:0:0:0:
256,192,79893,1,0,1:0:0:0:
256,192,80058,1,8,1:0:0:0:
256,192,80717,5,0,1:0:0:0:
256,192,80799,1,0,1:0:0:0:
256,192,80882,1,0,1:0:0:0:
256,192,81047,1,8,1:0:0:0:
256,192,81212,1,0,1:0:0:0:
256,192,81376,1,8,1:0:0:0:
256,192,81541,1,0,1:0:0:0:
256,192,81706,1,8,1:0:0:0:
256,192,81788,1,8,1:0:0:0:
256,192,81871,1,8,1:0:0:0:
256,192,82036,1,8,1:0:0:0:
256,192,82201,1,0,1:0:0:0:
256,192,82365,1,8,1:0:0:0:
256,192,82530,1,0,1:0:0:0:
256,192,82695,1,0,1:0:0:0:
256,192,82860,1,8,1:0:0:0:
256,192,83025,1,8,1:0:0:0:
256,192,83190,1,0,1:0:0:0:
256,192,83354,1,8,1:0:0:0:
256,192,83519,1,0,1:0:0:0:
256,192,83684,1,8,1:0:0:0:
256,192,83849,1,8,1:0:0:0:
256,192,84014,1,0,1:0:0:0:
256,192,84343,5,0,1:0:0:0:
256,192,84508,1,0,1:0:0:0:
256,192,84673,1,8,1:0:0:0:
256,192,84838,1,0,1:0:0:0:
256,192,85003,1,8,1:0:0:0:
256,192,85332,1,0,1:0:0:0:
256,192,85662,1,8,1:0:0:0:
256,192,85992,5,0,1:0:0:0:
256,192,86157,1,8,1:0:0:0:
256,192,86486,1,8,1:0:0:0:
256,192,86816,1,8,1:0:0:0:
256,192,86981,1,0,1:0:0:0:
256,192,87063,1,0,0:0:0:0:
256,192,87146,1,0,1:0:0:0:
256,192,87310,1,8,1:0:0:0:
256,192,87640,1,0,1:0:0:0:
256,192,87970,1,0,1:0:0:0:
256,192,88135,1,8,1:0:0:0:
256,192,88464,1,8,1:0:0:0:
256,192,88794,1,8,1:0:0:0:
256,192,88959,1,0,1:0:0:0:
256,192,89041,1,0,0:0:0:0:
256,192,89124,1,0,1:0:0:0:
256,192,89288,1,8,1:0:0:0:
256,192,89618,1,8,1:0:0:0:
256,192,89948,1,0,1:0:0:0:
256,192,90113,1,8,1:0:0:0:
256,192,90442,1,8,1:0:0:0:
256,192,90772,1,8,1:0:0:0:
256,192,90937,1,0,1:0:0:0:
256,192,91019,1,0,0:0:0:0:
256,192,91102,1,0,1:0:0:0:
256,192,91266,1,8,1:0:0:0:
256,192,91596,1,8,1:0:0:0:
256,192,91761,1,0,1:0:0:0:
256,192,91926,1,8,1:0:0:0:
256,192,92091,1,0,1:0:0:0:
256,192,92420,1,8,1:0:0:0:
256,192,92750,1,8,1:0:0:0:
256,192,92915,1,0,1:0:0:0:
256,192,93080,1,0,1:0:0:0:
256,192,93244,1,8,1:0:0:0:
256,192,93409,1,8,1:0:0:0:
256,192,93492,1,8,1:0:0:0:
256,192,93574,1,8,1:0:0:0:
256,192,93739,1,8,1:0:0:0:
256,192,93904,1,0,1:0:0:0:
256,192,94893,5,8,1:0:0:0:
256,192,95882,5,0,1:0:0:0:
256,192,96211,1,8,1:0:0:0:
256,192,96294,1,8,0:0:0:0:
256,192,96376,1,8,0:0:0:0:
256,192,96541,1,0,0:0:0:0:
256,192,96706,1,8,1:0:0:0:
256,192,96871,1,0,1:0:0:0:
256,192,97200,1,8,1:0:0:0:
256,192,97530,1,0,1:0:0:0:
256,192,97612,1,0,1:0:0:0:
256,192,97695,1,0,1:0:0:0:
256,192,97860,1,8,1:0:0:0:
256,192,98024,1,0,1:0:0:0:
256,192,98189,1,8,1:0:0:0:
256,192,98684,5,8,1:0:0:0:
256,192,98849,1,0,1:0:0:0:
256,192,99178,1,8,1:0:0:0:
256,192,99508,1,0,1:0:0:0:
256,192,99590,1,0,0:0:0:0:
256,192,99673,1,0,1:0:0:0:
256,192,99838,1,8,1:0:0:0:
256,192,100167,1,0,1:0:0:0:
256,192,100497,1,8,1:0:0:0:
256,192,100662,1,8,1:0:0:0:
256,192,100827,1,0,1:0:0:0:
256,192,101156,1,0,1:0:0:0:
256,192,101321,1,8,1:0:0:0:
256,192,101486,1,0,1:0:0:0:
256,192,101568,1,0,1:0:0:0:
256,192,101651,1,0,1:0:0:0:
256,192,101816,1,8,1:0:0:0:
256,192,102475,1,0,1:0:0:0:
256,192,102805,1,8,1:0:0:0:
256,192,103794,5,8,1:0:0:0:
256,192,103958,1,0,1:0:0:0:
256,192,104123,1,8,1:0:0:0:
256,192,104206,1,8,0:0:0:0:
256,192,104288,1,8,0:0:0:0:
256,192,104453,1,0,1:0:0:0:
256,192,104783,1,8,1:0:0:0:
256,192,104947,1,0,1:0:0:0:
256,192,105112,1,8,1:0:0:0:
256,192,105442,1,0,1:0:0:0:
256,192,105524,1,0,1:0:0:0:
256,192,105607,1,0,1:0:0:0:
256,192,105772,1,8,1:0:0:0:
256,192,105936,1,0,1:0:0:0:
256,192,106101,1,8,1:0:0:0:
256,192,106431,1,8,1:0:0:0:
256,192,106596,1,8,1:0:0:0:
256,192,106761,1,0,1:0:0:0:
256,192,107090,1,0,1:0:0:0:
256,192,107420,1,0,1:0:0:0:
256,192,107502,1,0,1:0:0:0:
256,192,107585,1,0,1:0:0:0:
256,192,107750,1,8,1:0:0:0:
256,192,108079,1,0,1:0:0:0:
256,192,108244,1,0,1:0:0:0:
256,192,108409,1,8,1:0:0:0:
256,192,108739,1,8,1:0:0:0:
256,192,108821,1,8,0:0:0:0:
256,192,108903,1,8,1:0:0:0:
256,192,109068,1,0,1:0:0:0:
256,192,109233,1,0,1:0:0:0:
256,192,109398,1,8,1:0:0:0:
256,192,109480,1,8,1:0:0:0:
256,192,109563,1,8,1:0:0:0:
256,192,109728,1,0,1:0:0:0:
256,192,110222,5,0,1:0:0:0:
256,192,110387,1,8,1:0:0:0:
256,192,110717,1,8,1:0:0:0:
256,192,110882,1,8,1:0:0:0:
256,192,111046,1,0,1:0:0:0:
256,192,111376,1,0,1:0:0:0:
256,192,111458,1,0,1:0:0:0:
256,192,111541,1,0,1:0:0:0:
256,192,111706,1,8,1:0:0:0:
256,192,112035,1,0,1:0:0:0:
256,192,112200,1,0,1:0:0:0:
256,192,112365,1,8,1:0:0:0:
256,192,112695,1,8,1:0:0:0:
256,192,112777,1,8,0:0:0:0:
256,192,112860,1,8,1:0:0:0:
256,192,113024,1,0,1:0:0:0:
256,192,113189,1,0,1:0:0:0:
256,192,113354,1,8,1:0:0:0:
256,192,113436,1,8,1:0:0:0:
256,192,113519,1,8,1:0:0:0:
256,192,113684,1,0,1:0:0:0:
256,192,113766,1,0,1:0:0:0:
256,192,113849,1,0,1:0:0:0:
256,192,114013,1,8,1:0:0:0:
256,192,114343,1,8,1:0:0:0:
256,192,114673,1,4,1:0:0:0:
256,192,115332,5,0,1:0:0:0:
256,192,115662,1,8,1:0:0:0:
256,192,115827,1,0,1:0:0:0:
256,192,116156,1,0,1:0:0:0:
256,192,116321,1,8,0:0:0:0:
256,192,116486,1,0,1:0:0:0:
256,192,116568,1,0,0:0:0:0:
256,192,116651,1,0,0:0:0:0:
256,192,116816,1,8,1:0:0:0:
256,192,116980,1,0,0:0:0:0:
256,192,117310,1,8,0:0:0:0:
256,192,117640,1,8,1:0:0:0:
256,192,117805,1,0,1:0:0:0:
256,192,118134,1,0,1:0:0:0:
256,192,118299,1,8,1:0:0:0:
256,192,118464,1,0,1:0:0:0:
256,192,118546,1,0,0:0:0:0:
256,192,118629,1,0,0:0:0:0:
256,192,118794,1,8,1:0:0:0:
256,192,118958,1,0,1:0:0:0:
256,192,119288,1,8,1:0:0:0:
256,192,119371,1,8,1:0:0:0:
256,192,119453,1,8,1:0:0:0:
256,192,119618,1,0,1:0:0:0:
256,192,119783,1,8,1:0:0:0:
256,192,120112,1,8,1:0:0:0:
256,192,120442,1,8,1:0:0:0:
256,192,120607,1,0,1:0:0:0:
256,192,120936,1,8,1:0:0:0:
256,192,121596,5,0,0:0:0:0:
256,192,121678,1,0,0:0:0:0:
256,192,121761,1,0,1:0:0:0:
256,192,121925,1,8,1:0:0:0:
256,192,122255,1,8,1:0:0:0:
256,192,122585,1,0,1:0:0:0:
256,192,122914,1,0,1:0:0:0:
256,192,122997,1,0,1:0:0:0:
256,192,123079,1,0,1:0:0:0:
256,192,123244,1,8,1:0:0:0:
256,192,123409,1,0,1:0:0:0:
256,192,123574,5,8,1:0:0:0:
256,192,123903,5,0,1:0:0:0:
256,192,124233,1,8,1:0:0:0:
256,192,124563,1,8,1:0:0:0:
256,192,125222,5,0,1:0:0:0:
256,192,125387,1,0,1:0:0:0:
256,192,125552,1,8,1:0:0:0:
256,192,125881,1,8,1:0:0:0:
256,192,126046,1,8,1:0:0:0:
256,192,126211,1,0,1:0:0:0:
256,192,126541,1,8,1:0:0:0:
256,192,127200,5,0,1:0:0:0:
256,192,127365,1,0,1:0:0:0:
256,192,127530,1,8,1:0:0:0:
256,192,127859,1,8,1:0:0:0:
256,192,128024,1,0,1:0:0:0:
256,192,128354,1,8,1:0:0:0:
256,192,128519,1,0,1:0:0:0:
256,192,128848,1,0,1:0:0:0:
256,192,129178,1,8,1:0:0:0:
256,192,129260,1,8,1:0:0:0:
256,192,129343,1,8,1:0:0:0:
256,192,129508,1,8,1:0:0:0:
256,192,129672,1,0,1:0:0:0:
256,192,130002,1,0,1:0:0:0:
256,192,130332,1,0,1:0:0:0:
256,192,130497,1,8,1:0:0:0:
256,192,130826,1,8,1:0:0:0:
256,192,130991,1,0,1:0:0:0:
256,192,131156,1,8,1:0:0:0:
256,192,131486,1,8,1:0:0:0:
256,192,131568,1,8,1:0:0:0:
256,192,131651,1,8,1:0:0:0:
256,192,131815,1,8,1:0:0:0:
256,192,131980,1,0,1:0:0:0:
256,192,132063,1,0,1:0:0:0:
256,192,132145,1,0,1:0:0:0:
256,192,132310,1,0,1:0:0:0:
256,192,132475,1,8,1:0:0:0:
256,192,133464,5,8,1:0:0:0:
256,192,133628,1,0,1:0:0:0:
256,192,133793,1,0,1:0:0:0:
256,192,133958,1,8,1:0:0:0:
256,192,134123,1,8,1:0:0:0:
256,192,134205,1,8,1:0:0:0:
256,192,134288,1,8,1:0:0:0:
256,192,134453,1,0,1:0:0:0:
256,192,134782,1,0,1:0:0:0:
256,192,134947,1,8,1:0:0:0:
256,192,135112,1,0,1:0:0:0:
256,192,135194,1,0,1:0:0:0:
256,192,135277,1,0,1:0:0:0:
256,192,135442,1,8,1:0:0:0:
256,192,135771,1,0,1:0:0:0:
256,192,135936,1,8,1:0:0:0:
256,192,136266,1,8,1:0:0:0:
256,192,136431,1,0,1:0:0:0:
256,192,136595,1,0,1:0:0:0:
256,192,136760,1,8,1:0:0:0:
256,192,136925,1,0,1:0:0:0:
256,192,137090,1,8,1:0:0:0:
256,192,137172,1,8,1:0:0:0:
256,192,137255,1,8,1:0:0:0:
256,192,137420,1,8,1:0:0:0:
256,192,137749,1,8,1:0:0:0:
256,192,137914,1,0,1:0:0:0:
256,192,138079,1,0,1:0:0:0:
256,192,138161,1,0,1:0:0:0:
256,192,138244,1,0,1:0:0:0:
256,192,138409,1,8,1:0:0:0:
256,192,138738,1,0,1:0:0:0:
256,192,138821,1,0,1:0:0:0:
256,192,138903,1,0,1:0:0:0:
256,192,139068,1,8,1:0:0:0:
256,192,139233,1,0,1:0:0:0:
256,192,139398,1,8,1:0:0:0:
256,192,140057,5,0,1:0:0:0:
256,192,140222,1,0,1:0:0:0:
256,192,140387,1,8,1:0:0:0:
256,192,140469,1,8,1:0:0:0:
256,192,140551,1,8,1:0:0:0:
256,192,140716,1,8,1:0:0:0:
256,192,140881,1,0,1:0:0:0:
256,192,141046,1,8,1:0:0:0:
256,192,141376,1,8,1:0:0:0:
256,192,141540,1,0,1:0:0:0:
256,192,141705,1,0,1:0:0:0:
256,192,141870,1,8,1:0:0:0:
256,192,142035,1,8,1:0:0:0:
256,192,142117,1,8,1:0:0:0:
256,192,142200,1,8,1:0:0:0:
256,192,142365,1,0,1:0:0:0:
256,192,142694,1,0,1:0:0:0:
256,192,142859,1,8,1:0:0:0:
256,192,143024,1,0,1:0:0:0:
256,192,143106,1,0,1:0:0:0:
256,192,143189,1,0,1:0:0:0:
256,192,143354,1,8,1:0:0:0:
256,192,143683,1,0,1:0:0:0:
256,192,143848,1,8,1:0:0:0:
256,192,144178,1,8,1:0:0:0:
256,192,144343,1,0,1:0:0:0:
256,192,144425,1,0,1:0:0:0:
256,192,144507,1,0,1:0:0:0:
256,192,144672,1,8,1:0:0:0:
256,192,144837,1,0,1:0:0:0:
256,192,145002,1,8,1:0:0:0:
256,192,145084,1,8,1:0:0:0:
256,192,145167,1,8,1:0:0:0:
256,192,145332,1,8,1:0:0:0:
256,192,145661,1,8,1:0:0:0:
256,192,145826,1,0,1:0:0:0:
256,192,145991,1,0,1:0:0:0:
256,192,146073,1,0,1:0:0:0:
256,192,146156,1,0,1:0:0:0:
256,192,146321,1,8,1:0:0:0:
256,192,146650,1,0,1:0:0:0:
256,192,146815,1,0,1:0:0:0:
256,192,146980,1,8,1:0:0:0:
256,192,147145,1,0,1:0:0:0:
256,192,147310,1,8,1:0:0:0:
256,192,147969,5,0,1:0:0:0:
256,192,148051,1,0,1:0:0:0:
256,192,148134,1,0,1:0:0:0:
256,192,148299,1,8,1:0:0:0:
256,192,148464,1,0,1:0:0:0:
256,192,148628,1,8,1:0:0:0:
256,192,148793,1,0,1:0:0:0:
256,192,148958,1,8,1:0:0:0:
256,192,149040,1,8,1:0:0:0:
256,192,149123,1,8,1:0:0:0:
256,192,149288,1,8,1:0:0:0:
256,192,149453,1,0,1:0:0:0:
256,192,149617,1,8,1:0:0:0:
256,192,149782,1,0,1:0:0:0:
256,192,149947,1,8,1:0:0:0:
256,192,150112,1,0,1:0:0:0:
256,192,150277,1,8,1:0:0:0:
256,192,150442,1,8,1:0:0:0:
256,192,150606,1,0,1:0:0:0:
256,192,150771,1,0,1:0:0:0:
256,192,150936,1,8,1:0:0:0:
256,192,151101,1,0,1:0:0:0:
256,192,151266,5,8,1:0:0:0:
256,192,151595,5,0,1:0:0:0:
256,192,151760,1,0,1:0:0:0:
256,192,151925,1,8,1:0:0:0:
256,192,152090,1,0,1:0:0:0:
256,192,152255,5,8,1:0:0:0:
256,192,152584,5,0,1:0:0:0:
256,192,152914,5,8,1:0:0:0:
256,192,153244,5,0,1:0:0:0:
256,192,153409,1,8,1:0:0:0:
256,192,153738,1,8,1:0:0:0:
256,192,154068,1,8,1:0:0:0:
256,192,154233,1,0,1:0:0:0:
256,192,154315,1,0,0:0:0:0:
256,192,154398,1,0,1:0:0:0:
256,192,154562,1,8,1:0:0:0:
256,192,154892,1,0,1:0:0:0:
256,192,155222,1,0,1:0:0:0:
256,192,155387,1,8,1:0:0:0:
256,192,155716,1,8,1:0:0:0:
256,192,156046,1,8,1:0:0:0:
256,192,156211,1,0,1:0:0:0:
256,192,156293,1,0,0:0:0:0:
256,192,156376,1,0,1:0:0:0:
256,192,156540,1,8,1:0:0:0:
256,192,156870,1,8,1:0:0:0:
256,192,157200,1,0,1:0:0:0:
256,192,157365,1,8,1:0:0:0:
256,192,157694,1,8,1:0:0:0:
256,192,158024,1,8,1:0:0:0:
256,192,158189,1,0,1:0:0:0:
256,192,158271,1,0,0:0:0:0:
256,192,158354,1,0,1:0:0:0:
256,192,158518,1,8,1:0:0:0:
256,192,158848,1,8,1:0:0:0:
256,192,159013,1,0,1:0:0:0:
256,192,159178,1,8,1:0:0:0:
256,192,159343,1,0,1:0:0:0:
256,192,159672,1,0,1:0:0:0:
256,192,160002,1,0,1:0:0:0:
256,192,160167,1,0,0:0:0:0:
256,192,160249,1,0,0:0:0:0:
256,192,160332,1,0,1:0:0:0:
256,192,160496,1,8,0:0:0:0:
256,192,160661,1,8,1:0:0:0:
256,192,160744,1,8,1:0:0:0:
256,192,160826,1,8,1:0:0:0:
256,192,160991,1,8,1:0:0:0:
256,192,161156,1,0,1:0:0:0:
256,192,161650,5,8,1:0:0:0:
256,192,161980,1,8,1:0:0:0:
256,192,162145,1,0,1:0:0:0:
256,192,162474,1,8,1:0:0:0:
256,192,162639,1,8,1:0:0:0:
256,192,162804,1,0,1:0:0:0:
256,192,163134,1,8,1:0:0:0:
256,192,163299,1,0,1:0:0:0:
256,192,163628,1,0,1:0:0:0:
256,192,163958,1,0,1:0:0:0:
256,192,164123,1,8,1:0:0:0:
256,192,164288,1,0,1:0:0:0:
256,192,164453,1,8,1:0:0:0:
256,192,164617,1,8,1:0:0:0:
256,192,164782,1,0,1:0:0:0:
256,192,165112,1,0,1:0:0:0:
256,192,165606,5,8,1:0:0:0:
256,192,165771,1,0,1:0:0:0:
256,192,165936,1,8,1:0:0:0:
256,192,166101,1,0,1:0:0:0:
256,192,166266,1,0,1:0:0:0:
256,192,166431,1,8,1:0:0:0:
256,192,166760,1,8,1:0:0:0:
256,192,167090,1,0,1:0:0:0:
256,192,167172,1,0,1:0:0:0:
256,192,167255,1,0,1:0:0:0:
256,192,167420,1,0,1:0:0:0:
256,192,167584,1,8,1:0:0:0:
256,192,167749,1,8,1:0:0:0:
256,192,168079,1,8,1:0:0:0:
256,192,168244,1,8,1:0:0:0:
256,192,168326,1,8,1:0:0:0:
256,192,168409,1,8,1:0:0:0:
256,192,168573,1,0,1:0:0:0:
256,192,168738,1,0,1:0:0:0:
256,192,168821,1,0,1:0:0:0:
256,192,168903,1,0,1:0:0:0:
256,192,169068,1,8,1:0:0:0:
256,192,169233,1,0,1:0:0:0:
256,192,169398,1,8,1:0:0:0:
256,192,169562,1,0,1:0:0:0:
256,192,169727,1,8,1:0:0:0:
256,192,169892,1,0,1:0:0:0:
256,192,170057,1,0,1:0:0:0:
256,192,170222,1,0,1:0:0:0:
256,192,170387,1,8,1:0:0:0:
256,192,170469,1,8,0:0:0:0:
256,192,170551,1,8,1:0:0:0:
256,192,170716,1,0,1:0:0:0:
256,192,170881,1,0,1:0:0:0:
256,192,171046,1,8,1:0:0:0:
256,192,171211,1,0,1:0:0:0:
256,192,171870,5,8,1:0:0:0:
256,192,172035,1,0,1:0:0:0:
256,192,172365,1,0,1:0:0:0:
256,192,172529,1,8,1:0:0:0:
256,192,172694,1,0,1:0:0:0:
256,192,172859,1,0,1:0:0:0:
256,192,173024,1,8,1:0:0:0:
256,192,180936,5,8,1:0:0:0:
256,192,181101,1,0,1:0:0:0:
256,192,181431,1,8,1:0:0:0:
256,192,181760,1,8,1:0:0:0:
256,192,181925,1,0,1:0:0:0:
256,192,182255,1,0,1:0:0:0:
256,192,182584,1,8,1:0:0:0:
256,192,182914,1,0,1:0:0:0:
256,192,183079,1,0,1:0:0:0:
256,192,183409,1,8,1:0:0:0:
256,192,183738,1,8,1:0:0:0:
256,192,183903,1,0,1:0:0:0:
256,192,184233,1,0,1:0:0:0:
256,192,184562,1,8,1:0:0:0:
256,192,184727,1,0,1:0:0:0:
256,192,184892,1,8,1:0:0:0:
256,192,185057,1,0,1:0:0:0:
256,192,185387,1,8,1:0:0:0:
256,192,185716,1,8,1:0:0:0:
256,192,185881,1,0,1:0:0:0:
256,192,186211,1,0,1:0:0:0:
256,192,186540,1,8,1:0:0:0:
256,192,186870,1,8,1:0:0:0:
256,192,187035,1,0,1:0:0:0:
256,192,187365,1,8,1:0:0:0:
256,192,187694,1,8,1:0:0:0:
256,192,187859,1,0,1:0:0:0:
256,192,188848,5,8,1:0:0:0:
256,192,189013,1,0,1:0:0:0:
256,192,189095,1,0,1:0:0:0:
256,192,189178,1,0,1:0:0:0:
256,192,189343,1,8,1:0:0:0:
256,192,189507,1,8,1:0:0:0:
256,192,189590,1,8,1:0:0:0:
256,192,189672,1,8,1:0:0:0:
256,192,189837,1,0,1:0:0:0:
256,192,190167,1,0,1:0:0:0:
256,192,190332,1,8,1:0:0:0:
256,192,190496,1,0,1:0:0:0:
256,192,190579,1,0,1:0:0:0:
256,192,190661,1,0,1:0:0:0:
256,192,190826,1,8,1:0:0:0:
256,192,191156,1,0,1:0:0:0:
256,192,191321,1,8,1:0:0:0:
256,192,191650,1,8,1:0:0:0:
256,192,191815,1,0,1:0:0:0:
256,192,191898,1,0,1:0:0:0:
256,192,191980,1,0,1:0:0:0:
256,192,192145,1,8,1:0:0:0:
256,192,192310,1,0,1:0:0:0:
256,192,192474,1,8,1:0:0:0:
256,192,192557,1,8,1:0:0:0:
256,192,192639,1,8,1:0:0:0:
256,192,192804,1,8,1:0:0:0:
256,192,193134,1,8,1:0:0:0:
256,192,193299,1,0,1:0:0:0:
256,192,193464,1,0,1:0:0:0:
256,192,193546,1,0,1:0:0:0:
256,192,193628,1,0,1:0:0:0:
256,192,193793,1,8,1:0:0:0:
256,192,194123,1,0,1:0:0:0:
256,192,194288,1,0,1:0:0:0:
256,192,194453,1,8,1:0:0:0:
256,192,194617,1,0,1:0:0:0:
256,192,194782,1,8,1:0:0:0:
256,192,195442,5,0,1:0:0:0:
256,192,195606,1,0,1:0:0:0:
256,192,195771,1,8,1:0:0:0:
256,192,195854,1,8,1:0:0:0:
256,192,195936,1,8,1:0:0:0:
256,192,196101,1,8,1:0:0:0:
256,192,196266,1,0,1:0:0:0:
256,192,196431,1,8,1:0:0:0:
256,192,196760,1,8,1:0:0:0:
256,192,196925,1,0,1:0:0:0:
256,192,197007,1,0,1:0:0:0:
256,192,197090,1,0,1:0:0:0:
256,192,197255,1,8,1:0:0:0:
256,192,197420,1,8,1:0:0:0:
256,192,197502,1,8,1:0:0:0:
256,192,197584,1,8,1:0:0:0:
256,192,197749,1,0,1:0:0:0:
256,192,198079,1,0,1:0:0:0:
256,192,198244,1,8,1:0:0:0:
256,192,198409,1,0,1:0:0:0:
256,192,198491,1,0,1:0:0:0:
256,192,198573,1,0,1:0:0:0:
256,192,198738,1,8,1:0:0:0:
256,192,199068,1,0,1:0:0:0:
256,192,199233,1,8,1:0:0:0:
256,192,199562,1,8,1:0:0:0:
256,192,199727,1,0,1:0:0:0:
256,192,199810,1,0,1:0:0:0:
256,192,199892,1,0,1:0:0:0:
256,192,200057,1,8,1:0:0:0:
256,192,200222,1,0,1:0:0:0:
256,192,200387,1,8,1:0:0:0:
256,192,200469,1,8,1:0:0:0:
256,192,200551,1,8,1:0:0:0:
256,192,200716,1,8,1:0:0:0:
256,192,201046,1,8,1:0:0:0:
256,192,201211,1,0,1:0:0:0:
256,192,201376,1,0,1:0:0:0:
256,192,201458,1,0,1:0:0:0:
256,192,201540,1,0,1:0:0:0:
256,192,201705,1,8,1:0:0:0:
256,192,202035,1,0,1:0:0:0:
256,192,202117,1,0,1:0:0:0:
256,192,202200,1,0,1:0:0:0:
256,192,202365,1,8,1:0:0:0:
256,192,202529,1,0,1:0:0:0:
256,192,202694,1,8,1:0:0:0:
256,192,203354,5,0,1:0:0:0:
256,192,203436,1,0,1:0:0:0:
256,192,203518,1,0,1:0:0:0:
256,192,203683,1,8,1:0:0:0:
256,192,203766,1,8,1:0:0:0:
256,192,203848,1,8,1:0:0:0:
256,192,204013,1,8,1:0:0:0:
256,192,204178,1,0,1:0:0:0:
256,192,204343,1,8,1:0:0:0:
256,192,204425,1,8,1:0:0:0:
256,192,204507,1,8,1:0:0:0:
256,192,204672,1,8,1:0:0:0:
256,192,204837,1,0,1:0:0:0:
256,192,205002,1,8,1:0:0:0:
256,192,205167,1,0,1:0:0:0:
256,192,205332,1,8,1:0:0:0:
256,192,205496,1,0,1:0:0:0:
256,192,205661,1,8,1:0:0:0:
256,192,205826,1,8,1:0:0:0:
256,192,205991,1,0,1:0:0:0:
256,192,206156,1,0,1:0:0:0:
256,192,206321,1,8,1:0:0:0:
256,192,206485,1,0,1:0:0:0:
256,192,206650,1,8,1:0:0:0:
256,192,206980,1,0,1:0:0:0:
256,192,207310,1,8,1:0:0:0:
256,192,207639,5,8,1:0:0:0:
256,192,207804,1,8,1:0:0:0:
256,192,207969,1,0,1:0:0:0:
256,192,208134,1,0,1:0:0:0:
256,192,208299,1,8,1:0:0:0:
256,192,208464,1,0,1:0:0:0:
256,192,208628,1,8,1:0:0:0:
256,192,208958,1,8,1:0:0:0:
256,192,209288,1,0,1:0:0:0:
256,192,209617,5,8,1:0:0:0:
256,192,209782,1,8,1:0:0:0:
256,192,209947,1,8,1:0:0:0:
256,192,210112,1,0,1:0:0:0:
256,192,210277,1,8,1:0:0:0:
256,192,210442,1,0,1:0:0:0:
256,192,210606,1,8,1:0:0:0:
256,192,210936,1,0,1:0:0:0:
256,192,211266,1,8,1:0:0:0:
256,192,211595,5,8,1:0:0:0:
256,192,211760,1,8,1:0:0:0:
256,192,211925,1,8,1:0:0:0:
256,192,212090,1,0,1:0:0:0:
256,192,212255,1,8,1:0:0:0:
256,192,212420,1,8,1:0:0:0:
256,192,212584,1,4,1:0:0:0:
256,192,214564,5,8,1:0:0:0:
256,192,214728,1,0,1:0:0:0:
256,192,214811,1,0,1:0:0:0:
256,192,214893,1,0,1:0:0:0:
256,192,215058,1,8,1:0:0:0:
256,192,215223,1,8,1:0:0:0:
256,192,215470,1,0,1:0:0:0:
256,192,215717,1,8,1:0:0:0:
256,192,215882,1,0,1:0:0:0:
256,192,216047,1,0,1:0:0:0:
256,192,216129,1,0,1:0:0:0:
256,192,216212,1,0,1:0:0:0:
256,192,216377,1,0,1:0:0:0:
256,192,216542,1,8,1:0:0:0:
256,192,216624,1,8,0:0:0:0:
256,192,216706,1,8,1:0:0:0:
256,192,216871,1,0,1:0:0:0:
256,192,217201,1,8,1:0:0:0:
256,192,217366,1,0,1:0:0:0:
256,192,217448,1,0,1:0:0:0:
256,192,217531,1,0,1:0:0:0:
256,192,217695,1,8,1:0:0:0:
256,192,217860,1,8,1:0:0:0:
256,192,218107,1,0,1:0:0:0:
256,192,218355,1,8,1:0:0:0:
256,192,218520,1,0,1:0:0:0:
256,192,218684,1,8,1:0:0:0:
256,192,218849,1,0,1:0:0:0:
256,192,219014,1,8,1:0:0:0:
256,192,219179,1,0,1:0:0:0:
256,192,219344,1,8,1:0:0:0:
256,192,219838,5,8,1:0:0:0:
256,192,220003,1,0,1:0:0:0:
256,192,220085,1,0,1:0:0:0:
256,192,220168,1,0,1:0:0:0:
256,192,220333,1,8,1:0:0:0:
256,192,220498,1,8,1:0:0:0:
256,192,220745,1,0,1:0:0:0:
256,192,220992,1,8,1:0:0:0:
256,192,221157,1,0,1:0:0:0:
256,192,221322,1,0,1:0:0:0:
256,192,221404,1,0,1:0:0:0:
256,192,221487,1,0,1:0:0:0:
256,192,221651,1,0,1:0:0:0:
256,192,221816,1,8,1:0:0:0:
256,192,221899,1,8,0:0:0:0:
256,192,221981,1,8,1:0:0:0:
256,192,222146,1,0,1:0:0:0:
256,192,222476,1,8,1:0:0:0:
256,192,222640,1,0,1:0:0:0:
256,192,222723,1,0,1:0:0:0:
256,192,222805,1,0,1:0:0:0:
256,192,222970,1,8,1:0:0:0:
256,192,223135,1,8,1:0:0:0:
256,192,223382,1,0,1:0:0:0:
256,192,223629,1,8,1:0:0:0:
256,192,223794,1,0,1:0:0:0:
256,192,223959,1,8,1:0:0:0:
256,192,224042,1,8,1:0:0:0:
256,192,224124,1,8,1:0:0:0:
256,192,224289,1,8,1:0:0:0:
256,192,224454,1,0,1:0:0:0:
256,192,224536,1,0,1:0:0:0:
256,192,224618,1,0,1:0:0:0:
256,192,224783,1,0,1:0:0:0:
256,192,225113,1,4,1:0:0:0:
256,192,225442,1,0,1:0:0:0:
256,192,225525,1,0,0:0:0:0:
256,192,225607,1,0,1:0:0:0:
256,192,225772,1,0,1:0:0:0:
256,192,226102,1,12,1:0:0:0:
256,192,226431,1,8,1:0:0:0:
256,192,226514,1,8,0:0:0:0:
256,192,226596,1,8,1:0:0:0:
256,192,226761,1,8,0:0:0:0:
256,192,226926,1,0,0:0:0:0:
256,192,227420,12,4,231376,1:0:0:0:
