osu file format v14

[General]
AudioFilename: audio.mp3
AudioLeadIn: 0
PreviewTime: 15632
Countdown: 0
SampleSet: None
StackLeniency: 0.7
Mode: 0
LetterboxInBreaks: 0
WidescreenStoryboard: 1

[Editor]
Bookmarks: 73818
DistanceSpacing: 0.9
BeatDivisor: 2
GridSize: 4
TimelineZoom: 1.3

[Metadata]
Title:DROPOUT!?
TitleUnicode:DROPOUT!?
Artist:Saint Snow
ArtistUnicode:Saint Snow
Creator:Bara-
Version:NORMAL!
Source:ラブライブ!サンシャイン!!
Tags:Kazuno Sarah 鹿角聖良 Tano Asami 田野 アサミ Kazuno Leah 鹿角理亞 Satou Hinata 佐藤 日向 school idol project tv size lovelive Love Live! Sunshine!! Awaken the power CRASH MIND
BeatmapID:1492189
BeatmapSetID:705449

[Difficulty]
HPDrainRate:4
CircleSize:2.7
OverallDifficulty:5
ApproachRate:5.7
SliderMultiplier:1
SliderTickRate:1

[Events]
//Background and Video events
0,0,"SaintSnow is bae.png",0,0
//Break Periods
//Storyboard Layer 0 (Background)
//Storyboard Layer 1 (Fail)
//Storyboard Layer 2 (Pass)
//Storyboard Layer 3 (Foreground)
//Storyboard Sound Samples

[TimingPoints]
0,324.324324324324,6,2,1,40,1,0
0,-133.333333333333,6,2,1,40,0,0
1951,329.67032967033,6,2,1,40,1,0
1951,-133.333333333333,6,2,1,40,0,0
7885,-100,6,3,1,60,0,0
15796.6299475135,164.835164835165,4,3,1,60,1,1
15797,-133.333333333333,4,3,1,60,0,1
21071,-125,4,3,1,60,0,1
28324,164.835164835165,6,3,1,60,1,0
28324,-166.666666666667,6,3,1,60,0,0
30961,-166.666666666667,6,3,2,60,0,0
31043,-166.666666666667,6,3,1,60,0,0
34587,-166.666666666667,6,3,2,60,0,0
34670,-166.666666666667,6,3,1,60,0,0
36895,-166.666666666667,6,3,2,60,0,0
36977,-166.666666666667,6,3,1,60,0,0
38873,-166.666666666667,6,3,2,60,0,0
38955,-166.666666666667,6,3,1,60,0,0
42499,-166.666666666667,6,3,2,60,0,0
42582,-166.666666666667,6,3,1,60,0,0
42829,-166.666666666667,6,3,2,60,0,0
42911,-166.666666666667,6,3,1,60,0,0
44148,-200,6,3,1,60,0,0
44313,-200,6,3,2,60,0,0
45137,-200,6,3,1,60,0,0
45302,-200,6,3,2,60,0,0
46126,-200,6,3,1,60,0,0
48104,329.67032967033,6,3,1,60,1,0
48104,-100,6,3,1,60,0,0
56016,-100,6,3,1,60,0,0
63928,-100,3,3,1,60,0,0
65576,-10,3,3,1,60,0,0
65823,-66.6666666666667,3,3,1,5,0,0
65906,164.835164835165,6,3,1,60,1,1
65906,-133.333333333333,6,3,1,60,0,1
66565,-133.333333333333,6,3,2,60,0,1
66647,-133.333333333333,6,3,1,60,0,1
68543,-133.333333333333,6,3,2,60,0,1
68625,-133.333333333333,6,3,1,60,0,1
73817,-117.64705882353,6,3,1,60,0,1
74477,-117.64705882353,6,3,2,60,0,1
74559,-117.64705882353,6,3,1,60,0,1
76455,-117.64705882353,6,3,2,60,0,1
76537,-117.64705882353,6,3,1,60,0,1
80081,-117.64705882353,6,3,2,60,0,1
80164,-117.64705882353,6,3,1,60,0,1
80411,-117.64705882353,6,3,2,60,0,1
80493,-117.64705882353,6,3,1,60,0,1
81070,-117.64705882353,6,3,2,60,0,1
81153,-117.64705882353,6,3,1,60,0,1
81730,-105.263157894737,6,3,1,60,0,1
81895,-105.263157894737,6,3,2,60,0,1
81977,-105.263157894737,6,3,1,60,0,1
82224,-105.263157894737,6,3,2,60,0,1
82307,-105.263157894737,6,3,1,60,0,1
82884,-105.263157894737,6,3,2,60,0,1
82966,-105.263157894737,6,3,1,60,0,1
83213,-105.263157894737,6,3,2,60,0,1
83296,-105.263157894737,6,3,1,60,0,1
83873,-105.263157894737,6,3,2,60,0,1
83955,-105.263157894737,6,3,1,60,0,1
84202,-105.263157894737,6,3,2,60,0,1
84285,-105.263157894737,6,3,1,60,0,1
84862,-105.263157894737,6,3,2,60,0,1
84944,-105.263157894737,6,3,1,60,0,1
85191,-105.263157894737,6,3,2,60,0,1
85274,-105.263157894737,6,3,1,60,0,1
85851,-105.263157894737,6,3,2,60,0,1
85933,-105.263157894737,6,3,1,60,0,1
86180,-105.263157894737,6,3,2,60,0,1
86263,-105.263157894737,6,3,1,60,0,1
86840,-105.263157894737,6,3,2,60,0,1
86922,-105.263157894737,6,3,1,60,0,1
87169,-105.263157894737,6,3,2,60,0,1
87252,-105.263157894737,6,3,1,60,0,1
87829,-105.263157894737,6,3,2,60,0,1
87911,-105.263157894737,6,3,1,60,0,1
88158,-105.263157894737,6,3,2,60,0,1
88241,-105.263157894737,6,3,1,60,0,1
89477,-1500,6,3,1,60,0,0
89559,-1500,6,3,2,20,0,0
91620,164.835164835165,4,3,1,60,1,1
91620,-125,4,3,1,60,0,1
96894,-100,4,3,1,60,0,1
102169,-153.846153846153,4,3,1,60,0,1
104148,2637.36263736264,4,3,1,20,1,0
104148,-200,4,3,1,60,0,0
104477,164.835164835165,4,3,1,60,1,0
104477,-100,4,3,1,60,0,0

[Colours]
Combo1 : 128,0,128
Combo2 : 255,0,128
Combo3 : 128,0,255

[HitObjects]
62,115,0,6,0,P|99:89|155:84,1,75.0000028610231,2|0,0:0|0:0,0:0:0:0:
161,97,486,2,0,L|165:224,1,112.500004291535,0|2,0:0|0:0,0:0:0:0:
256,327,1621,1,0,0:0:0:0:
309,264,1953,6,0,P|340:254|426:270,1,112.500004291535,2|0,0:0|0:0,0:0:0:0:
349,157,2942,2,0,P|294:170|240:158,1,112.500004291535,2|0,0:0|0:0,0:0:0:0:
157,66,3929,6,0,L|143:168,1,75.0000028610231,2|0,0:0|0:0,0:0:0:0:
153,181,4426,2,0,P|100:153|39:161,1,112.500004291535,0|2,0:0|0:0,0:0:0:0:
19,234,5247,2,0,P|22:286|38:324,1,75.0000028610231,2|0,0:0|0:0,0:0:0:0:
107,333,5909,6,0,B|177:304|177:304|250:285|332:302,1,225.000008583069,2|2,0:0|0:0,0:0:0:0:
499,20,7887,5,4,0:0:0:0:
499,20,8052,2,0,L|488:123,2,100
221,199,9699,1,8,0:0:0:0:
172,173,9865,6,0,P|142:162|23:198,2,150,4|0|8,0:0|0:0|0:0,0:0:0:0:
280,190,11184,2,0,L|345:192,1,50
371,155,11514,2,0,L|436:157,1,50,8|0,0:0|0:0,0:0:0:0:
465,123,11843,5,4,0:0:0:0:
465,123,12008,2,0,L|472:254,2,100,0|0|0,0:0|0:0|0:0,0:0:0:0:
145,39,13657,1,8,0:0:0:0:
110,81,13819,6,0,P|97:148|142:232,2,150,4|0|8,0:0|0:0|0:0,0:0:0:0:
429,33,15797,6,0,L|439:128,1,75.0000028610231,4|8,0:0|0:0,0:0:0:0:
374,162,16126,2,0,L|384:257,1,75.0000028610231,0|8,0:0|0:0,0:0:0:0:
442,291,16455,2,0,P|336:255|272:270,1,150.000005722046,2|0,0:0|0:0,0:0:0:0:
185,140,17115,6,0,L|194:49,2,75.0000028610231,4|8|0,0:0|0:0|0:0,0:0:0:0:
130,202,17609,1,8,0:0:0:0:
89,274,17774,2,0,L|98:365,2,75.0000028610231,4|8|0,0:0|0:0|0:0,0:0:0:0:
245,325,18433,6,0,P|281:329|325:324,1,75.0000028610231,4|8,0:0|0:0,0:0:0:0:
347,247,18763,2,0,P|383:243|427:248,1,75.0000028610231,0|8,0:0|0:0,0:0:0:0:
475,310,19093,2,0,L|454:141,1,150.000005722046,2|0,0:0|0:0,0:0:0:0:
346,37,19752,5,2,0:0:0:0:
272,73,19917,2,0,L|185:63,1,75.0000028610231,12|2,0:0|0:0,0:0:0:0:
180,145,20247,2,0,L|93:135,1,75.0000028610231,12|2,0:0|0:0,0:0:0:0:
88,217,20576,2,0,L|1:207,2,75.0000028610231,14|0|8,0:0|0:0|0:0,0:0:0:0:
174,235,21071,6,0,P|217:255|251:301,1,80,12|8,0:0|0:0,0:0:0:0:
305,219,21401,2,0,P|348:198|382:152,1,80,0|8,0:0|0:0,0:0:0:0:
409,96,21730,2,0,L|438:278,1,160,2|0,0:0|0:0,0:0:0:0:
277,334,22390,6,0,L|289:254,2,80,4|8|0,0:0|0:0|0:0,0:0:0:0:
200,289,22884,1,8,0:0:0:0:
145,217,23049,2,0,L|132:137,2,80,4|8|0,0:0|0:0|0:0,0:0:0:0:
57,62,23708,6,0,P|91:43|131:36,1,80,4|8,0:0|0:0,0:0:0:0:
208,79,24038,2,0,P|242:98|282:105,1,80,0|8,0:0|0:0,0:0:0:0:
361,64,24368,2,0,P|370:124|302:196,1,160,6|0,0:0|0:0,0:0:0:0:
221,212,24862,1,8,0:0:0:0:
132,210,25027,6,0,P|75:262|79:340,2,160,4|0|0,0:0|0:0|0:0,0:0:0:0:
188,277,25851,1,8,0:0:0:0:
256,335,26016,1,0,0:0:0:0:
324,277,26181,1,8,0:0:0:0:
380,210,26346,2,0,P|436:262|432:340,2,160,0|8|0,0:0|0:0|0:0,0:0:0:0:
256,84,27335,1,8,0:0:0:0:
117,192,27664,2,0,L|135:358,1,160,8|8,0:0|0:0,0:0:0:0:
263,324,28324,6,0,P|296:320|329:324,1,59.9999981689454,14|8,0:0|0:0,0:0:0:0:
363,270,28653,2,0,P|396:274|429:270,1,59.9999981689454,0|8,0:0|0:0,0:0:0:0:
482,243,28983,2,0,L|486:112,1,119.999996337891,0|0,0:0|0:0,0:0:0:0:
384,37,29642,2,0,L|387:156,1,119.999996337891,0|0,0:0|0:0,0:0:0:0:
292,249,30302,5,0,0:0:0:0:
218,139,30631,2,0,P|146:113|38:129,1,179.999994506836,0|8,0:0|0:0,0:0:0:0:
9,181,31291,2,0,L|19:306,1,119.999996337891,0|0,0:0|0:0,0:0:0:0:
143,344,31950,2,0,P|180:331|219:334,1,59.9999981689454,0|8,0:0|0:0,0:0:0:0:
265,343,32280,6,0,L|390:338,1,119.999996337891,0|0,0:0|0:0,0:0:0:0:
475,241,32939,2,0,L|350:236,1,119.999996337891,0|0,0:0|0:0,0:0:0:0:
265,139,33598,2,0,L|390:134,1,119.999996337891,0|0,0:0|0:0,0:0:0:0:
475,37,34258,6,0,L|225:27,1,239.999992675781,0|0,0:0|0:0,0:0:0:0:
185,71,35082,1,8,0:0:0:0:
144,123,35247,2,0,P|137:175|153:248,2,119.999996337891,0|0|8,0:0|0:0|0:0,0:0:0:0:
105,68,36071,1,8,0:0:0:0:
49,30,36236,5,12,0:0:0:0:
19,158,36565,1,0,0:0:0:0:
19,158,36730,2,0,L|38:288,1,119.999996337891,8|8,0:0|0:0,0:0:0:0:
76,329,37225,2,0,P|110:284|180:266,1,119.999996337891,0|0,0:0|0:0,0:0:0:0:
300,274,37884,2,0,P|334:319|404:337,1,119.999996337891,0|0,0:0|0:0,0:0:0:0:
487,246,38543,2,0,P|505:158|471:76,1,179.999994506836,0|8,0:0|0:0,0:0:0:0:
422,31,39203,6,0,L|278:39,1,119.999996337891,0|0,0:0|0:0,0:0:0:0:
238,153,39862,2,0,L|94:145,1,119.999996337891,0|0,0:0|0:0,0:0:0:0:
64,267,40521,2,0,L|183:260,1,119.999996337891,0|0,0:0|0:0,0:0:0:0:
306,210,41181,2,0,P|326:154|295:84,2,119.999996337891,0|0|0,0:0|0:0|0:0,0:0:0:0:
431,247,42170,6,0,P|463:163|454:75,2,179.999994506836,0|8|0,0:0|0:0|0:0,0:0:0:0:
313,304,43488,1,0,0:0:0:0:
195,244,43818,2,0,P|165:239|135:237,1,59.9999981689454,8|8,0:0|0:0,0:0:0:0:
82,255,44148,6,0,B|85:105|85:105|121:29|226:38,2,300,12|12|12,0:0|0:0|0:0,0:0:0:0:
214,352,46620,1,8,0:0:0:0:
350,262,47115,1,12,0:0:0:0:
350,262,48104,5,14,0:0:0:0:
350,262,48268,2,0,P|365:188|346:128,1,100,0|0,0:0|0:0,0:0:0:0:
333,116,48764,2,0,P|259:101|199:120,1,100,8|0,0:0|0:0,0:0:0:0:
187,203,49422,2,0,P|113:218|53:199,1,100,0|8,0:0|0:0,0:0:0:0:
2,145,50082,5,0,0:0:0:0:
2,145,50246,2,0,L|11:279,1,100,0|0,0:0|0:0,0:0:0:0:
48,282,50741,2,0,L|57:416,1,100,8|0,0:0|0:0,0:0:0:0:
161,356,51400,2,0,L|167:256,1,100,0|8,0:0|0:0,0:0:0:0:
207,153,52060,5,12,0:0:0:0:
207,153,52224,2,0,P|260:160|315:154,1,100,0|0,0:0|0:0,0:0:0:0:
349,121,52719,2,0,P|398:114|448:118,1,100,8|0,0:0|0:0,0:0:0:0:
499,215,53378,2,0,P|505:264|501:314,1,100,0|8,0:0|0:0,0:0:0:0:
397,351,54038,6,0,P|321:335|239:346,2,150,0|8|8,0:0|0:0|0:0,0:0:0:0:
501,314,55356,2,0,P|505:264|499:215,1,100,8|8,0:0|0:0,0:0:0:0:
448,116,56016,5,12,0:0:0:0:
126,192,57005,1,8,0:0:0:0:
256,368,57664,2,0,P|296:366|339:349,1,50,0|8,0:0|0:0,0:0:0:0:
347,327,57994,5,12,0:0:0:0:
256,9,58983,1,8,0:0:0:0:
134,192,59642,2,0,L|146:263,1,50,0|8,0:0|0:0,0:0:0:0:
168,290,59972,6,0,B|117:290|117:290|21:338,2,150,12|8|8,0:0|0:0|0:0,0:0:0:0:
364,192,61620,2,0,L|431:192,1,50,8|8,0:0|0:0,0:0:0:0:
457,157,61950,6,0,P|435:226|472:320,2,150,12|0|8,0:0|0:0|0:0,0:0:0:0:
256,66,63598,2,0,L|191:62,1,50,8|8,0:0|0:0,0:0:0:0:
159,93,63928,5,0,0:0:0:0:
151,126,64092,1,0,0:0:0:0:
153,159,64257,1,0,0:0:0:0:
168,188,64422,1,0,0:0:0:0:
183,218,64587,1,0,0:0:0:0:
188,250,64752,1,0,0:0:0:0:
183,283,64917,1,0,0:0:0:0:
183,283,65576,6,0,P|162:329|164:244,1,250,14|0,1:0|2:0,0:0:0:0:
237,204,65906,6,0,P|265:232|277:271,2,75.0000028610231,14|8|0,0:0|0:0|0:0,0:0:0:0:
169,156,66400,2,8,L|330:144,1,150.000005722046,10|10,0:0|0:0,0:0:0:0:
400,158,66895,2,0,P|414:182|422:248,1,75.0000028610231,2|8,0:0|0:0,0:0:0:0:
349,264,67224,2,0,P|335:288|327:354,1,75.0000028610231,0|8,0:0|0:0,0:0:0:0:
244,353,67554,1,2,0:0:0:0:
244,353,67719,1,10,0:0:0:0:
244,353,67884,6,0,P|192:302|94:284,1,150.000005722046,6|0,0:0|0:0,0:0:0:0:
37,295,68378,2,8,P|88:243|106:145,1,150.000005722046,10|10,0:0|0:0,0:0:0:0:
95,88,68873,2,0,P|147:139|245:157,1,150.000005722046,2|0,0:0|0:0,0:0:0:0:
298,135,69367,1,8,0:0:0:0:
374,167,69532,2,0,P|386:217|381:263,1,75.0000028610231,2|10,0:0|0:0,0:0:0:0:
349,314,69862,6,0,P|401:298|499:309,2,150.000005722046,6|0|0,0:0|0:0|0:0,0:0:0:0:
272,345,70686,1,8,0:0:0:0:
210,291,70850,2,0,P|158:275|60:286,2,150.000005722046,2|2|2,0:0|0:0|0:0,0:0:0:0:
256,219,71675,1,8,0:0:0:0:
325,174,71840,6,0,P|341:114|314:33,2,150.000005722046,6|0|2,0:0|0:0|0:0,0:0:0:0:
256,219,72664,1,10,0:0:0:0:
199,158,72829,2,0,P|173:156|121:177,1,75.0000028610231,6|8,0:0|0:0,0:0:0:0:
88,244,73158,2,0,P|86:270|107:322,1,75.0000028610231,2|14,0:0|0:0,0:0:0:0:
176,351,73488,2,0,P|202:353|254:332,1,75.0000028610231,2|10,0:0|0:0,0:0:0:0:
284,259,73818,6,0,P|350:253|450:317,1,170.000003242493,14|0,0:0|0:0,0:0:0:0:
480,375,74312,2,8,L|448:173,1,170.000003242493,10|10,0:0|0:0,0:0:0:0:
371,233,74807,2,8,L|403:31,1,170.000003242493,2|0,0:0|0:0,0:0:0:0:
324,21,75301,1,8,0:0:0:0:
242,46,75466,2,0,P|225:71|217:129,1,85.0000016212464,2|10,0:0|0:0,0:0:0:0:
273,187,75796,6,0,P|202:206|133:137,1,170.000003242493,6|0,0:0|0:0,0:0:0:0:
108,65,76290,2,8,L|93:241,1,170.000003242493,10|10,0:0|0:0,0:0:0:0:
97,319,76785,2,0,P|129:335|188:335,1,85.0000016212464,2|8,0:0|0:0,0:0:0:0:
230,270,77114,2,0,P|262:254|321:254,1,85.0000016212464,0|8,0:0|0:0,0:0:0:0:
363,319,77444,2,0,P|395:335|454:335,1,85.0000016212464,2|10,0:0|0:0,0:0:0:0:
503,276,77774,6,0,P|510:184|479:71,1,170.000003242493,6|0,0:0|0:0,0:0:0:0:
424,59,78268,1,8,0:0:0:0:
336,44,78433,2,0,B|251:36|251:36|163:52,2,170.000003242493,2|2|2,0:0|0:0|0:0,0:0:0:0:
369,122,79257,1,8,0:0:0:0:
353,205,79422,2,0,P|337:253|300:295,1,85.0000016212464,2|8,0:0|0:0,0:0:0:0:
236,310,79752,5,6,0:0:0:0:
170,257,79916,2,8,P|98:248|40:342,2,170.000003242493
125,330,80741,2,0,L|100:49,1,255.000004863739,6|8,0:0|0:0,0:0:0:0:
172,28,81400,2,0,P|212:41|265:37,1,85.0000016212464,10|10,0:0|0:0,0:0:0:0:
322,92,81730,6,0,P|392:80|497:129,2,189.999994926453,14|8|8,0:0|0:0|0:0,0:0:0:0:
208,220,82719,2,0,P|138:232|33:183,2,189.999994926453,14|8|10,0:0|0:0|0:0,0:0:0:0:
264,155,83543,1,0,0:0:0:0:
343,115,83708,6,0,L|361:340,2,189.999994926453,14|8|8,0:0|0:0|0:0,0:0:0:0:
208,220,84696,2,0,L|190:-5,2,189.999994926453,14|8|8,0:0|0:0|0:0,0:0:0:0:
143,277,85521,1,0,0:0:0:0:
59,306,85686,6,0,P|41:242|77:113,2,189.999994926453,14|8|8,0:0|0:0|0:0,0:0:0:0:
229,312,86674,2,0,P|293:294|422:330,2,189.999994926453,14|8|8,0:0|0:0|0:0,0:0:0:0:
150,275,87499,1,0,0:0:0:0:
86,215,87664,5,8,0:0:0:0:
192,82,87993,2,0,L|294:88,1,94.9999974632264,8|0,0:0|0:0,0:0:0:0:
327,163,88323,2,0,L|429:157,1,94.9999974632264,8|0,0:0|0:0,0:0:0:0:
456,252,88653,5,8,0:0:0:0:
418,249,88817,1,8,0:0:0:0:
380,247,88982,1,8,0:0:0:0:
342,245,89147,1,8,0:0:0:0:
304,243,89312,1,8,0:0:0:0:
266,240,89477,6,0,P|218:238|156:254,1,110,12|2,0:0|0:0,0:0:0:0:
64,362,91620,6,0,L|155:355,1,80,4|8,0:0|0:0,0:0:0:0:
231,364,91949,2,0,L|322:357,1,80,0|8,0:0|0:0,0:0:0:0:
388,315,92279,2,0,P|355:279|269:277,2,120,2|2|10,0:0|0:0|0:0,0:0:0:0:
461,265,92938,6,0,L|473:182,1,80,6|8,0:0|0:0,0:0:0:0:
386,163,93268,2,0,L|398:80,1,80,0|8,0:0|0:0,0:0:0:0:
318,39,93598,6,0,L|306:122,1,80,4|8,0:0|0:0,0:0:0:0:
233,169,93928,2,0,L|245:252,1,80,0|8,0:0|0:0,0:0:0:0:
207,328,94257,6,0,P|165:339|111:335,1,80,4|8,0:0|0:0,0:0:0:0:
63,278,94587,2,0,P|52:236|56:182,1,80,0|8,0:0|0:0,0:0:0:0:
100,125,94916,2,0,P|45:137|5:82,2,120,2|2|10,0:0|0:0|0:0,0:0:0:0:
165,78,95576,5,0,0:0:0:0:
242,117,95740,2,0,L|337:116,1,80,12|0,0:0|0:0,0:0:0:0:
294,200,96070,2,0,L|389:199,1,80,12|0,0:0|0:0,0:0:0:0:
346,283,96400,2,8,L|441:282,2,80,12|8|8,0:0|0:0|0:0,0:0:0:0:
254,322,96894,6,0,L|138:314,1,100,4|8,0:0|0:0,0:0:0:0:
89,237,97224,2,0,L|205:229,1,100,0|8,0:0|0:0,0:0:0:0:
283,197,97554,2,0,P|239:141|154:134,2,150,2|2|8,0:0|0:0|0:0,0:0:0:0:
354,260,98213,6,0,P|396:268|457:262,1,100,4|8,0:0|0:0,0:0:0:0:
508,179,98543,2,0,P|516:137|510:76,1,100,0|8,0:0|0:0,0:0:0:0:
440,17,98872,6,0,P|398:9|337:15,1,100,4|8,0:0|0:0,0:0:0:0:
286,98,99202,2,0,P|278:140|284:201,1,100,0|8,0:0|0:0,0:0:0:0:
228,281,99532,6,0,B|181:297|181:297|126:292,1,100,4|8,0:0|0:0,0:0:0:0:
149,194,99861,2,0,B|102:178|102:178|51:182,1,100,0|8,0:0|0:0,0:0:0:0:
33,83,100191,2,0,B|115:77|115:77|193:103,2,150,2|2|10,0:0|0:0|0:0,0:0:0:0:
110,20,100850,6,0,L|340:14,1,200,4|0,0:0|0:0,0:0:0:0:
385,81,101345,1,8,0:0:0:0:
440,167,101510,2,0,L|210:161,1,200
149,205,102004,1,8,0:0:0:0:
118,299,102169,5,12,0:0:0:0:
237,333,102499,2,0,L|319:331,1,64.9999970245363,8|8,0:0|0:0,0:0:0:0:
337,277,102828,2,0,L|419:279,1,64.9999970245363,0|0,0:0|0:0,0:0:0:0:
449,233,103158,1,12,0:0:0:0:
488,108,103488,5,8,0:0:0:0:
468,63,103652,1,8,0:0:0:0:
430,34,103817,1,8,0:0:0:0:
382,26,103982,2,0,L|345:29,1,32.4999985122681,8|8,0:0|0:0,0:0:0:0:
120,129,104477,5,14,0:0:0:0:
256,192,104641,12,0,108597,0:0:0:0:
