osu file format v14

[General]
AudioFilename: audio.mp3
AudioLeadIn: 0
PreviewTime: 15632
Countdown: 1
SampleSet: None
StackLeniency: 0.7
Mode: 3
LetterboxInBreaks: 0
SpecialStyle: 0
WidescreenStoryboard: 1

[Editor]
DistanceSpacing: 1.1
BeatDivisor: 2
GridSize: 32
TimelineZoom: 1.8

[Metadata]
Title:DROPOUT!?
TitleUnicode:DROPOUT!?
Artist:Saint Snow
ArtistUnicode:Saint Snow
Creator:Bara-
Version:HitsoundsWF
Source:ラブライブ!サンシャイン!!
Tags:
BeatmapID:1494102
BeatmapSetID:705449

[Difficulty]
HPDrainRate:7
CircleSize:4
OverallDifficulty:9
ApproachRate:6
SliderMultiplier:1.59999996185303
SliderTickRate:1

[Events]
//Background and Video events
//Break Periods
2,10063,10791
//Storyboard Layer 0 (Background)
//Storyboard Layer 1 (Fail)
//Storyboard Layer 2 (Pass)
//Storyboard Layer 3 (Foreground)
//Storyboard Sound Samples

[TimingPoints]
0,324.324324324324,6,2,1,40,1,0
0,-100,6,2,1,40,0,0
1951,329.67032967033,6,2,1,40,1,0
1951,-100,6,2,1,40,0,0
7885,-100,6,3,1,60,0,0
15796.6299475135,164.835164835165,4,3,1,60,1,1
15797,-200,4,3,1,60,0,1
28324,164.835164835165,6,3,1,60,1,0
28324,-200,6,3,1,60,0,0
44148,-200,6,3,1,60,0,0
48104,329.67032967033,3,3,1,60,1,0
65906,164.835164835165,6,3,1,60,1,1
65906,-200,6,3,1,60,0,1
81730,-166.666666666667,6,3,1,60,0,1
89477,-200,6,3,1,60,0,0
91620,164.835164835165,4,3,1,60,1,1
91620,-200,4,3,1,60,0,1
102170,-200,4,3,1,60,0,1
104148,2637.36263736264,4,3,1,60,1,0
104148,-25,4,3,1,60,0,0
104477,164.835164835165,4,3,1,60,1,0
104477,-100,4,3,1,60,0,0

[Colours]
Combo1 : 128,0,128
Combo2 : 255,0,128
Combo3 : 128,0,255

[HitObjects]
64,192,0,5,2,0:0:0:0:
320,192,0,1,4,0:0:0:0:
64,192,486,1,2,0:0:0:0:
64,192,972,1,2,0:0:0:0:
64,192,1621,1,2,0:0:0:0:
320,192,1945,1,4,0:0:0:0:
64,192,1945,1,2,0:0:0:0:
64,192,2940,1,2,0:0:0:0:
64,192,3434,1,2,0:0:0:0:
320,192,3929,1,4,0:0:0:0:
64,192,3929,1,2,0:0:0:0:
64,192,4423,1,2,0:0:0:0:
64,192,4918,1,2,0:0:0:0:
64,192,5247,1,2,0:0:0:0:
64,192,5577,1,2,0:0:0:0:
320,192,5907,1,4,0:0:0:0:
64,192,5907,1,2,0:0:0:0:
64,192,6896,1,2,0:0:0:0:
320,192,7885,1,4,0:0:0:0:
64,192,7885,1,2,0:0:0:0:
320,192,9863,1,4,0:0:0:0:
320,192,11841,5,4,0:0:0:0:
320,192,13819,1,4,0:0:0:0:
320,192,14808,1,4,0:0:0:0:
320,192,15797,5,4,0:0:0:0:
64,192,15879,5,2,0:0:0:0:
64,192,16043,1,2,0:0:0:0:
64,192,16208,1,2,0:0:0:0:
64,192,16373,1,2,0:0:0:0:
64,192,16455,1,2,0:0:0:0:
64,192,16703,1,2,0:0:0:0:
64,192,16950,1,2,0:0:0:0:
320,192,17115,1,4,0:0:0:0:
64,192,17197,1,2,0:0:0:0:
64,192,17362,1,2,0:0:0:0:
64,192,17527,1,2,0:0:0:0:
64,192,17692,1,2,0:0:0:0:
320,192,17774,1,4,0:0:0:0:
64,192,17857,1,2,0:0:0:0:
64,192,18021,1,2,0:0:0:0:
64,192,18186,1,2,0:0:0:0:
64,192,18351,1,2,0:0:0:0:
320,192,18433,1,4,0:0:0:0:
64,192,18516,1,2,0:0:0:0:
64,192,18681,1,2,0:0:0:0:
64,192,18846,1,2,0:0:0:0:
64,192,19010,1,2,0:0:0:0:
64,192,19093,1,2,0:0:0:0:
64,192,19340,1,2,0:0:0:0:
64,192,19587,1,2,0:0:0:0:
320,192,19752,1,4,0:0:0:0:
64,192,19917,1,2,0:0:0:0:
320,192,19917,1,4,0:0:0:0:
64,192,20247,1,2,0:0:0:0:
320,192,20247,1,4,0:0:0:0:
64,192,20576,1,2,0:0:0:0:
320,192,20576,1,4,0:0:0:0:
320,192,21071,1,4,0:0:0:0:
64,192,21153,1,2,0:0:0:0:
64,192,21318,1,2,0:0:0:0:
64,192,21483,1,2,0:0:0:0:
64,192,21648,1,2,0:0:0:0:
64,192,21730,1,2,0:0:0:0:
64,192,21977,1,2,0:0:0:0:
64,192,22225,1,2,0:0:0:0:
320,192,22390,1,4,0:0:0:0:
64,192,22472,1,2,0:0:0:0:
64,192,22637,1,2,0:0:0:0:
64,192,22802,1,2,0:0:0:0:
64,192,22966,1,2,0:0:0:0:
320,192,23049,1,4,0:0:0:0:
64,192,23131,1,2,0:0:0:0:
64,192,23296,1,2,0:0:0:0:
64,192,23461,1,2,0:0:0:0:
64,192,23626,1,2,0:0:0:0:
320,192,23708,1,4,0:0:0:0:
64,192,23791,1,2,0:0:0:0:
64,192,23955,1,2,0:0:0:0:
64,192,24120,1,2,0:0:0:0:
64,192,24285,1,2,0:0:0:0:
64,192,24368,1,2,0:0:0:0:
64,192,24615,1,2,0:0:0:0:
64,192,24862,1,2,0:0:0:0:
320,192,25027,1,4,0:0:0:0:
64,192,25109,1,2,0:0:0:0:
64,192,25274,1,2,0:0:0:0:
64,192,25439,1,2,0:0:0:0:
64,192,25604,1,2,0:0:0:0:
320,192,25686,1,4,0:0:0:0:
64,192,25769,1,2,0:0:0:0:
64,192,25933,1,2,0:0:0:0:
64,192,26098,1,2,0:0:0:0:
64,192,26263,1,2,0:0:0:0:
320,192,26346,1,4,0:0:0:0:
320,192,26675,1,4,0:0:0:0:
320,192,27335,1,4,0:0:0:0:
320,192,27664,1,4,0:0:0:0:
320,192,28324,1,4,0:0:0:0:
320,192,32280,1,4,0:0:0:0:
320,192,34258,1,4,0:0:0:0:
320,192,36236,1,4,0:0:0:0:
320,192,39203,1,4,0:0:0:0:
320,192,40192,1,4,0:0:0:0:
320,192,41181,1,4,0:0:0:0:
320,192,42170,1,4,0:0:0:0:
320,192,43159,1,4,0:0:0:0:
320,192,44148,1,4,0:0:0:0:
320,192,45137,1,4,0:0:0:0:
320,192,46126,1,4,0:0:0:0:
320,192,47115,1,4,0:0:0:0:
320,192,48104,1,4,0:0:0:0:
320,192,50082,1,4,0:0:0:0:
320,192,52060,1,4,0:0:0:0:
320,192,54038,1,4,0:0:0:0:
320,192,56016,1,4,0:0:0:0:
64,192,56016,1,2,0:0:0:0:
320,192,57005,1,4,0:0:0:0:
64,192,57005,1,2,0:0:0:0:
320,192,57994,1,4,0:0:0:0:
64,192,57994,1,2,0:0:0:0:
320,192,58983,1,4,0:0:0:0:
64,192,58983,1,2,0:0:0:0:
320,192,59972,1,4,0:0:0:0:
64,192,59972,1,2,0:0:0:0:
320,192,60961,1,4,0:0:0:0:
64,192,60961,1,2,0:0:0:0:
320,192,61950,1,4,0:0:0:0:
64,192,61950,1,2,0:0:0:0:
320,192,62939,1,4,0:0:0:0:
320,192,63928,1,4,0:0:0:0:
320,192,65576,5,4,0:0:0:0:
64,192,65906,5,2,0:0:0:0:
320,192,65906,1,4,0:0:0:0:
64,192,66400,1,2,0:0:0:0:
64,192,66730,1,2,0:0:0:0:
64,192,66895,1,2,0:0:0:0:
64,192,67554,1,2,0:0:0:0:
64,192,67719,1,2,0:0:0:0:
320,192,67884,1,4,0:0:0:0:
64,192,67884,1,2,0:0:0:0:
64,192,68378,1,2,0:0:0:0:
64,192,68708,1,2,0:0:0:0:
64,192,68873,1,2,0:0:0:0:
64,192,69532,1,2,0:0:0:0:
64,192,69697,1,2,0:0:0:0:
320,192,69862,1,4,0:0:0:0:
64,192,69862,1,2,0:0:0:0:
64,192,70191,1,2,0:0:0:0:
64,192,70521,1,2,0:0:0:0:
320,192,70851,1,4,0:0:0:0:
64,192,70851,1,2,0:0:0:0:
64,192,71180,1,2,0:0:0:0:
64,192,71510,1,2,0:0:0:0:
320,192,71840,1,4,0:0:0:0:
64,192,71840,1,2,0:0:0:0:
64,192,72499,1,2,0:0:0:0:
64,192,72664,1,2,0:0:0:0:
320,192,72829,1,4,0:0:0:0:
64,192,72829,1,2,0:0:0:0:
64,192,73158,1,2,0:0:0:0:
64,192,73323,1,2,0:0:0:0:
64,192,73488,1,2,0:0:0:0:
64,192,73653,1,2,0:0:0:0:
320,192,73818,1,4,0:0:0:0:
64,192,73818,1,2,0:0:0:0:
64,192,74312,1,2,0:0:0:0:
64,192,74642,1,2,0:0:0:0:
64,192,74807,1,2,0:0:0:0:
64,192,75466,1,2,0:0:0:0:
64,192,75631,1,2,0:0:0:0:
320,192,75796,1,4,0:0:0:0:
64,192,75796,1,2,0:0:0:0:
64,192,76290,1,2,0:0:0:0:
64,192,76620,1,2,0:0:0:0:
64,192,76785,1,2,0:0:0:0:
64,192,77444,1,2,0:0:0:0:
64,192,77609,1,2,0:0:0:0:
320,192,77774,1,4,0:0:0:0:
64,192,77774,1,2,0:0:0:0:
64,192,78433,1,2,0:0:0:0:
320,192,78763,1,4,0:0:0:0:
64,192,78763,1,2,0:0:0:0:
64,192,79092,1,2,0:0:0:0:
64,192,79422,1,2,0:0:0:0:
320,192,79752,1,4,0:0:0:0:
64,192,79752,1,2,0:0:0:0:
320,192,80741,1,4,0:0:0:0:
64,192,80741,1,2,0:0:0:0:
64,192,81400,1,2,0:0:0:0:
64,192,81565,1,2,0:0:0:0:
320,192,81730,1,4,0:0:0:0:
64,192,81730,1,2,0:0:0:0:
320,192,82719,1,4,0:0:0:0:
64,192,82719,1,2,0:0:0:0:
64,192,83378,1,2,0:0:0:0:
320,192,83708,1,4,0:0:0:0:
64,192,83708,1,2,0:0:0:0:
320,192,84697,1,4,0:0:0:0:
64,192,84697,1,2,0:0:0:0:
320,192,85686,1,4,0:0:0:0:
64,192,85686,1,2,0:0:0:0:
320,192,86675,1,4,0:0:0:0:
64,192,86675,1,2,0:0:0:0:
320,192,87664,1,4,0:0:0:0:
64,192,87664,1,2,0:0:0:0:
320,192,88653,1,4,0:0:0:0:
64,192,88653,1,2,0:0:0:0:
320,192,88818,1,4,0:0:0:0:
320,192,88982,1,4,0:0:0:0:
320,192,89147,1,4,0:0:0:0:
320,192,89312,1,4,0:0:0:0:
320,192,89477,1,4,0:0:0:0:
64,192,89642,1,2,0:0:0:0:
320,192,91620,1,4,0:0:0:0:
64,192,91702,1,2,0:0:0:0:
64,192,91867,1,2,0:0:0:0:
64,192,92032,1,2,0:0:0:0:
64,192,92196,1,2,0:0:0:0:
64,192,92361,1,2,0:0:0:0:
64,192,92526,1,2,0:0:0:0:
64,192,92691,1,2,0:0:0:0:
64,192,92856,1,2,0:0:0:0:
320,192,92938,1,4,0:0:0:0:
64,192,93021,1,2,0:0:0:0:
64,192,93185,1,2,0:0:0:0:
64,192,93350,1,2,0:0:0:0:
64,192,93515,1,2,0:0:0:0:
320,192,93598,1,4,0:0:0:0:
64,192,93680,1,2,0:0:0:0:
64,192,93845,1,2,0:0:0:0:
64,192,94010,1,2,0:0:0:0:
64,192,94174,1,2,0:0:0:0:
320,192,94257,1,4,0:0:0:0:
64,192,94339,1,2,0:0:0:0:
64,192,94504,1,2,0:0:0:0:
64,192,94669,1,2,0:0:0:0:
64,192,94834,1,2,0:0:0:0:
64,192,94999,1,2,0:0:0:0:
64,192,95163,1,2,0:0:0:0:
64,192,95328,1,2,0:0:0:0:
64,192,95493,1,2,0:0:0:0:
320,192,95576,1,4,0:0:0:0:
64,192,95658,1,2,0:0:0:0:
320,192,95740,1,4,0:0:0:0:
64,192,95823,1,2,0:0:0:0:
64,192,95988,1,2,0:0:0:0:
320,192,96070,1,4,0:0:0:0:
64,192,96152,1,2,0:0:0:0:
64,192,96317,1,2,0:0:0:0:
320,192,96400,1,4,0:0:0:0:
64,192,96482,1,2,0:0:0:0:
64,192,96647,1,2,0:0:0:0:
64,192,96812,1,2,0:0:0:0:
320,192,96894,1,4,0:0:0:0:
64,192,96977,1,2,0:0:0:0:
64,192,97141,1,2,0:0:0:0:
64,192,97306,1,2,0:0:0:0:
64,192,97471,1,2,0:0:0:0:
64,192,97636,1,2,0:0:0:0:
64,192,97801,1,2,0:0:0:0:
64,192,97966,1,2,0:0:0:0:
64,192,98130,1,2,0:0:0:0:
320,192,98213,1,4,0:0:0:0:
64,192,98295,1,2,0:0:0:0:
64,192,98460,1,2,0:0:0:0:
64,192,98625,1,2,0:0:0:0:
64,192,98790,1,2,0:0:0:0:
320,192,98872,1,4,0:0:0:0:
64,192,98955,1,2,0:0:0:0:
64,192,99120,1,2,0:0:0:0:
64,192,99284,1,2,0:0:0:0:
64,192,99449,1,2,0:0:0:0:
320,192,99532,1,4,0:0:0:0:
64,192,99614,1,2,0:0:0:0:
64,192,99779,1,2,0:0:0:0:
64,192,99944,1,2,0:0:0:0:
64,192,100109,1,2,0:0:0:0:
64,192,100273,1,2,0:0:0:0:
64,192,100438,1,2,0:0:0:0:
64,192,100603,1,2,0:0:0:0:
64,192,100768,1,2,0:0:0:0:
320,192,100850,1,4,0:0:0:0:
64,192,100933,1,2,0:0:0:0:
64,192,101098,1,2,0:0:0:0:
64,192,101262,1,2,0:0:0:0:
64,192,101427,1,2,0:0:0:0:
320,192,101510,1,4,0:0:0:0:
64,192,101592,1,2,0:0:0:0:
64,192,101757,1,2,0:0:0:0:
320,192,101839,1,4,0:0:0:0:
64,192,101922,1,2,0:0:0:0:
64,192,102087,1,2,0:0:0:0:
320,192,102169,1,4,0:0:0:0:
320,192,103158,1,4,0:0:0:0:
320,192,104477,1,4,0:0:0:0:
