osu file format v14

[General]
AudioFilename: audio.mp3
AudioLeadIn: 0
PreviewTime: 15632
Countdown: 0
SampleSet: None
StackLeniency: 0.7
Mode: 1
LetterboxInBreaks: 0
WidescreenStoryboard: 1

[Editor]
DistanceSpacing: 1.1
BeatDivisor: 2
GridSize: 32
TimelineZoom: 1.9

[Metadata]
Title:DROPOUT!?
TitleUnicode:DROPOUT!?
Artist:Saint Snow
ArtistUnicode:Saint Snow
Creator:Bara-
Version:AWAKEN THE DRUMS!
Source:ラブライブ!サンシャイン!!
Tags:Kazuno Sarah 鹿角聖良 Tano Asami 田野 アサミ Kazuno Leah 鹿角理亞 Satou Hinata 佐藤 日向 school idol project tv size lovelive Love Live! Sunshine!! Awaken the power CRASH MIND
BeatmapID:1492066
BeatmapSetID:705449

[Difficulty]
HPDrainRate:4
CircleSize:4
OverallDifficulty:8
ApproachRate:6
SliderMultiplier:1.59999996185303
SliderTickRate:1

[Events]
//Background and Video events
0,0,"SaintSnow is bae.png",0,0
//Break Periods
//Storyboard Layer 0 (Background)
//Storyboard Layer 1 (Fail)
//Storyboard Layer 2 (Pass)
//Storyboard Layer 3 (Foreground)
//Storyboard Sound Samples

[TimingPoints]
0,324.324324324324,6,2,1,40,1,0
0,-200,6,2,1,40,0,0
1951,329.67032967033,6,2,1,40,1,0
1951,-200,6,2,1,40,0,0
7885,-100,6,3,1,60,0,0
15796.6299475135,164.835164835165,4,3,1,60,1,1
15797,-181.818181818182,4,3,1,60,0,1
28324,164.835164835165,6,3,1,60,1,0
28324,-200,6,3,1,60,0,0
44148,-200,6,3,1,60,0,0
48104,329.67032967033,3,3,1,60,1,0
63928,-200,3,3,1,60,0,0
65576,-50,3,3,1,60,0,0
65906,164.835164835165,6,3,1,60,1,1
65906,-200,6,3,1,60,0,1
81730,-200,6,3,1,60,0,1
89477,-200,6,3,1,60,0,0
91620,164.835164835165,4,3,1,60,1,1
91620,-200,4,3,1,60,0,1
102170,-200,4,3,1,60,0,1
104148,2637.36263736264,4,3,1,60,1,0
104148,-25,4,3,1,60,0,0
104477,164.835164835165,4,3,1,60,1,0
104477,-100,4,3,1,60,0,0

[Colours]
Combo1 : 128,0,128
Combo2 : 255,0,128
Combo3 : 128,0,255

[HitObjects]
256,192,0,5,2,0:0:0:0:
256,192,162,1,0,0:0:0:0:
256,192,324,1,0,0:0:0:0:
256,192,486,1,2,0:0:0:0:
256,192,810,1,0,0:0:0:0:
256,192,972,1,2,0:0:0:0:
256,192,1621,1,2,0:0:0:0:
256,192,1945,1,2,0:0:0:0:
256,192,2115,1,0,0:0:0:0:
256,192,2280,1,0,0:0:0:0:
256,192,2445,1,2,0:0:0:0:
256,192,2610,1,0,0:0:0:0:
256,192,2775,1,0,0:0:0:0:
256,192,2940,1,2,0:0:0:0:
256,192,3104,1,0,0:0:0:0:
256,192,3269,1,0,0:0:0:0:
256,192,3434,1,2,0:0:0:0:
256,192,3599,1,0,0:0:0:0:
256,192,3764,1,0,0:0:0:0:
256,192,3929,1,2,0:0:0:0:
256,192,4093,1,0,0:0:0:0:
256,192,4258,1,0,0:0:0:0:
256,192,4423,1,2,0:0:0:0:
256,192,4753,1,0,0:0:0:0:
256,192,4918,1,2,0:0:0:0:
256,192,5247,1,2,0:0:0:0:
256,192,5577,1,0,0:0:0:0:
256,192,5907,1,2,0:0:0:0:
256,192,6071,1,0,0:0:0:0:
256,192,6236,1,0,0:0:0:0:
256,192,6401,1,2,0:0:0:0:
256,192,6566,1,0,0:0:0:0:
256,192,6731,1,0,0:0:0:0:
256,192,6896,1,2,0:0:0:0:
256,192,7060,1,0,0:0:0:0:
256,192,7225,1,0,0:0:0:0:
256,192,7390,1,2,0:0:0:0:
256,192,7555,1,0,0:0:0:0:
256,192,7720,1,0,0:0:0:0:
256,192,7885,1,8,0:0:0:0:
256,192,8049,1,0,0:0:0:0:
256,192,8379,1,8,0:0:0:0:
256,192,8708,1,0,0:0:0:0:
256,192,8791,1,0,0:0:0:0:
256,192,8873,1,8,0:0:0:0:
256,192,9698,1,8,0:0:0:0:
256,192,9780,1,8,0:0:0:0:
256,192,9863,1,4,0:0:0:0:
256,192,10027,1,8,0:0:0:0:
256,192,10357,1,8,0:0:0:0:
256,192,10687,1,0,0:0:0:0:
256,192,10852,1,8,0:0:0:0:
256,192,11181,1,0,0:0:0:0:
256,192,11264,1,0,0:0:0:0:
256,192,11346,1,8,0:0:0:0:
256,192,11511,1,8,0:0:0:0:
256,192,11676,1,0,0:0:0:0:
256,192,11841,1,8,0:0:0:0:
256,192,12005,1,0,0:0:0:0:
256,192,12335,1,8,0:0:0:0:
256,192,12665,1,0,0:0:0:0:
256,192,12747,1,0,0:0:0:0:
256,192,12830,1,8,0:0:0:0:
256,192,13654,1,8,0:0:0:0:
256,192,13736,1,8,0:0:0:0:
256,192,13819,1,4,0:0:0:0:
256,192,13983,1,8,0:0:0:0:
256,192,14313,1,8,0:0:0:0:
256,192,14643,1,0,0:0:0:0:
256,192,14808,1,8,0:0:0:0:
256,192,15797,1,2,0:0:0:0:
256,192,15879,1,2,0:0:0:0:
256,192,15961,1,8,0:0:0:0:
256,192,16043,1,0,0:0:0:0:
256,192,16126,1,0,0:0:0:0:
256,192,16208,1,2,0:0:0:0:
256,192,16291,1,8,0:0:0:0:
256,192,16373,1,0,0:0:0:0:
256,192,16455,1,2,0:0:0:0:
256,192,16620,1,8,0:0:0:0:
256,192,16703,1,0,0:0:0:0:
256,192,16868,1,2,0:0:0:0:
256,192,16950,1,8,0:0:0:0:
256,192,17115,1,2,0:0:0:0:
256,192,17197,1,0,0:0:0:0:
256,192,17280,1,8,0:0:0:0:
256,192,17362,1,2,0:0:0:0:
256,192,17444,1,0,0:0:0:0:
256,192,17527,1,2,0:0:0:0:
256,192,17609,1,8,0:0:0:0:
256,192,17692,1,0,0:0:0:0:
256,192,17774,1,2,0:0:0:0:
256,192,17857,1,2,0:0:0:0:
256,192,17939,1,8,0:0:0:0:
256,192,18021,1,2,0:0:0:0:
256,192,18104,1,0,0:0:0:0:
256,192,18186,1,2,0:0:0:0:
256,192,18269,1,8,0:0:0:0:
256,192,18351,1,0,0:0:0:0:
256,192,18433,1,8,0:0:0:0:
256,192,18516,1,2,0:0:0:0:
256,192,18598,1,8,0:0:0:0:
256,192,18681,1,0,0:0:0:0:
256,192,18763,1,2,0:0:0:0:
256,192,18846,1,0,0:0:0:0:
256,192,18928,1,8,0:0:0:0:
256,192,19010,1,2,0:0:0:0:
256,192,19093,1,0,0:0:0:0:
256,192,19258,1,8,0:0:0:0:
256,192,19340,1,8,0:0:0:0:
256,192,19505,1,0,0:0:0:0:
256,192,19587,1,8,0:0:0:0:
256,192,19752,1,0,0:0:0:0:
256,192,19835,1,2,0:0:0:0:
256,192,19917,1,8,0:0:0:0:
256,192,19999,1,0,0:0:0:0:
256,192,20082,1,0,0:0:0:0:
256,192,20164,1,2,0:0:0:0:
256,192,20247,1,8,0:0:0:0:
256,192,20329,1,0,0:0:0:0:
256,192,20412,1,2,0:0:0:0:
256,192,20494,1,2,0:0:0:0:
256,192,20576,1,8,0:0:0:0:
256,192,20659,1,0,0:0:0:0:
256,192,20741,1,8,0:0:0:0:
256,192,20824,1,8,0:0:0:0:
256,192,20906,1,8,0:0:0:0:
256,192,20988,1,0,0:0:0:0:
256,192,21071,1,2,0:0:0:0:
256,192,21153,1,2,0:0:0:0:
256,192,21235,1,8,0:0:0:0:
256,192,21317,1,0,0:0:0:0:
256,192,21400,1,0,0:0:0:0:
256,192,21482,1,2,0:0:0:0:
256,192,21565,1,8,0:0:0:0:
256,192,21647,1,0,0:0:0:0:
256,192,21729,1,2,0:0:0:0:
256,192,21894,1,8,0:0:0:0:
256,192,21977,1,0,0:0:0:0:
256,192,22142,1,2,0:0:0:0:
256,192,22224,1,8,0:0:0:0:
256,192,22389,1,2,0:0:0:0:
256,192,22471,1,0,0:0:0:0:
256,192,22554,1,8,0:0:0:0:
256,192,22636,1,2,0:0:0:0:
256,192,22718,1,0,0:0:0:0:
256,192,22801,1,2,0:0:0:0:
256,192,22883,1,8,0:0:0:0:
256,192,22966,1,0,0:0:0:0:
256,192,23048,1,2,0:0:0:0:
256,192,23131,1,2,0:0:0:0:
256,192,23213,1,8,0:0:0:0:
256,192,23295,1,2,0:0:0:0:
256,192,23378,1,0,0:0:0:0:
256,192,23460,1,2,0:0:0:0:
256,192,23543,1,8,0:0:0:0:
256,192,23625,1,0,0:0:0:0:
256,192,23707,1,8,0:0:0:0:
256,192,23790,1,2,0:0:0:0:
256,192,23872,1,8,0:0:0:0:
256,192,23955,1,0,0:0:0:0:
256,192,24037,1,2,0:0:0:0:
256,192,24120,1,0,0:0:0:0:
256,192,24202,1,8,0:0:0:0:
256,192,24284,1,2,0:0:0:0:
256,192,24367,1,0,0:0:0:0:
256,192,24532,1,8,0:0:0:0:
256,192,24614,1,8,0:0:0:0:
256,192,24779,1,0,0:0:0:0:
256,192,24861,1,8,0:0:0:0:
256,192,25026,1,0,0:0:0:0:
256,192,25109,1,2,0:0:0:0:
256,192,25191,1,8,0:0:0:0:
256,192,25273,1,0,0:0:0:0:
256,192,25356,1,0,0:0:0:0:
256,192,25438,1,2,0:0:0:0:
256,192,25521,1,8,0:0:0:0:
256,192,25603,1,0,0:0:0:0:
256,192,25686,1,2,0:0:0:0:
256,192,25768,1,2,0:0:0:0:
256,192,25850,1,8,0:0:0:0:
256,192,25933,1,0,0:0:0:0:
256,192,26015,1,8,0:0:0:0:
256,192,26098,1,8,0:0:0:0:
256,192,26180,1,8,0:0:0:0:
256,192,26262,1,8,0:0:0:0:
256,192,26345,1,0,0:0:0:0:
256,192,26510,1,0,0:0:0:0:
256,192,26675,1,8,0:0:0:0:
256,192,26758,1,8,0:0:0:0:
256,192,26840,1,8,0:0:0:0:
256,192,26923,1,8,0:0:0:0:
256,192,27005,1,0,0:0:0:0:
256,192,27087,1,0,0:0:0:0:
256,192,27170,1,0,0:0:0:0:
256,192,27252,1,0,0:0:0:0:
256,192,27335,1,12,0:0:0:0:
256,192,27664,1,8,0:0:0:0:
256,192,27747,1,8,0:0:0:0:
256,192,27829,1,8,0:0:0:0:
256,192,27912,1,8,0:0:0:0:
256,192,27994,1,0,0:0:0:0:
256,192,28076,1,0,0:0:0:0:
256,192,28159,1,0,0:0:0:0:
256,192,28241,1,0,0:0:0:0:
256,192,28324,1,12,0:0:0:0:
256,192,28488,1,8,0:0:0:0:
256,192,28653,1,0,0:0:0:0:
256,192,28818,1,8,0:0:0:0:
256,192,28983,1,0,0:0:0:0:
256,192,29065,1,0,0:0:0:0:
256,192,29148,1,8,0:0:0:0:
256,192,29313,1,0,0:0:0:0:
256,192,29477,1,8,0:0:0:0:
256,192,29642,1,0,0:0:0:0:
256,192,29807,1,8,0:0:0:0:
256,192,29972,1,0,0:0:0:0:
256,192,30054,1,0,0:0:0:0:
256,192,30137,1,8,0:0:0:0:
256,192,30219,1,0,0:0:0:0:
256,192,30302,1,0,0:0:0:0:
256,192,30466,1,8,0:0:0:0:
256,192,30631,1,0,0:0:0:0:
256,192,30796,1,8,0:0:0:0:
256,192,30961,1,0,0:0:0:0:
256,192,31043,1,0,0:0:0:0:
256,192,31126,1,8,0:0:0:0:
256,192,31291,1,0,0:0:0:0:
256,192,31455,1,8,0:0:0:0:
256,192,31620,1,0,0:0:0:0:
256,192,31785,1,8,0:0:0:0:
256,192,31950,1,0,0:0:0:0:
256,192,32032,1,0,0:0:0:0:
256,192,32115,1,8,0:0:0:0:
256,192,32197,1,8,0:0:0:0:
256,192,32280,1,0,0:0:0:0:
256,192,32444,1,8,0:0:0:0:
256,192,32609,1,0,0:0:0:0:
256,192,32774,1,8,0:0:0:0:
256,192,32939,1,0,0:0:0:0:
256,192,33021,1,0,0:0:0:0:
256,192,33104,1,8,0:0:0:0:
256,192,33269,1,0,0:0:0:0:
256,192,33433,1,8,0:0:0:0:
256,192,33598,1,0,0:0:0:0:
256,192,33763,1,8,0:0:0:0:
256,192,33928,1,0,0:0:0:0:
256,192,34010,1,0,0:0:0:0:
256,192,34093,1,8,0:0:0:0:
256,192,34175,1,0,0:0:0:0:
256,192,34258,1,0,0:0:0:0:
256,192,34422,1,8,0:0:0:0:
256,192,34587,1,0,0:0:0:0:
256,192,34752,1,8,0:0:0:0:
256,192,34917,1,0,0:0:0:0:
256,192,34999,1,0,0:0:0:0:
256,192,35082,1,8,0:0:0:0:
256,192,35164,1,8,0:0:0:0:
256,192,35247,1,0,0:0:0:0:
256,192,35411,1,8,0:0:0:0:
256,192,35576,1,0,0:0:0:0:
256,192,35659,1,8,0:0:0:0:
256,192,35741,1,8,0:0:0:0:
256,192,35906,1,0,0:0:0:0:
256,192,35988,1,0,0:0:0:0:
256,192,36071,1,8,0:0:0:0:
256,192,36153,1,8,0:0:0:0:
256,192,36236,1,0,0:0:0:0:
256,192,36400,1,8,0:0:0:0:
256,192,36565,1,0,0:0:0:0:
256,192,36730,1,8,0:0:0:0:
256,192,36895,1,0,0:0:0:0:
256,192,36977,1,0,0:0:0:0:
256,192,37060,1,8,0:0:0:0:
256,192,37225,1,0,0:0:0:0:
256,192,37389,1,8,0:0:0:0:
256,192,37554,1,0,0:0:0:0:
256,192,37719,1,8,0:0:0:0:
256,192,37884,1,0,0:0:0:0:
256,192,37966,1,0,0:0:0:0:
256,192,38049,1,8,0:0:0:0:
256,192,38131,1,0,0:0:0:0:
256,192,38214,1,0,0:0:0:0:
256,192,38378,1,8,0:0:0:0:
256,192,38543,1,0,0:0:0:0:
256,192,38708,1,8,0:0:0:0:
256,192,38873,1,0,0:0:0:0:
256,192,38955,1,0,0:0:0:0:
256,192,39038,1,8,0:0:0:0:
256,192,39203,1,0,0:0:0:0:
256,192,39367,1,8,0:0:0:0:
256,192,39532,1,0,0:0:0:0:
256,192,39697,1,8,0:0:0:0:
256,192,39862,1,0,0:0:0:0:
256,192,39944,1,0,0:0:0:0:
256,192,40027,1,8,0:0:0:0:
256,192,40109,1,8,0:0:0:0:
256,192,40192,1,0,0:0:0:0:
256,192,40356,1,8,0:0:0:0:
256,192,40521,1,0,0:0:0:0:
256,192,40686,1,8,0:0:0:0:
256,192,40851,1,0,0:0:0:0:
256,192,40933,1,0,0:0:0:0:
256,192,41016,1,8,0:0:0:0:
256,192,41181,1,0,0:0:0:0:
256,192,41345,1,8,0:0:0:0:
256,192,41510,1,0,0:0:0:0:
256,192,41675,1,8,0:0:0:0:
256,192,41840,1,0,0:0:0:0:
256,192,41922,1,0,0:0:0:0:
256,192,42005,1,8,0:0:0:0:
256,192,42087,1,0,0:0:0:0:
256,192,42170,1,0,0:0:0:0:
256,192,42334,1,8,0:0:0:0:
256,192,42499,1,0,0:0:0:0:
256,192,42664,1,8,0:0:0:0:
256,192,42829,1,0,0:0:0:0:
256,192,42911,1,0,0:0:0:0:
256,192,42994,1,8,0:0:0:0:
256,192,43076,1,8,0:0:0:0:
256,192,43159,1,0,0:0:0:0:
256,192,43323,1,8,0:0:0:0:
256,192,43488,1,0,0:0:0:0:
256,192,43571,1,8,0:0:0:0:
256,192,43653,1,8,0:0:0:0:
256,192,43818,1,0,0:0:0:0:
256,192,43900,1,0,0:0:0:0:
256,192,43983,1,8,0:0:0:0:
256,192,44065,1,8,0:0:0:0:
256,192,44148,1,4,0:0:0:0:
256,192,44807,1,0,0:0:0:0:
256,192,45137,1,12,0:0:0:0:
256,192,46126,1,8,0:0:0:0:
256,192,46208,1,8,0:0:0:0:
256,192,46291,1,0,0:0:0:0:
256,192,46373,1,8,0:0:0:0:
256,192,46455,1,0,0:0:0:0:
256,192,46538,1,8,0:0:0:0:
256,192,46620,1,8,0:0:0:0:
256,192,46703,1,0,0:0:0:0:
256,192,46785,1,8,0:0:0:0:
256,192,46868,1,0,0:0:0:0:
256,192,46950,1,0,0:0:0:0:
256,192,47032,1,0,0:0:0:0:
256,192,47115,1,12,0:0:0:0:
256,192,47774,1,4,0:0:0:0:
256,192,48104,1,12,0:0:0:0:
256,192,48598,1,0,0:0:0:0:
256,192,48763,1,8,0:0:0:0:
256,192,48928,1,0,0:0:0:0:
256,192,49093,1,0,0:0:0:0:
256,192,49258,1,0,0:0:0:0:
256,192,49423,1,12,0:0:0:0:
256,192,49752,1,12,0:0:0:0:
256,192,50081,1,8,0:0:0:0:
256,192,50246,1,0,0:0:0:0:
256,192,50577,1,8,0:0:0:0:
256,192,50742,1,12,0:0:0:0:
256,192,50906,1,0,0:0:0:0:
256,192,51070,1,0,0:0:0:0:
256,192,51235,1,0,0:0:0:0:
256,192,51400,1,8,0:0:0:0:
256,192,51483,1,8,0:0:0:0:
256,192,51565,1,0,0:0:0:0:
256,192,51648,1,0,0:0:0:0:
256,192,51730,1,8,0:0:0:0:
256,192,51813,1,8,0:0:0:0:
256,192,51895,1,0,0:0:0:0:
256,192,51977,1,8,0:0:0:0:
256,192,52060,1,8,0:0:0:0:
256,192,52225,1,8,0:0:0:0:
256,192,52554,1,0,0:0:0:0:
256,192,52884,1,0,0:0:0:0:
256,192,53049,1,12,0:0:0:0:
256,192,53214,1,0,0:0:0:0:
256,192,53379,1,8,0:0:0:0:
256,192,53461,1,0,0:0:0:0:
256,192,53543,1,0,0:0:0:0:
256,192,53626,1,0,0:0:0:0:
256,192,53708,1,8,0:0:0:0:
256,192,53791,1,0,0:0:0:0:
256,192,53873,1,0,0:0:0:0:
256,192,53955,1,0,0:0:0:0:
256,192,54038,1,8,0:0:0:0:
256,192,54203,1,8,0:0:0:0:
256,192,54532,1,0,0:0:0:0:
256,192,54862,1,0,0:0:0:0:
256,192,55027,1,12,0:0:0:0:
256,192,55357,1,0,0:0:0:0:
256,192,55439,1,0,0:0:0:0:
256,192,55521,1,0,0:0:0:0:
256,192,55604,1,0,0:0:0:0:
256,192,55686,1,0,0:0:0:0:
256,192,55769,1,0,0:0:0:0:
256,192,55851,1,0,0:0:0:0:
256,192,55933,1,0,0:0:0:0:
256,192,56016,1,12,0:0:0:0:
256,192,56346,1,0,0:0:0:0:
256,192,56510,1,0,0:0:0:0:
256,192,56675,1,0,0:0:0:0:
256,192,57005,1,12,0:0:0:0:
256,192,57335,1,8,0:0:0:0:
256,192,57664,1,0,0:0:0:0:
256,192,57829,1,0,0:0:0:0:
256,192,57994,1,8,0:0:0:0:
256,192,58488,1,0,0:0:0:0:
256,192,58818,1,0,0:0:0:0:
256,192,58983,1,12,0:0:0:0:
256,192,59642,1,0,0:0:0:0:
256,192,59807,1,0,0:0:0:0:
256,192,59972,1,8,0:0:0:0:
256,192,60466,1,0,0:0:0:0:
256,192,60961,1,12,0:0:0:0:
256,192,61620,1,0,0:0:0:0:
256,192,61785,1,0,0:0:0:0:
256,192,61950,1,8,0:0:0:0:
256,192,62115,1,0,0:0:0:0:
256,192,62280,1,0,0:0:0:0:
256,192,62444,1,0,0:0:0:0:
256,192,62774,1,0,0:0:0:0:
256,192,62939,1,12,0:0:0:0:
256,192,63269,1,8,0:0:0:0:
256,192,63433,1,0,0:0:0:0:
256,192,63598,1,0,0:0:0:0:
256,192,63763,1,0,0:0:0:0:
256,192,63928,1,8,0:0:0:0:
256,192,64010,1,0,0:0:0:0:
256,192,64093,1,0,0:0:0:0:
256,192,64175,1,8,0:0:0:0:
256,192,64258,1,0,0:0:0:0:
256,192,64340,1,0,0:0:0:0:
256,192,64423,1,8,0:0:0:0:
256,192,64505,1,0,0:0:0:0:
256,192,64587,1,8,0:0:0:0:
256,192,64670,1,8,0:0:0:0:
256,192,64752,1,8,0:0:0:0:
256,192,64835,1,8,0:0:0:0:
256,192,64917,1,8,0:0:0:0:
256,192,65576,1,12,0:0:0:0:
256,192,65906,1,0,0:0:0:0:
256,192,65988,1,8,0:0:0:0:
256,192,66071,1,8,0:0:0:0:
256,192,66153,1,0,0:0:0:0:
256,192,66236,1,8,0:0:0:0:
256,192,66318,1,0,0:0:0:0:
256,192,66401,1,8,0:0:0:0:
256,192,66483,1,0,0:0:0:0:
256,192,66565,1,0,0:0:0:0:
256,192,66648,1,8,0:0:0:0:
256,192,66730,1,8,0:0:0:0:
256,192,66895,1,0,0:0:0:0:
256,192,66977,1,8,0:0:0:0:
256,192,67060,1,8,0:0:0:0:
256,192,67142,1,0,0:0:0:0:
256,192,67225,1,0,0:0:0:0:
256,192,67307,1,0,0:0:0:0:
256,192,67390,1,8,0:0:0:0:
256,192,67472,1,8,0:0:0:0:
256,192,67554,1,0,0:0:0:0:
256,192,67637,1,0,0:0:0:0:
256,192,67719,1,8,0:0:0:0:
256,192,67884,1,0,0:0:0:0:
256,192,67966,1,0,0:0:0:0:
256,192,68049,1,8,0:0:0:0:
256,192,68131,1,8,0:0:0:0:
256,192,68214,1,0,0:0:0:0:
256,192,68296,1,0,0:0:0:0:
256,192,68379,1,8,0:0:0:0:
256,192,68461,1,0,0:0:0:0:
256,192,68543,1,8,0:0:0:0:
256,192,68626,1,0,0:0:0:0:
256,192,68708,1,8,0:0:0:0:
256,192,68873,1,0,0:0:0:0:
256,192,68955,1,0,0:0:0:0:
256,192,69038,1,8,0:0:0:0:
256,192,69121,1,0,0:0:0:0:
256,192,69203,1,8,0:0:0:0:
256,192,69285,1,0,0:0:0:0:
256,192,69368,1,8,0:0:0:0:
256,192,69450,1,0,0:0:0:0:
256,192,69532,1,8,0:0:0:0:
256,192,69615,1,0,0:0:0:0:
256,192,69697,1,8,0:0:0:0:
256,192,69862,1,8,0:0:0:0:
256,192,69944,1,0,0:0:0:0:
256,192,70027,1,8,0:0:0:0:
256,192,70109,1,0,0:0:0:0:
256,192,70192,1,0,0:0:0:0:
256,192,70274,1,8,0:0:0:0:
256,192,70357,1,8,0:0:0:0:
256,192,70439,1,0,0:0:0:0:
256,192,70521,1,8,0:0:0:0:
256,192,70604,1,0,0:0:0:0:
256,192,70686,1,8,0:0:0:0:
256,192,70851,1,0,0:0:0:0:
256,192,70933,1,8,0:0:0:0:
256,192,71016,1,8,0:0:0:0:
256,192,71098,1,8,0:0:0:0:
256,192,71181,1,8,0:0:0:0:
256,192,71263,1,0,0:0:0:0:
256,192,71346,1,8,0:0:0:0:
256,192,71428,1,8,0:0:0:0:
256,192,71510,1,0,0:0:0:0:
256,192,71593,1,8,0:0:0:0:
256,192,71675,1,8,0:0:0:0:
256,192,71758,1,0,0:0:0:0:
256,192,71840,1,8,0:0:0:0:
256,192,71923,1,0,0:0:0:0:
256,192,72005,1,8,0:0:0:0:
256,192,72087,1,0,0:0:0:0:
256,192,72170,1,0,0:0:0:0:
256,192,72253,1,0,0:0:0:0:
256,192,72335,1,8,0:0:0:0:
256,192,72416,1,0,0:0:0:0:
256,192,72499,1,0,0:0:0:0:
256,192,72582,1,8,0:0:0:0:
256,192,72664,1,8,0:0:0:0:
256,192,72829,1,0,0:0:0:0:
256,192,72912,1,8,0:0:0:0:
256,192,72994,1,8,0:0:0:0:
256,192,73076,1,0,0:0:0:0:
256,192,73159,1,0,0:0:0:0:
256,192,73241,1,8,0:0:0:0:
256,192,73324,1,8,0:0:0:0:
256,192,73406,1,0,0:0:0:0:
256,192,73488,1,8,0:0:0:0:
256,192,73571,1,8,0:0:0:0:
256,192,73653,1,8,0:0:0:0:
256,192,73818,1,0,0:0:0:0:
256,192,73900,1,8,0:0:0:0:
256,192,73983,1,8,0:0:0:0:
256,192,74065,1,0,0:0:0:0:
256,192,74148,1,8,0:0:0:0:
256,192,74230,1,0,0:0:0:0:
256,192,74313,1,8,0:0:0:0:
256,192,74395,1,0,0:0:0:0:
256,192,74477,1,0,0:0:0:0:
256,192,74560,1,8,0:0:0:0:
256,192,74642,1,8,0:0:0:0:
256,192,74724,1,0,0:0:0:0:
256,192,74807,1,0,0:0:0:0:
256,192,74889,1,8,0:0:0:0:
256,192,74972,1,8,0:0:0:0:
256,192,75054,1,0,0:0:0:0:
256,192,75137,1,0,0:0:0:0:
256,192,75219,1,0,0:0:0:0:
256,192,75302,1,8,0:0:0:0:
256,192,75384,1,8,0:0:0:0:
256,192,75466,1,0,0:0:0:0:
256,192,75549,1,0,0:0:0:0:
256,192,75631,1,8,0:0:0:0:
256,192,75796,1,0,0:0:0:0:
256,192,75878,1,0,0:0:0:0:
256,192,75961,1,8,0:0:0:0:
256,192,76043,1,8,0:0:0:0:
256,192,76126,1,0,0:0:0:0:
256,192,76208,1,0,0:0:0:0:
256,192,76291,1,8,0:0:0:0:
256,192,76373,1,0,0:0:0:0:
256,192,76455,1,8,0:0:0:0:
256,192,76538,1,0,0:0:0:0:
256,192,76620,1,8,0:0:0:0:
256,192,76702,1,0,0:0:0:0:
256,192,76785,1,0,0:0:0:0:
256,192,76867,1,0,0:0:0:0:
256,192,76950,1,8,0:0:0:0:
256,192,77033,1,0,0:0:0:0:
256,192,77115,1,8,0:0:0:0:
256,192,77280,1,8,0:0:0:0:
256,192,77362,1,0,0:0:0:0:
256,192,77444,1,8,0:0:0:0:
256,192,77527,1,0,0:0:0:0:
256,192,77609,1,8,0:0:0:0:
256,192,77692,1,8,0:0:0:0:
256,192,77774,1,8,0:0:0:0:
256,192,77856,1,0,0:0:0:0:
256,192,77939,1,8,0:0:0:0:
256,192,78021,1,0,0:0:0:0:
256,192,78104,1,0,0:0:0:0:
256,192,78186,1,8,0:0:0:0:
256,192,78269,1,8,0:0:0:0:
256,192,78351,1,0,0:0:0:0:
256,192,78433,1,8,0:0:0:0:
256,192,78516,1,0,0:0:0:0:
256,192,78598,1,8,0:0:0:0:
256,192,78681,1,8,0:0:0:0:
256,192,78763,1,0,0:0:0:0:
256,192,78845,1,8,0:0:0:0:
256,192,78928,1,8,0:0:0:0:
256,192,79093,1,8,0:0:0:0:
256,192,79175,1,0,0:0:0:0:
256,192,79258,1,8,0:0:0:0:
256,192,79340,1,8,0:0:0:0:
256,192,79422,1,0,0:0:0:0:
256,192,79505,1,8,0:0:0:0:
256,192,79587,1,8,0:0:0:0:
256,192,79670,1,0,0:0:0:0:
256,192,79752,1,8,0:0:0:0:
256,192,79835,1,0,0:0:0:0:
256,192,79917,1,8,0:0:0:0:
256,192,79999,1,0,0:0:0:0:
256,192,80082,1,0,0:0:0:0:
256,192,80165,1,0,0:0:0:0:
256,192,80247,1,8,0:0:0:0:
256,192,80329,1,0,0:0:0:0:
256,192,80411,1,0,0:0:0:0:
256,192,80494,1,8,0:0:0:0:
256,192,80576,1,8,0:0:0:0:
256,192,80659,1,0,0:0:0:0:
256,192,80741,1,0,0:0:0:0:
256,192,80824,1,8,0:0:0:0:
256,192,80906,1,8,0:0:0:0:
256,192,80988,1,0,0:0:0:0:
256,192,81071,1,0,0:0:0:0:
256,192,81153,1,8,0:0:0:0:
256,192,81236,1,8,0:0:0:0:
256,192,81318,1,0,0:0:0:0:
256,192,81400,1,8,0:0:0:0:
256,192,81483,1,8,0:0:0:0:
256,192,81565,1,8,0:0:0:0:
256,192,81648,1,0,0:0:0:0:
256,192,81730,1,8,0:0:0:0:
256,192,81895,1,0,0:0:0:0:
256,192,82060,1,8,0:0:0:0:
256,192,82225,1,0,0:0:0:0:
256,192,82307,1,0,0:0:0:0:
256,192,82390,1,8,0:0:0:0:
256,192,82554,1,0,0:0:0:0:
256,192,82719,1,8,0:0:0:0:
256,192,82884,1,0,0:0:0:0:
256,192,82966,1,0,0:0:0:0:
256,192,83049,1,8,0:0:0:0:
256,192,83214,1,0,0:0:0:0:
256,192,83379,1,8,0:0:0:0:
256,192,83543,1,0,0:0:0:0:
256,192,83626,1,0,0:0:0:0:
256,192,83708,1,8,0:0:0:0:
256,192,83873,1,0,0:0:0:0:
256,192,84038,1,8,0:0:0:0:
256,192,84203,1,0,0:0:0:0:
256,192,84285,1,0,0:0:0:0:
256,192,84368,1,8,0:0:0:0:
256,192,84532,1,0,0:0:0:0:
256,192,84697,1,8,0:0:0:0:
256,192,84862,1,0,0:0:0:0:
256,192,84944,1,0,0:0:0:0:
256,192,85027,1,8,0:0:0:0:
256,192,85192,1,0,0:0:0:0:
256,192,85357,1,8,0:0:0:0:
256,192,85521,1,0,0:0:0:0:
256,192,85604,1,0,0:0:0:0:
256,192,85686,1,8,0:0:0:0:
256,192,85851,1,0,0:0:0:0:
256,192,86016,1,8,0:0:0:0:
256,192,86181,1,0,0:0:0:0:
256,192,86263,1,0,0:0:0:0:
256,192,86346,1,8,0:0:0:0:
256,192,86510,1,0,0:0:0:0:
256,192,86593,1,0,0:0:0:0:
256,192,86675,1,8,0:0:0:0:
256,192,86840,1,0,0:0:0:0:
256,192,86923,1,0,0:0:0:0:
256,192,87005,1,8,0:0:0:0:
256,192,87170,1,0,0:0:0:0:
256,192,87252,1,0,0:0:0:0:
256,192,87335,1,8,0:0:0:0:
256,192,87499,1,0,0:0:0:0:
256,192,87664,1,12,0:0:0:0:
256,192,87829,1,4,0:0:0:0:
256,192,87994,1,12,0:0:0:0:
256,192,88159,1,4,0:0:0:0:
256,192,88324,1,12,0:0:0:0:
256,192,88488,1,4,0:0:0:0:
256,192,88653,1,12,0:0:0:0:
256,192,88818,1,4,0:0:0:0:
256,192,88983,1,12,0:0:0:0:
256,192,89148,1,12,0:0:0:0:
256,192,89313,1,12,0:0:0:0:
256,192,89477,1,12,0:0:0:0:
256,192,91620,1,2,0:0:0:0:
256,192,91702,1,2,0:0:0:0:
256,192,91784,1,8,0:0:0:0:
256,192,91866,1,0,0:0:0:0:
256,192,91949,1,0,0:0:0:0:
256,192,92031,1,2,0:0:0:0:
256,192,92114,1,8,0:0:0:0:
256,192,92196,1,0,0:0:0:0:
256,192,92278,1,2,0:0:0:0:
256,192,92361,1,0,0:0:0:0:
256,192,92443,1,8,0:0:0:0:
256,192,92526,1,2,0:0:0:0:
256,192,92609,1,0,0:0:0:0:
256,192,92691,1,2,0:0:0:0:
256,192,92773,1,8,0:0:0:0:
256,192,92856,1,0,0:0:0:0:
256,192,92938,1,2,0:0:0:0:
256,192,93020,1,0,0:0:0:0:
256,192,93103,1,8,0:0:0:0:
256,192,93185,1,2,0:0:0:0:
256,192,93267,1,0,0:0:0:0:
256,192,93350,1,2,0:0:0:0:
256,192,93432,1,8,0:0:0:0:
256,192,93515,1,0,0:0:0:0:
256,192,93597,1,2,0:0:0:0:
256,192,93680,1,2,0:0:0:0:
256,192,93762,1,8,0:0:0:0:
256,192,93844,1,2,0:0:0:0:
256,192,93927,1,0,0:0:0:0:
256,192,94009,1,2,0:0:0:0:
256,192,94092,1,8,0:0:0:0:
256,192,94174,1,0,0:0:0:0:
256,192,94256,1,8,0:0:0:0:
256,192,94339,1,2,0:0:0:0:
256,192,94421,1,8,0:0:0:0:
256,192,94504,1,0,0:0:0:0:
256,192,94586,1,2,0:0:0:0:
256,192,94669,1,0,0:0:0:0:
256,192,94751,1,8,0:0:0:0:
256,192,94833,1,2,0:0:0:0:
256,192,94916,1,0,0:0:0:0:
256,192,94999,1,0,0:0:0:0:
256,192,95081,1,8,0:0:0:0:
256,192,95163,1,2,0:0:0:0:
256,192,95246,1,0,0:0:0:0:
256,192,95328,1,2,0:0:0:0:
256,192,95410,1,8,0:0:0:0:
256,192,95493,1,0,0:0:0:0:
256,192,95575,1,0,0:0:0:0:
256,192,95658,1,2,0:0:0:0:
256,192,95740,1,8,0:0:0:0:
256,192,95822,1,0,0:0:0:0:
256,192,95905,1,0,0:0:0:0:
256,192,95987,1,2,0:0:0:0:
256,192,96070,1,8,0:0:0:0:
256,192,96152,1,0,0:0:0:0:
256,192,96235,1,2,0:0:0:0:
256,192,96317,1,2,0:0:0:0:
256,192,96399,1,8,0:0:0:0:
256,192,96482,1,0,0:0:0:0:
256,192,96564,1,8,0:0:0:0:
256,192,96647,1,8,0:0:0:0:
256,192,96729,1,8,0:0:0:0:
256,192,96811,1,0,0:0:0:0:
256,192,96894,1,2,0:0:0:0:
256,192,96976,1,2,0:0:0:0:
256,192,97058,1,8,0:0:0:0:
256,192,97140,1,0,0:0:0:0:
256,192,97223,1,0,0:0:0:0:
256,192,97305,1,2,0:0:0:0:
256,192,97388,1,8,0:0:0:0:
256,192,97470,1,0,0:0:0:0:
256,192,97552,1,2,0:0:0:0:
256,192,97636,1,0,0:0:0:0:
256,192,97717,1,8,0:0:0:0:
256,192,97800,1,2,0:0:0:0:
256,192,97883,1,0,0:0:0:0:
256,192,97965,1,2,0:0:0:0:
256,192,98047,1,8,0:0:0:0:
256,192,98130,1,0,0:0:0:0:
256,192,98212,1,2,0:0:0:0:
256,192,98294,1,0,0:0:0:0:
256,192,98377,1,8,0:0:0:0:
256,192,98459,1,2,0:0:0:0:
256,192,98541,1,0,0:0:0:0:
256,192,98624,1,2,0:0:0:0:
256,192,98706,1,8,0:0:0:0:
256,192,98789,1,0,0:0:0:0:
256,192,98871,1,2,0:0:0:0:
256,192,98954,1,2,0:0:0:0:
256,192,99036,1,8,0:0:0:0:
256,192,99118,1,2,0:0:0:0:
256,192,99201,1,0,0:0:0:0:
256,192,99283,1,2,0:0:0:0:
256,192,99366,1,8,0:0:0:0:
256,192,99448,1,0,0:0:0:0:
256,192,99530,1,8,0:0:0:0:
256,192,99613,1,2,0:0:0:0:
256,192,99695,1,8,0:0:0:0:
256,192,99778,1,0,0:0:0:0:
256,192,99860,1,2,0:0:0:0:
256,192,99943,1,0,0:0:0:0:
256,192,100025,1,8,0:0:0:0:
256,192,100107,1,2,0:0:0:0:
256,192,100190,1,0,0:0:0:0:
256,192,100273,1,0,0:0:0:0:
256,192,100355,1,8,0:0:0:0:
256,192,100437,1,8,0:0:0:0:
256,192,100521,1,0,0:0:0:0:
256,192,100602,1,2,0:0:0:0:
256,192,100684,1,8,0:0:0:0:
256,192,100768,1,0,0:0:0:0:
256,192,100849,1,0,0:0:0:0:
256,192,100932,1,2,0:0:0:0:
256,192,101014,1,8,0:0:0:0:
256,192,101096,1,0,0:0:0:0:
256,192,101179,1,0,0:0:0:0:
256,192,101261,1,2,0:0:0:0:
256,192,101344,1,8,0:0:0:0:
256,192,101426,1,0,0:0:0:0:
256,192,101509,1,2,0:0:0:0:
256,192,101591,1,2,0:0:0:0:
256,192,101673,1,8,0:0:0:0:
256,192,101756,1,0,0:0:0:0:
256,192,101838,1,8,0:0:0:0:
256,192,101921,1,8,0:0:0:0:
256,192,102003,1,8,0:0:0:0:
256,192,102085,1,8,0:0:0:0:
256,192,102168,1,0,0:0:0:0:
256,192,102333,1,0,0:0:0:0:
256,192,102498,1,8,0:0:0:0:
256,192,102581,1,8,0:0:0:0:
256,192,102663,1,8,0:0:0:0:
256,192,102746,1,8,0:0:0:0:
256,192,102828,1,0,0:0:0:0:
256,192,102910,1,0,0:0:0:0:
256,192,102993,1,0,0:0:0:0:
256,192,103075,1,0,0:0:0:0:
256,192,103158,1,12,0:0:0:0:
256,192,103323,1,0,0:0:0:0:
256,192,103405,1,0,0:0:0:0:
256,192,103488,1,8,0:0:0:0:
256,192,103570,1,8,0:0:0:0:
256,192,103652,1,8,0:0:0:0:
256,192,103735,1,8,0:0:0:0:
256,192,103817,1,0,0:0:0:0:
256,192,103899,1,0,0:0:0:0:
256,192,103982,1,0,0:0:0:0:
256,192,104064,1,0,0:0:0:0:
256,192,104477,1,12,0:0:0:0:
256,192,104641,12,0,108597,0:0:0:0:
