osu file format v14

[General]
AudioFilename: audio.mp3
AudioLeadIn: 0
PreviewTime: 15632
Countdown: 0
SampleSet: Soft
StackLeniency: 0.7
Mode: 0
LetterboxInBreaks: 0
WidescreenStoryboard: 0

[Editor]
DistanceSpacing: 1.1
BeatDivisor: 4
GridSize: 4
TimelineZoom: 1.9

[Metadata]
Title:DROPOUT!?
TitleUnicode:DROPOUT!?
Artist:Saint Snow
ArtistUnicode:Saint Snow
Creator:Bara-
Version:AWAKEN THE CRASHING POWERFUL MIND!
Source:ラブライブ!サンシャイン!!
Tags:Kazuno Sarah 鹿角聖良 Tano Asami 田野 アサミ Kazuno Leah 鹿角理亞 Satou Hinata 佐藤 日向 school idol project tv size lovelive Love Live! Sunshine!! Awaken the power CRASH MIND
BeatmapID:1492065
BeatmapSetID:705449

[Difficulty]
HPDrainRate:6
CircleSize:3.8
OverallDifficulty:7.9
ApproachRate:9.7
SliderMultiplier:1.8
SliderTickRate:1

[Events]
//Background and Video events
0,0,"SaintSnow is bae.png",0,0
//Break Periods
//Storyboard Layer 0 (Background)
//Storyboard Layer 1 (Fail)
//Storyboard Layer 2 (Pass)
//Storyboard Layer 3 (Foreground)
//Storyboard Sound Samples

[TimingPoints]
0,324.324324324324,6,2,1,40,1,0
0,-200,6,2,1,40,0,0
1951,329.67032967033,6,2,1,40,1,0
1951,-200,6,2,1,40,0,0
7885,-100,6,3,1,60,0,0
15796.6299475135,164.835164835165,4,3,1,60,1,1
21071,-90.9090909090909,4,3,1,60,0,1
26346,-133.333333333333,4,3,1,60,0,1
28324,164.835164835165,6,3,1,60,1,0
28324,-133.333333333333,6,3,1,60,0,0
34587,-133.333333333333,6,3,2,60,0,0
34628,-133.333333333333,6,3,1,60,0,0
34917,-133.333333333333,6,3,2,60,0,0
34958,-133.333333333333,6,3,1,60,0,0
42499,-133.333333333333,6,3,2,60,0,0
42541,-133.333333333333,6,3,1,60,0,0
42829,-133.333333333333,6,3,2,60,0,0
42870,-133.333333333333,6,3,1,60,0,0
44148,-200,6,3,1,60,0,0
47115,-600,6,3,1,60,0,0
47197,-600,6,3,2,20,0,0
48104,329.67032967033,6,3,1,60,1,0
48104,-50,6,3,1,60,0,0
56016,-100,6,3,1,60,0,0
63928,-66.6666666666667,3,3,1,60,0,0
65576,-10,3,3,1,60,0,0
65823,-66.6666666666667,3,3,1,5,0,0
65906,164.835164835165,6,3,1,60,1,1
65906,-90.9090909090909,6,3,1,60,0,1
81730,-66.6666666666667,6,3,1,60,0,1
89477,-1500,6,3,1,60,0,0
89559,-1500,6,3,2,20,0,0
91620,164.835164835165,4,3,1,60,1,1
91620,-83.3333333333333,4,3,1,60,0,1
95740,-66.6666666666667,4,3,1,60,0,1
95905,-83.3333333333333,4,3,1,60,0,1
96070,-57.1428571428571,4,3,1,60,0,1
96235,-83.3333333333333,4,3,1,60,0,1
96400,-50,4,3,1,60,0,1
96894,-76.9230769230769,4,3,1,60,0,1
102169,-133.333333333333,4,3,1,60,0,1
104148,2637.36263736264,4,3,1,20,1,0
104148,-200,4,3,1,60,0,0
104367,-200,4,3,1,10,0,0
104477,164.835164835165,4,3,1,60,1,0
104477,-10,3,3,1,60,0,0

[Colours]
Combo1 : 128,0,128
Combo2 : 255,0,128
Combo3 : 128,0,255

[HitObjects]
52,71,0,6,0,P|83:65|108:67,1,45,2|0,0:0|0:0,0:0:0:0:
131,90,324,2,0,P|162:96|187:94,1,45
251,58,810,1,0,0:0:0:0:
251,58,972,2,0,P|234:102|330:172,1,180,2|0,0:0|0:0,0:0:0:0:
418,148,1951,6,0,L|413:235,2,45,2|0|0,0:0|0:0|0:0,0:0:0:0:
458,118,2445,2,0,L|463:205,2,45
395,151,2940,6,0,L|390:238,2,45,2|0|0,0:0|0:0|0:0,0:0:0:0:
477,103,3434,2,0,L|482:190,2,45
414,46,3929,6,0,L|363:44,1,45,2|0,0:0|0:0,0:0:0:0:
325,67,4258,2,0,L|274:65,1,45
186,32,4753,1,0,0:0:0:0:
186,32,4918,2,0,P|183:95|228:144,2,90,2|2|0,0:0|0:0|0:0,0:0:0:0:
274,126,5907,6,0,P|257:171|248:182,2,45,2|0|0,0:0|0:0|0:0,0:0:0:0:
353,73,6402,2,0,P|370:118|379:129,2,45
247,135,6896,6,0,P|230:180|221:191,2,45,2|0|0,0:0|0:0|0:0,0:0:0:0:
387,62,7391,2,0,P|404:107|413:118,2,45
486,22,7885,5,6,0:0:0:0:
473,205,8049,2,0,P|420:168|298:205,2,180
480,218,8791,1,0,0:0:0:0:
481,233,8874,2,0,L|468:338,1,90,8|0,0:0|0:0,0:0:0:0:
469,322,9698,5,0,0:0:0:0:
469,322,9780,1,0,0:0:0:0:
469,322,9863,5,4,0:0:0:0:
359,216,10027,2,0,P|369:144|454:198,2,180
242,147,10852,2,0,P|232:219|147:165,2,180,8|0|8,0:0|0:0|0:0,0:0:0:0:
181,50,11676,1,8,0:0:0:0:
97,151,11841,5,0,0:0:0:0:
97,151,12005,2,0,L|112:353,2,180
105,157,12747,1,0,0:0:0:0:
113,163,12830,2,0,P|157:166|208:149,1,90,8|0,0:0|0:0,0:0:0:0:
346,108,13160,2,0,P|303:95|258:98,1,90
346,108,13654,1,0,0:0:0:0:
346,108,13736,1,0,0:0:0:0:
346,108,13819,5,12,0:0:0:0:
358,287,13983,2,0,L|346:108,2,180
284,351,14808,5,8,0:0:0:0:
284,351,15797,5,4,0:0:0:0:
239,357,15879,1,2,0:0:0:0:
198,340,15961,1,8,0:0:0:0:
171,305,16044,1,2,0:0:0:0:
164,261,16126,1,0,0:0:0:0:
181,220,16209,1,2,0:0:0:0:
216,192,16291,1,8,0:0:0:0:
260,186,16373,1,2,0:0:0:0:
301,202,16455,6,0,B|340:209|340:209|395:196|395:196|490:218,1,180,2|8,0:0|0:0,0:0:0:0:
416,281,16703,2,0,P|389:226|466:125,1,180,2|0,0:0|0:0,0:0:0:0:
484,39,16950,2,0,L|364:51,1,90,10|0,0:0|0:0,0:0:0:0:
304,23,17115,5,4,0:0:0:0:
317,65,17197,1,2,0:0:0:0:
309,109,17279,1,8,0:0:0:0:
283,145,17362,1,2,0:0:0:0:
244,166,17444,1,0,0:0:0:0:
199,166,17527,1,2,0:0:0:0:
159,147,17609,1,8,0:0:0:0:
132,112,17691,1,2,0:0:0:0:
123,68,17774,5,4,0:0:0:0:
170,99,17856,1,2,0:0:0:0:
201,145,17938,1,8,0:0:0:0:
210,200,18021,1,2,0:0:0:0:
197,255,18103,1,0,0:0:0:0:
163,299,18186,1,2,0:0:0:0:
115,327,18268,1,8,0:0:0:0:
59,332,18350,1,2,0:0:0:0:
6,315,18433,5,4,0:0:0:0:
28,276,18515,1,2,0:0:0:0:
63,249,18597,1,8,0:0:0:0:
106,236,18680,1,2,0:0:0:0:
150,240,18762,1,0,0:0:0:0:
194,243,18846,1,2,0:0:0:0:
237,231,18929,1,8,0:0:0:0:
272,203,19011,1,2,0:0:0:0:
294,164,19093,6,0,B|297:133|297:133|274:116|285:86|285:86|282:59|282:59|248:58|248:58|205:29,1,180,2|8,0:0|0:0,0:0:0:0:
119,28,19340,1,2,0:0:0:0:
113,31,19423,2,0,P|104:56|117:129,1,90
194,243,19587,2,0,P|203:268|190:341,1,90,10|0,0:0|0:0,0:0:0:0:
30,294,19752,5,2,0:0:0:0:
30,294,19835,1,0,0:0:0:0:
30,294,19917,2,0,L|120:288,1,90,12|0,0:0|0:0,0:0:0:0:
283,249,20081,5,2,0:0:0:0:
283,249,20164,1,0,0:0:0:0:
283,249,20246,2,0,L|193:242,1,90,12|0,0:0|0:0,0:0:0:0:
30,203,20411,5,2,0:0:0:0:
30,203,20494,1,2,0:0:0:0:
30,203,20576,2,0,B|118:196|118:196|45:160|45:160|94:144|94:144|57:120|85:116|85:116|64:42|137:31|163:40,1,360,14|8,0:0|0:0,0:0:0:0:
210,68,20988,1,8,0:0:0:0:
290,39,21071,5,12,0:0:0:0:
259,92,21153,1,2,0:0:0:0:
258,153,21235,1,8,0:0:0:0:
285,208,21318,1,2,0:0:0:0:
335,243,21400,1,0,0:0:0:0:
396,251,21483,1,2,0:0:0:0:
453,229,21565,1,8,0:0:0:0:
493,182,21647,1,2,0:0:0:0:
507,123,21730,6,0,B|482:222|482:222|497:327,1,198.000006042481,2|8,0:0|0:0,0:0:0:0:
371,350,21978,2,0,B|396:251|396:251|381:146,1,198.000006042481,2|0,0:0|0:0,0:0:0:0:
272,55,22225,2,0,B|257:152,1,99.0000030212403,10|0,0:0|0:0,0:0:0:0:
158,321,22390,5,4,0:0:0:0:
116,297,22472,1,2,0:0:0:0:
154,271,22554,1,8,0:0:0:0:
112,247,22637,1,2,0:0:0:0:
150,222,22719,1,0,0:0:0:0:
109,198,22802,1,2,0:0:0:0:
147,172,22884,1,8,0:0:0:0:
105,149,22966,1,2,0:0:0:0:
143,123,23049,5,4,0:0:0:0:
165,166,23131,1,2,0:0:0:0:
210,153,23213,1,8,0:0:0:0:
251,185,23296,1,2,0:0:0:0:
284,147,23378,1,0,0:0:0:0:
337,160,23461,1,2,0:0:0:0:
345,106,23543,1,8,0:0:0:0:
399,93,23625,1,2,0:0:0:0:
380,42,23708,5,4,0:0:0:0:
432,73,23790,1,2,0:0:0:0:
468,123,23872,1,8,0:0:0:0:
483,183,23955,1,2,0:0:0:0:
473,243,24037,1,0,0:0:0:0:
441,296,24120,1,2,0:0:0:0:
391,332,24202,1,8,0:0:0:0:
331,345,24284,1,2,0:0:0:0:
271,335,24368,6,0,P|154:335|62:358,1,198.000006042481,6|8,0:0|0:0,0:0:0:0:
128,256,24615,1,2,0:0:0:0:
132,248,24697,2,0,P|135:200|115:144,1,99.0000030212403
242,52,24862,2,0,P|226:98|229:147,1,99.0000030212403,10|0,0:0|0:0,0:0:0:0:
412,294,25027,5,4,0:0:0:0:
439,253,25109,1,2,0:0:0:0:
445,204,25191,1,8,0:0:0:0:
426,159,25274,1,2,0:0:0:0:
389,127,25356,1,0,0:0:0:0:
341,117,25439,1,2,0:0:0:0:
294,131,25521,1,8,0:0:0:0:
259,166,25603,1,2,0:0:0:0:
244,212,25686,5,0,0:0:0:0:
209,247,25769,1,2,0:0:0:0:
162,260,25851,1,8,0:0:0:0:
114,250,25934,1,2,0:0:0:0:
77,219,26016,1,0,0:0:0:0:
58,174,26099,1,2,0:0:0:0:
64,125,26181,1,8,0:0:0:0:
91,84,26263,1,10,0:0:0:0:
132,57,26346,6,0,P|168:108|150:186,1,135.000005149842
51,309,26675,5,8,0:0:0:0:
84,307,26757,1,8,0:0:0:0:
118,305,26839,1,8,0:0:0:0:
152,304,26922,1,8,0:0:0:0:
185,302,27004,1,8,0:0:0:0:
219,300,27087,1,8,0:0:0:0:
253,299,27169,1,8,0:0:0:0:
286,297,27251,1,8,0:0:0:0:
320,295,27334,1,8,0:0:0:0:
487,217,27665,5,8,0:0:0:0:
453,215,27747,1,8,0:0:0:0:
420,213,27829,1,8,0:0:0:0:
386,212,27912,1,8,0:0:0:0:
352,210,27994,1,8,0:0:0:0:
318,208,28077,1,8,0:0:0:0:
285,207,28159,1,8,0:0:0:0:
251,205,28241,1,8,0:0:0:0:
217,203,28324,6,0,L|56:215,1,135.000005149842,14|8,0:0|0:0,0:0:0:0:
137,75,28653,2,0,L|298:87,1,135.000005149842,0|8,0:0|0:0,0:0:0:0:
408,214,28983,1,0,0:0:0:0:
408,214,29065,1,0,0:0:0:0:
408,214,29148,2,0,L|387:362,1,135.000005149842,8|0,0:0|0:0,0:0:0:0:
389,347,29395,5,0,0:0:0:0:
389,347,29477,1,8,0:0:0:0:
484,158,29642,2,0,P|421:123|335:155,1,135.000005149842,0|8,0:0|0:0,0:0:0:0:
217,203,29972,1,0,0:0:0:0:
217,203,30054,1,0,0:0:0:0:
217,203,30136,1,8,0:0:0:0:
63,34,30302,6,0,L|66:184,1,135.000005149842,0|8,0:0|0:0,0:0:0:0:
219,337,30631,2,0,L|216:187,1,135.000005149842,0|8,0:0|0:0,0:0:0:0:
372,66,30961,1,0,0:0:0:0:
372,66,31043,1,0,0:0:0:0:
372,66,31126,1,8,0:0:0:0:
334,260,31291,6,0,P|274:217|204:201,1,135.000005149842,0|8,0:0|0:0,0:0:0:0:
110,376,31620,2,0,P|174:357|228:317,1,135.000005149842,0|8,0:0|0:0,0:0:0:0:
303,175,31950,1,0,0:0:0:0:
303,175,32032,1,0,0:0:0:0:
303,175,32115,1,8,0:0:0:0:
205,88,32280,6,8,L|35:72,1,135.000005149842,0|8,0:0|0:0,0:0:0:0:
372,66,32609,2,8,L|542:50,1,135.000005149842,0|8,0:0|0:0,0:0:0:0:
429,265,32939,1,0,0:0:0:0:
429,265,33021,1,0,0:0:0:0:
429,265,33104,1,8,0:0:0:0:
221,220,33269,6,0,P|202:156|205:89,1,135.000005149842,0|8,0:0|0:0,0:0:0:0:
372,66,33598,2,0,P|375:133|356:197,1,135.000005149842,0|8,0:0|0:0,0:0:0:0:
211,333,33928,1,0,0:0:0:0:
211,333,34010,1,0,0:0:0:0:
211,333,34093,1,8,0:0:0:0:
272,49,34258,5,0,0:0:0:0:
315,336,34422,2,8,P|283:257|118:290,2,270.000010299683
319,348,35164,1,0,0:0:0:0:
319,361,35247,6,0,L|332:204,1,135.000005149842,0|8,0:0|0:0,0:0:0:0:
191,95,35576,2,0,L|202:229,1,135.000005149842,0|8,0:0|0:0,0:0:0:0:
447,142,35906,1,8,0:0:0:0:
422,119,35988,1,8,0:0:0:0:
392,105,36070,1,8,0:0:0:0:
359,99,36153,1,8,0:0:0:0:
325,103,36236,6,8,L|175:93,1,135.000005149842,12|8,0:0|0:0,0:0:0:0:
67,237,36565,2,0,L|216:227,1,135.000005149842,0|8,0:0|0:0,0:0:0:0:
366,333,36895,1,0,0:0:0:0:
366,333,36977,1,0,0:0:0:0:
366,333,37060,1,8,0:0:0:0:
475,201,37225,6,0,P|484:118|461:46,1,135.000005149842,0|8,0:0|0:0,0:0:0:0:
204,95,37554,2,0,P|190:161|201:228,1,135.000005149842,0|8,0:0|0:0,0:0:0:0:
366,333,37884,1,0,0:0:0:0:
366,333,37966,1,0,0:0:0:0:
366,333,38049,1,8,0:0:0:0:
204,95,38214,6,0,L|53:109,1,135.000005149842,0|8,0:0|0:0,0:0:0:0:
17,322,38543,2,0,L|151:334,1,135.000005149842,0|8,0:0|0:0,0:0:0:0:
366,333,38873,1,0,0:0:0:0:
366,333,38955,1,0,0:0:0:0:
366,333,39038,1,8,0:0:0:0:
250,159,39203,6,0,P|310:202|380:218,1,135.000005149842,0|8,0:0|0:0,0:0:0:0:
474,43,39532,2,0,P|410:62|356:102,1,135.000005149842,0|8,0:0|0:0,0:0:0:0:
250,159,39862,1,0,0:0:0:0:
250,159,39944,1,0,0:0:0:0:
250,159,40027,1,8,0:0:0:0:
305,317,40192,6,8,L|475:333,1,135.000005149842,0|8,0:0|0:0,0:0:0:0:
138,339,40521,2,8,L|-32:355,1,135.000005149842,0|8,0:0|0:0,0:0:0:0:
81,140,40851,1,0,0:0:0:0:
81,140,40933,1,0,0:0:0:0:
81,140,41016,1,8,0:0:0:0:
289,185,41181,6,0,P|308:249|305:316,1,135.000005149842,0|8,0:0|0:0,0:0:0:0:
138,339,41510,2,0,P|134:271|153:207,1,135.000005149842,0|8,0:0|0:0,0:0:0:0:
299,72,41840,1,0,0:0:0:0:
299,72,41922,1,0,0:0:0:0:
299,72,42005,1,8,0:0:0:0:
304,316,42170,5,0,0:0:0:0:
145,83,42334,2,8,B|245:66|245:66|433:109,2,270.000010299683
125,99,43076,1,0,0:0:0:0:
108,118,43159,6,0,P|103:155|124:257,1,135.000005149842,0|8,0:0|0:0,0:0:0:0:
304,316,43488,2,0,P|321:250|316:183,1,135.000005149842,0|8,0:0|0:0,0:0:0:0:
175,341,43818,1,8,0:0:0:0:
204,324,43900,1,8,0:0:0:0:
236,314,43983,1,8,0:0:0:0:
269,311,44065,1,8,0:0:0:0:
303,315,44147,5,12,0:0:0:0:
269,311,45137,5,12,0:0:0:0:
236,314,46126,5,12,0:0:0:0:
228,315,46208,1,0,0:0:0:0:
221,316,46290,1,0,0:0:0:0:
214,317,46373,1,8,0:0:0:0:
206,319,46455,1,0,0:0:0:0:
199,320,46538,1,0,0:0:0:0:
192,321,46620,1,8,0:0:0:0:
184,322,46702,1,0,0:0:0:0:
177,324,46785,1,0,0:0:0:0:
169,325,46867,1,8,0:0:0:0:
162,326,46950,1,0,0:0:0:0:
155,327,47032,1,0,0:0:0:0:
147,329,47115,6,0,P|137:272|105:335,1,165,12|0,0:0|0:0,0:0:0:0:
103,342,48104,6,0,B|103:243|103:243|62:141,1,180,14|0,0:0|0:0,0:0:0:0:
216,21,48598,2,0,B|216:120|216:120|175:222,1,180,0|8,0:0|0:0,0:0:0:0:
285,324,48928,1,0,0:0:0:0:
72,64,49093,2,0,B|72:163|72:163|113:265,1,180,0|8,0:0|0:0,0:0:0:0:
285,324,49422,2,0,P|215:253|17:380,1,360,0|8,0:0|0:0,0:0:0:0:
155,378,49917,1,0,0:0:0:0:
271,217,50082,6,0,B|315:209|359:236|359:236|416:193|416:193|463:202,1,180
206,67,50576,2,0,B|162:59|118:86|118:86|61:43|61:43|14:52,1,180,0|8,0:0|0:0,0:0:0:0:
179,192,50906,1,0,0:0:0:0:
44,337,51071,2,0,B|61:341|61:341|118:298|118:298|162:325|206:317,1,180,0|8,0:0|0:0,0:0:0:0:
414,127,51400,1,0,0:0:0:0:
179,192,51565,1,0,0:0:0:0:
464,197,51730,1,8,0:0:0:0:
491,162,51812,1,8,0:0:0:0:
498,118,51894,1,8,0:0:0:0:
483,76,51977,1,8,0:0:0:0:
450,47,52060,6,0,P|401:118|437:196,1,180,12|0,0:0|0:0,0:0:0:0:
192,341,52554,2,0,P|143:269|179:191,1,180,0|8,0:0|0:0,0:0:0:0:
256,89,52884,1,0,0:0:0:0:
320,341,53049,2,0,P|368:269|332:191,1,180,8|0,0:0|0:0,0:0:0:0:
256,89,53378,1,0,0:0:0:0:
256,89,53708,1,8,0:0:0:0:
320,341,54037,6,0,B|278:331|256:283|256:283|234:331|192:341,1,180
110,82,54368,2,0,P|161:155|160:244,1,180,0|8,0:0|0:0,0:0:0:0:
401,82,54697,2,0,P|350:155|352:244,1,180,8|0,0:0|0:0,0:0:0:0:
423,298,55027,6,8,B|390:260|313:251|256:283|256:283|199:251|122:260|89:298,1,360
83,314,55439,1,0,0:0:0:0:
86,329,55521,1,0,0:0:0:0:
99,339,55604,1,0,0:0:0:0:
114,342,55686,1,8,0:0:0:0:
134,301,55768,1,0,0:0:0:0:
146,258,55850,1,8,0:0:0:0:
148,213,55933,1,0,0:0:0:0:
142,169,56016,6,0,L|322:179,2,180,12|0|0,0:0|0:0|0:0,0:0:0:0:
286,257,57004,2,0,P|407:194|274:108,1,360,8|0,0:0|0:0,0:0:0:0:
142,169,57829,2,0,L|151:221,1,45,8|0,0:0|0:0,0:0:0:0:
118,314,57994,6,0,L|131:126,1,180,12|0,0:0|0:0,0:0:0:0:
20,42,58488,2,0,L|32:221,1,180,8|0,0:0|0:0,0:0:0:0:
118,314,58983,2,0,B|150:322|167:337|167:337|194:328|223:298|223:298|249:310|262:340|262:340|279:285|323:252|382:251|428:289,1,360,8|0,0:0|0:0,0:0:0:0:
489,180,59807,2,0,L|445:188,1,45,8|0,0:0|0:0,0:0:0:0:
311,147,59972,6,0,L|489:180,1,180,12|0,0:0|0:0,0:0:0:0:
386,52,60467,2,0,L|208:84,1,180,8|0,0:0|0:0,0:0:0:0:
173,179,60961,2,0,B|194:139|189:85|121:73|92:131|113:174|143:217|143:217|178:276|169:327|131:334,1,360,8|8,0:0|0:0,0:0:0:0:
32,290,61785,2,0,L|89:284,1,45,8|0,0:0|0:0,0:0:0:0:
270,306,61950,5,12,0:0:0:0:
48,179,62114,2,0,P|59:90|144:31,2,180,8|0|0,0:0|0:0|0:0,0:0:0:0:
139,344,62939,2,0,B|169:327|178:276|143:217|143:217|113:174|92:131|121:73|189:85|194:139|173:179,1,360,8|8,0:0|0:0,0:0:0:0:
32,290,63763,2,0,L|89:284,1,45,8|0,0:0|0:0,0:0:0:0:
267,293,63928,5,0,0:0:0:0:
273,277,64010,1,0,0:0:0:0:
275,260,64092,1,0,0:0:0:0:
274,244,64175,1,0,0:0:0:0:
268,228,64257,5,0,0:0:0:0:
260,246,64340,1,0,0:0:0:0:
257,266,64422,1,0,0:0:0:0:
259,286,64505,1,0,0:0:0:0:
266,305,64587,5,0,0:0:0:0:
275,282,64669,1,0,0:0:0:0:
279,258,64751,1,0,0:0:0:0:
276,234,64834,1,0,0:0:0:0:
268,212,64916,5,0,0:0:0:0:
268,212,65576,6,0,B|244:181|192:161|192:161|140:105|157:46|216:36|267:68|261:129|192:161|192:161|136:159|103:179,1,450,14|0,1:0|2:0,1:0:0:0:
72,248,65906,5,14,0:0:0:0:
81,296,65988,1,0,0:0:0:0:
111,335,66070,1,8,0:0:0:0:
154,357,66153,1,0,0:0:0:0:
203,357,66235,1,0,0:0:0:0:
247,335,66318,1,0,0:0:0:0:
277,296,66400,6,0,P|307:282|400:285,1,99.0000030212403,10|0,0:0|0:0,0:0:0:0:
495,112,66565,1,0,0:0:0:0:
451,134,66648,1,0,0:0:0:0:
421,173,66730,2,0,P|391:187|298:184,1,99.0000030212403,10|0,0:0|0:0,0:0:0:0:
291,8,66895,5,2,0:0:0:0:
306,55,66977,1,0,0:0:0:0:
314,103,67059,1,8,0:0:0:0:
315,153,67142,1,0,0:0:0:0:
309,202,67224,1,0,0:0:0:0:
297,250,67307,1,0,0:0:0:0:
277,295,67389,5,8,0:0:0:0:
264,257,67472,1,0,0:0:0:0:
258,218,67554,1,2,0:0:0:0:
257,178,67637,1,0,0:0:0:0:
261,139,67719,1,10,0:0:0:0:
272,101,67802,1,0,0:0:0:0:
287,64,67884,5,6,0:0:0:0:
257,103,67966,1,0,0:0:0:0:
215,129,68048,1,8,0:0:0:0:
167,137,68131,1,0,0:0:0:0:
119,126,68213,1,0,0:0:0:0:
79,98,68296,1,0,0:0:0:0:
52,57,68378,6,0,L|61:175,1,99.0000030212403,10|0,0:0|0:0,0:0:0:0:
146,226,68542,1,0,0:0:0:0:
186,254,68625,1,0,0:0:0:0:
213,295,68708,2,0,L|204:177,1,99.0000030212403,10|0,0:0|0:0,0:0:0:0:
54,375,68873,5,2,0:0:0:0:
93,345,68955,1,0,0:0:0:0:
140,331,69037,1,8,0:0:0:0:
190,334,69120,1,0,0:0:0:0:
235,354,69202,1,0,0:0:0:0:
280,374,69285,1,0,0:0:0:0:
330,377,69367,5,8,0:0:0:0:
377,363,69450,1,0,0:0:0:0:
416,333,69532,2,0,P|426:308|426:223,1,99.0000030212403,2|0,0:0|0:0,0:0:0:0:
304,115,69697,2,0,P|302:164|317:211,1,99.0000030212403,10|0,0:0|0:0,0:0:0:0:
381,64,69862,5,6,0:0:0:0:
333,77,69944,1,0,0:0:0:0:
284,85,70026,1,8,0:0:0:0:
235,89,70109,1,0,0:0:0:0:
219,122,70190,5,2,0:0:0:0:
251,160,70273,1,0,0:0:0:0:
279,201,70356,1,8,0:0:0:0:
303,244,70438,1,0,0:0:0:0:
339,241,70520,5,2,0:0:0:0:
356,195,70603,1,0,0:0:0:0:
377,150,70686,1,8,0:0:0:0:
402,108,70768,1,0,0:0:0:0:
394,47,70851,5,2,0:0:0:0:
337,63,70933,1,0,0:0:0:0:
278,73,71015,1,8,0:0:0:0:
219,78,71098,1,0,0:0:0:0:
200,117,71179,5,2,0:0:0:0:
238,163,71262,1,0,0:0:0:0:
272,212,71345,1,8,0:0:0:0:
300,263,71427,1,0,0:0:0:0:
344,260,71509,5,2,0:0:0:0:
364,205,71592,1,0,0:0:0:0:
389,151,71675,1,8,0:0:0:0:
419,100,71757,1,0,0:0:0:0:
454,52,71840,6,0,L|470:196,1,99.0000030212403,6|0,0:0|0:0,0:0:0:0:
375,303,72004,2,0,L|359:159,1,99.0000030212403,8|0,0:0|0:0,0:0:0:0:
325,33,72170,2,0,L|341:177,1,99.0000030212403
246,284,72334,2,0,L|230:140,1,99.0000030212403,8|0,0:0|0:0,0:0:0:0:
196,14,72500,2,0,L|212:158,1,99.0000030212403,2|0,0:0|0:0,0:0:0:0:
117,265,72664,2,0,L|101:121,1,99.0000030212403,10|0,0:0|0:0,0:0:0:0:
41,69,72829,5,6,0:0:0:0:
10,126,72911,1,0,0:0:0:0:
17,191,72993,1,8,0:0:0:0:
56,242,73076,1,0,0:0:0:0:
117,265,73158,1,2,0:0:0:0:
180,250,73241,1,0,0:0:0:0:
226,204,73323,1,14,0:0:0:0:
272,158,73406,1,0,0:0:0:0:
335,143,73489,1,2,0:0:0:0:
396,166,73571,1,0,0:0:0:0:
435,217,73654,1,10,0:0:0:0:
442,282,73736,1,8,0:0:0:0:
411,339,73818,5,14,0:0:0:0:
362,344,73900,1,0,0:0:0:0:
315,329,73982,1,8,0:0:0:0:
278,297,74065,1,0,0:0:0:0:
256,253,74147,1,0,0:0:0:0:
254,203,74230,1,0,0:0:0:0:
272,158,74312,6,0,P|281:126|277:48,1,99.0000030212403,10|0,0:0|0:0,0:0:0:0:
0,78,74476,1,0,0:0:0:0:
49,75,74559,1,0,0:0:0:0:
95,93,74641,2,0,P|127:102|205:98,1,99.0000030212403,10|0,0:0|0:0,0:0:0:0:
377,105,74807,5,2,0:0:0:0:
406,144,74889,1,0,0:0:0:0:
415,192,74971,1,8,0:0:0:0:
402,240,75054,1,0,0:0:0:0:
371,277,75136,1,0,0:0:0:0:
326,298,75219,1,0,0:0:0:0:
277,297,75301,5,8,0:0:0:0:
240,249,75384,1,0,0:0:0:0:
230,191,75466,1,2,0:0:0:0:
245,133,75549,1,0,0:0:0:0:
283,89,75631,1,10,0:0:0:0:
336,64,75714,1,0,0:0:0:0:
395,65,75796,5,6,0:0:0:0:
362,101,75878,1,0,0:0:0:0:
317,123,75960,1,8,0:0:0:0:
268,126,76043,1,0,0:0:0:0:
222,111,76125,1,0,0:0:0:0:
184,79,76208,1,0,0:0:0:0:
161,35,76290,6,0,L|172:142,1,99.0000030212403,10|0,0:0|0:0,0:0:0:0:
240,249,76455,1,0,0:0:0:0:
277,281,76538,1,0,0:0:0:0:
300,325,76620,2,0,L|289:218,1,99.0000030212403,10|0,0:0|0:0,0:0:0:0:
481,346,76785,5,2,0:0:0:0:
442,316,76867,1,0,0:0:0:0:
395,302,76949,1,8,0:0:0:0:
345,305,77032,1,0,0:0:0:0:
300,325,77114,1,0,0:0:0:0:
255,345,77197,1,0,0:0:0:0:
205,348,77279,5,8,0:0:0:0:
158,334,77362,1,0,0:0:0:0:
119,304,77444,2,0,P|109:279|109:194,1,99.0000030212403,2|0,0:0|0:0,0:0:0:0:
227,88,77609,2,0,P|229:137|214:184,1,99.0000030212403,10|0,0:0|0:0,0:0:0:0:
131,69,77774,5,6,0:0:0:0:
177,84,77856,1,0,0:0:0:0:
227,88,77938,1,8,0:0:0:0:
276,81,78021,1,0,0:0:0:0:
321,63,78103,1,0,0:0:0:0:
366,45,78186,1,0,0:0:0:0:
415,38,78269,5,8,0:0:0:0:
465,42,78351,1,0,0:0:0:0:
511,57,78433,2,0,L|501:162,1,99.0000030212403,2|0,0:0|0:0,0:0:0:0:
375,269,78598,2,0,L|365:170,1,99.0000030212403,8|0,0:0|0:0,0:0:0:0:
433,340,78763,5,2,0:0:0:0:
388,359,78845,1,0,0:0:0:0:
339,353,78927,1,8,0:0:0:0:
301,322,79010,1,0,0:0:0:0:
285,276,79092,6,0,L|275:177,1,99.0000030212403,2|0,0:0|0:0,0:0:0:0:
375,71,79258,2,0,L|365:169,1,99.0000030212403,8|0,0:0|0:0,0:0:0:0:
285,276,79423,5,2,0:0:0:0:
240,295,79505,1,0,0:0:0:0:
191,289,79587,1,8,0:0:0:0:
153,258,79670,1,0,0:0:0:0:
137,212,79752,6,0,L|127:113,1,99.0000030212403,6|0,0:0|0:0,0:0:0:0:
227,7,79918,2,0,L|217:105,1,99.0000030212403,8|0,0:0|0:0,0:0:0:0:
465,276,80080,6,0,L|475:177,1,99.0000030212403,6|0,0:0|0:0,0:0:0:0:
375,71,80246,2,0,L|385:169,1,99.0000030212403,8|0,0:0|0:0,0:0:0:0:
37,318,80411,6,0,L|27:219,1,99.0000030212403,6|0,0:0|0:0,0:0:0:0:
127,113,80576,2,0,L|117:211,1,99.0000030212403,8|0,0:0|0:0,0:0:0:0:
275,325,80741,5,6,0:0:0:0:
335,322,80823,1,0,0:0:0:0:
384,285,80905,1,8,0:0:0:0:
403,227,80988,1,0,0:0:0:0:
385,169,81070,5,0,0:0:0:0:
337,131,81153,1,0,0:0:0:0:
276,128,81235,1,8,0:0:0:0:
224,160,81317,1,0,0:0:0:0:
200,216,81400,5,10,0:0:0:0:
148,248,81483,1,8,0:0:0:0:
87,245,81565,1,10,0:0:0:0:
39,207,81648,1,8,0:0:0:0:
21,148,81730,6,0,P|14:279|108:371,1,270.000010299683,14|0,0:0|0:0,0:0:0:0:
257,184,82059,2,0,P|147:113|21:149,1,270.000010299683,8|0,0:0|0:0,0:0:0:0:
108,372,82389,2,0,P|225:311|257:184,1,270.000010299683,8|0,0:0|0:0,0:0:0:0:
494,149,82719,6,0,P|500:279|406:371,1,270.000010299683,14|0,0:0|0:0,0:0:0:0:
257,184,83048,2,0,P|367:113|493:148,1,270.000010299683,8|0,0:0|0:0,0:0:0:0:
406,372,83378,2,0,P|289:311|257:184,1,270.000010299683,10|0,0:0|0:0,0:0:0:0:
407,19,83708,6,0,L|402:310,1,270.000010299683,14|0,0:0|0:0,0:0:0:0:
260,48,84037,2,0,L|255:339,1,270.000010299683,8|0,0:0|0:0,0:0:0:0:
113,77,84367,2,0,L|108:368,1,270.000010299683,8|0,0:0|0:0,0:0:0:0:
0,18,84697,6,0,L|5:309,1,270.000010299683,14|0,0:0|0:0,0:0:0:0:
147,47,85026,2,0,L|152:338,1,270.000010299683,8|0,0:0|0:0,0:0:0:0:
294,76,85356,2,0,L|299:367,1,270.000010299683,8|0,0:0|0:0,0:0:0:0:
408,42,85686,6,0,P|278:73|146:46,1,270.000010299683,14|0,0:0|0:0,0:0:0:0:
281,271,86015,2,2,P|320:143|409:43,1,270.000010299683,8|0,0:0|0:0,0:0:0:0:
146,47,86345,2,0,P|238:145|281:272,1,270.000010299683,8|0,0:0|0:0,0:0:0:0:
19,276,86675,6,0,P|149:245|280:271,1,270.000010299683,14|0,0:0|0:0,0:0:0:0:
146,47,87004,2,2,P|107:175|18:275,1,270.000010299683,8|0,0:0|0:0,0:0:0:0:
281,271,87334,2,0,P|189:173|146:46,1,270.000010299683,8|0,0:0|0:0,0:0:0:0:
382,42,87664,5,8,0:0:0:0:
403,47,87746,1,0,0:0:0:0:
421,60,87828,1,0,0:0:0:0:
433,79,87911,1,0,0:0:0:0:
435,101,87993,5,8,0:0:0:0:
429,123,88076,1,0,0:0:0:0:
415,140,88158,1,0,0:0:0:0:
395,150,88240,1,0,0:0:0:0:
373,151,88323,5,8,0:0:0:0:
351,144,88405,1,0,0:0:0:0:
335,128,88488,1,0,0:0:0:0:
326,108,88570,1,0,0:0:0:0:
326,86,88653,5,8,0:0:0:0:
241,15,88817,1,8,0:0:0:0:
333,147,88982,5,8,0:0:0:0:
180,23,89147,1,8,0:0:0:0:
340,208,89312,5,8,0:0:0:0:
118,30,89477,2,0,B|94:42|78:75|95:102|136:104|148:77|137:63|121:54|100:53|70:55|70:55|61:86|75:111,1,216,12|0,0:0|0:0,0:0:0:0:
129,170,91620,5,4,0:0:0:0:
177,148,91702,1,2,0:0:0:0:
207,104,91784,1,8,0:0:0:0:
210,51,91867,1,2,0:0:0:0:
184,4,91949,2,0,L|67:19,1,107.999996704102,0|2,0:0|0:0,0:0:0:0:
315,91,92114,2,0,L|197:105,1,107.999996704102,8|2,0:0|0:0,0:0:0:0:
405,336,92279,6,0,P|443:267|421:126,1,215.999993408203,2|8,0:0|0:0,0:0:0:0:
378,217,92526,1,2,0:0:0:0:
375,234,92609,2,0,P|380:288|405:336,1,107.999996704102
184,358,92774,2,0,P|208:310|213:256,1,107.999996704102,10|0,0:0|0:0,0:0:0:0:
67,149,92938,5,6,0:0:0:0:
93,210,93020,1,2,0:0:0:0:
147,249,93102,1,8,0:0:0:0:
213,256,93185,1,2,0:0:0:0:
274,228,93267,1,0,0:0:0:0:
312,173,93350,1,2,0:0:0:0:
317,107,93432,1,8,0:0:0:0:
288,47,93514,1,2,0:0:0:0:
233,10,93597,5,4,0:0:0:0:
172,50,93681,1,2,0:0:0:0:
140,116,93763,1,8,0:0:0:0:
146,189,93845,1,2,0:0:0:0:
187,249,93928,1,0,0:0:0:0:
255,280,94010,1,2,0:0:0:0:
327,272,94092,2,0,P|371:268|443:278,1,107.999996704102,8|2,0:0|0:0,0:0:0:0:
475,329,94257,5,4,0:0:0:0:
434,275,94339,1,2,0:0:0:0:
411,212,94422,1,8,0:0:0:0:
409,144,94504,1,2,0:0:0:0:
428,80,94587,1,0,0:0:0:0:
374,121,94668,1,2,0:0:0:0:
311,144,94751,1,8,0:0:0:0:
243,146,94833,1,2,0:0:0:0:
179,127,94916,6,0,B|169:180|169:180|184:358,1,215.999993408203,2|8,0:0|0:0,0:0:0:0:
89,334,95163,1,2,0:0:0:0:
77,298,95246,2,0,L|89:152,1,107.999996704102
169,19,95411,2,0,L|181:164,1,107.999996704102,10|0,0:0|0:0,0:0:0:0:
262,336,95576,6,0,L|249:190,1,107.999996704102
272,133,95740,6,0,L|262:336,1,202.500007724762,12|0,0:0|2:0,0:0:0:0:
262,336,95905,6,0,L|330:206,1,107.999996704102
342,114,96070,6,0,L|262:336,1,236.250002253056,12|0,0:0|2:0,0:0:0:0:
262,336,96235,6,0,L|389:264,1,107.999996704102
447,139,96400,6,8,B|422:175|422:175|396:189|396:189|387:214|387:214|356:229|356:229|348:252|348:252|331:268|331:268|323:297|323:297|298:306|298:306|290:329|290:329|262:336|262:336|210:308|159:344|80:312|80:312|140:274|139:204|113:168|113:168|83:131|79:64|119:31,1,720,12|8,0:0|0:0,0:0:0:0:
145,40,96812,1,8,0:0:0:0:
225,66,96894,5,12,0:0:0:0:
294,59,96976,1,2,0:0:0:0:
364,53,97059,2,0,L|490:62,1,116.999994644165,8|2,0:0|0:0,0:0:0:0:
191,144,97224,1,0,0:0:0:0:
260,137,97306,1,2,0:0:0:0:
330,131,97389,2,0,L|455:139,1,116.999994644165,8|2,0:0|0:0,0:0:0:0:
363,351,97554,6,0,P|320:264|333:122,1,233.999989288331,2|8,0:0|0:0,0:0:0:0:
145,40,97801,2,0,P|188:127|175:269,1,233.999989288331,2|0,0:0|0:0,0:0:0:0:
132,154,98048,2,0,P|130:95|144:39,1,116.999994644165,8|0,0:0|0:0,0:0:0:0:
231,25,98213,5,4,0:0:0:0:
293,18,98295,1,2,0:0:0:0:
356,13,98378,2,0,L|482:21,1,116.999994644165,8|2,0:0|0:0,0:0:0:0:
202,103,98542,5,0,0:0:0:0:
270,95,98624,1,2,0:0:0:0:
339,89,98707,2,0,L|477:98,1,116.999994644165,8|2,0:0|0:0,0:0:0:0:
178,179,98872,5,4,0:0:0:0:
252,170,98954,1,2,0:0:0:0:
328,164,99037,2,0,L|481:174,1,116.999994644165,8|2,0:0|0:0,0:0:0:0:
159,254,99202,5,0,0:0:0:0:
240,244,99284,1,2,0:0:0:0:
324,238,99367,2,0,L|492:249,1,116.999994644165,8|2,0:0|0:0,0:0:0:0:
133,326,99532,5,4,0:0:0:0:
90,288,99614,1,2,0:0:0:0:
85,231,99696,1,8,0:0:0:0:
121,187,99779,1,2,0:0:0:0:
177,178,99861,1,0,0:0:0:0:
233,169,99944,1,2,0:0:0:0:
269,125,100027,1,8,0:0:0:0:
264,68,100109,1,2,0:0:0:0:
221,30,100191,6,0,P|266:64|442:41,1,233.999989288331,2|8,0:0|0:0,0:0:0:0:
250,337,100438,2,0,P|217:227|268:124,1,233.999989288331,2|0,0:0|0:0,0:0:0:0:
485,257,100685,2,0,P|410:235|339:227,1,116.999994644165,10|0,0:0|0:0,0:0:0:0:
121,263,100850,5,4,0:0:0:0:
94,222,100932,1,2,0:0:0:0:
88,173,101014,1,8,0:0:0:0:
107,128,101097,1,2,0:0:0:0:
144,96,101179,1,0,0:0:0:0:
192,86,101262,1,2,0:0:0:0:
239,100,101344,1,8,0:0:0:0:
274,135,101426,1,2,0:0:0:0:
289,181,101509,5,0,0:0:0:0:
324,216,101592,1,2,0:0:0:0:
371,229,101674,1,8,0:0:0:0:
419,219,101757,1,2,0:0:0:0:
456,188,101839,1,0,0:0:0:0:
475,143,101922,1,2,0:0:0:0:
469,94,102004,1,8,0:0:0:0:
442,53,102086,1,10,0:0:0:0:
401,26,102169,6,0,P|367:59|385:151,1,135.000005149842,12|0,0:0|0:0,0:0:0:0:
456,188,102499,5,8,0:0:0:0:
422,187,102581,1,8,0:0:0:0:
388,187,102663,1,8,0:0:0:0:
354,186,102746,1,8,0:0:0:0:
321,186,102828,1,0,0:0:0:0:
287,185,102911,1,0,0:0:0:0:
253,185,102993,1,0,0:0:0:0:
219,184,103075,1,0,0:0:0:0:
186,184,103158,6,0,P|170:173|132:129,1,67.5000025749208,4|0,0:0|0:0,0:0:0:0:
167,189,103323,2,0,P|150:177|112:133,1,67.5000025749208
39,294,103487,5,8,0:0:0:0:
73,293,103570,1,8,0:0:0:0:
107,293,103652,1,8,0:0:0:0:
141,292,103735,1,8,0:0:0:0:
174,292,103817,1,8,0:0:0:0:
208,291,103900,1,8,0:0:0:0:
242,291,103982,1,8,0:0:0:0:
276,291,104064,1,8,0:0:0:0:
309,290,104148,6,0,B|317:288|317:288|322:289,1,7.5,0|0,0:0|2:0,0:0:0:0:
335,288,104477,6,0,P|418:243|338:291,1,300,14|0,1:0|2:0,0:0:0:0:
256,192,104641,12,0,108597,0:0:0:0:
