osu file format v14

[General]
AudioFilename: audio.mp3
AudioLeadIn: 0
PreviewTime: 133772
Countdown: 0
SampleSet: Normal
StackLeniency: 0.2
Mode: 0
LetterboxInBreaks: 0
WidescreenStoryboard: 0

[Editor]
Bookmarks: 11990,19119,51198,61891,71396,80901,95159,104664,114168,118921,133178,137931,142386,152188,190208
DistanceSpacing: 2
BeatDivisor: 4
GridSize: 4
TimelineZoom: 1.9

[Metadata]
Title:Private Caller
TitleUnicode:Private Caller
Artist:Saint Pepsi
ArtistUnicode:ショッピングワールドjp & SAINT PEPSI
Creator:Nice Aesthetics
Version:Incoming Call
Source:
Tags:vaporwave, saint pepsi, winner's circle
BeatmapID:2061727
BeatmapSetID:985428

[Difficulty]
HPDrainRate:4
CircleSize:5.2
OverallDifficulty:7
ApproachRate:6
SliderMultiplier:1.6
SliderTickRate:1

[Events]
//Background and Video events
0,0,"jordan-crownshaw-saint-pepsi-private-caller-music-video-13-1520974036[1].png",0,0
//Break Periods
2,61794,65594
2,71596,79851
2,95210,113118
2,118972,127376
2,142586,146386
2,152388,189158
//Storyboard Layer 0 (Background)
//Storyboard Layer 1 (Fail)
//Storyboard Layer 2 (Pass)
//Storyboard Layer 3 (Foreground)
//Storyboard Sound Samples

[TimingPoints]
14367,594.059405940594,4,1,0,100,1,0
14367,-80,4,1,0,100,0,0
19119,-66.6666666666667,4,1,0,100,0,0
19713,-100,4,1,0,100,0,0
23871,-33.3333333333333,4,1,0,100,0,0
24168,-100,4,1,0,100,0,0
28624,-33.3333333333333,4,1,0,100,0,0
28921,-100,4,1,0,100,0,0
33376,-33.3333333333333,4,1,0,100,0,0
33673,-100,4,1,0,100,0,0
36941,-33.3333333333333,4,1,0,100,0,0
37238,-100,4,1,0,100,0,0
47337,-66.6666666666667,4,1,0,100,0,0
47634,-100,4,1,0,100,0,0
48228,-25,4,1,0,100,0,0
49119,-100,4,1,0,100,0,0
51198,-133.333333333333,4,1,0,100,0,0
52980,-66.6666666666667,4,1,0,100,0,0
70802,-36.3636363636364,4,1,0,100,0,0
80901,-66.6666666666667,4,1,0,100,0,0
84763,-33.3333333333333,4,1,0,100,0,0
85654,-66.6666666666667,4,1,0,100,0,0
114168,-50,4,1,0,100,0,0
117733,-66.6666666666667,4,1,0,100,0,0
118030,-40,4,1,0,100,0,0
118327,-33.3333333333333,4,1,0,100,0,0
128426,-50,4,1,0,100,0,0
134664,-100,4,1,0,100,0,0
137931,-50,4,1,0,100,0,0
151891,-25,4,1,0,100,0,0
190208,-50,4,1,0,100,0,0
191990,-33.3333333333333,4,1,0,100,0,0
192287,-25,4,1,0,100,0,0
193178,-50,4,1,0,100,0,0
194367,-33.3333333333333,4,1,0,100,0,0
194664,-25,4,1,0,100,0,0
199713,-50,4,1,0,100,0,0
201495,-33.3333333333333,4,1,0,100,0,0
201792,-21,4,1,0,100,0,0
202386,-50,4,1,0,100,0,0
203871,-33.3333333333333,4,1,0,100,0,0
204168,-25,4,1,0,100,0,0

[HitObjects]
72,34,11990,5,0,0:0:0:0:
144,76,12584,1,0,0:0:0:0:
58,113,13178,1,0,0:0:0:0:
151,151,13772,1,0,0:0:0:0:
86,149,14367,2,0,P|153:87|213:172,1,200
336,333,15258,5,0,0:0:0:0:
422,333,15555,2,0,L|421:223,1,100
421,134,16149,6,0,L|284:134,1,100
188,257,16743,6,0,B|121:281|121:281|122:247,1,100
124,153,17337,6,0,B|123:85|123:85|179:85,1,100
307,152,17931,6,0,P|362:131|386:171,1,100
383,64,18525,1,0,0:0:0:0:
383,64,18822,1,0,0:0:0:0:
224,64,19119,6,0,P|153:150|52:103,1,240.000009155274
136,79,20010,1,0,0:0:0:0:
327,83,20307,6,0,L|388:83,2,40
384,148,20901,1,0,0:0:0:0:
323,148,21198,1,0,0:0:0:0:
54,335,21495,2,0,L|158:335,1,80
174,260,22089,1,0,0:0:0:0:
56,260,22386,1,0,0:0:0:0:
58,99,22683,6,0,B|58:134|58:134|103:135,1,80
453,79,23277,6,0,B|454:134|409:135,1,80
464,328,23871,6,0,P|393:242|292:289,1,240.000009155274
43,142,24466,6,0,L|43:91,1,40
120,45,24763,2,0,L|120:87,2,40
186,85,25357,2,0,L|186:45,2,40
392,45,25951,6,0,L|392:87,2,40
326,85,26545,2,0,L|326:45,2,40
120,339,27139,6,0,L|120:297,2,40
186,299,27733,2,0,P|195:317|186:339,2,40
222,238,28327,1,0,0:0:0:0:
468,257,28624,6,0,P|396:343|295:295,1,240.000009155274
57,152,29218,5,0,0:0:0:0:
57,69,29515,2,0,L|161:69,1,80
322,44,30109,5,0,0:0:0:0:
393,88,30406,1,0,0:0:0:0:
322,132,30703,1,0,0:0:0:0:
42,234,31000,6,0,L|42:281,2,40
130,235,31594,1,0,0:0:0:0:
131,320,31891,1,0,0:0:0:0:
305,232,32188,6,0,P|346:224|403:231,1,80
316,307,32782,1,0,0:0:0:0:
316,307,33079,1,0,0:0:0:0:
348,46,33376,6,0,B|436:145|436:145|348:46,1,240.000009155274
56,55,33970,5,0,0:0:0:0:
456,329,34267,5,0,0:0:0:0:
456,55,34565,5,0,0:0:0:0:
56,329,34862,5,0,0:0:0:0:
255,191,35159,1,0,0:0:0:0:
255,191,35456,1,0,0:0:0:0:
53,47,35753,2,0,P|76:57|113:32,2,40
459,47,36347,5,0,0:0:0:0:
459,47,36644,1,0,0:0:0:0:
373,320,36941,6,0,B|285:221|285:221|373:320,1,240.000009155274
51,49,37535,6,0,L|149:49,1,80
255,191,38129,5,0,0:0:0:0:
255,191,38426,1,0,0:0:0:0:
255,191,38723,1,0,0:0:0:0:
120,85,39020,6,0,L|120:45,2,40
186,45,39614,2,0,L|186:85,2,40
392,85,40208,6,0,L|392:45,2,40
326,45,40802,2,0,L|326:85,2,40
120,339,41396,6,0,L|120:299,2,40
186,299,41990,2,0,P|195:317|186:339,2,40
120,339,42584,6,0,L|120:299,2,40
186,299,43178,2,0,P|194:316|189:335,2,40
392,299,43772,6,0,L|392:339,2,40
326,339,44366,2,0,L|326:299,2,40
120,85,44960,6,0,L|120:45,2,40
186,45,45554,2,0,L|186:85,2,40
255,190,46149,5,0,0:0:0:0:
255,190,46446,1,0,0:0:0:0:
255,190,46743,1,0,0:0:0:0:
255,190,47040,1,0,0:0:0:0:
305,305,47337,6,0,P|375:328|421:301,1,120.000004577637
60,12,48228,6,0,B|60:164|60:164|352:164,1,320
284,220,48822,6,0,B|452:220|452:220|452:372,1,320
96,231,49416,6,0,P|69:276|87:313,1,80
416,231,50010,2,0,P|443:276|425:313,1,80
256,291,50604,1,0,0:0:0:0:
253,189,50901,6,0,P|216:215|211:232,1,40
433,260,51198,2,0,L|405:272,1,30.0000011444092
51,262,51495,2,0,L|80:271,1,30.0000011444092
388,55,51792,2,0,L|416:43,1,30.0000011444092
97,52,52089,2,0,L|69:43,1,30.0000011444092
254,190,52386,5,0,0:0:0:0:
334,53,52980,6,0,L|463:152,1,120.000004577637
82,257,53574,2,0,L|178:331,1,120.000004577637
100,51,54168,6,0,P|54:82|79:130,1,120.000004577637
412,51,54763,6,0,P|458:82|433:130,1,120.000004577637
256,340,55357,1,0,0:0:0:0:
255,26,55654,2,0,L|256:200,1,120.000004577637
65,191,56248,2,0,L|203:192,1,120.000004577637
446,188,56842,2,0,L|315:191,1,120.000004577637
327,191,57139,6,0,L|460:188,1,120.000004577637
65,191,57733,2,0,L|203:192,1,120.000004577637
255,34,58327,1,0,0:0:0:0:
106,302,58624,6,0,L|196:302,3,60.0000022888184
40,301,59218,1,0,0:0:0:0:
327,193,59515,6,0,L|460:196,1,120.000004577637
65,193,60109,2,0,L|203:192,1,120.000004577637
255,350,60703,1,0,0:0:0:0:
106,82,61000,6,0,L|256:83,1,120.000004577637
40,83,61594,1,0,0:0:0:0:
71,192,66644,6,0,L|217:192,1,120.000004577637
308,192,67238,1,0,0:0:0:0:
308,192,67535,1,0,0:0:0:0:
152,330,67832,2,0,P|76:311|51:238,1,120.000004577637
152,54,68426,2,0,P|76:73|51:146,1,120.000004577637
187,192,69020,1,0,0:0:0:0:
427,192,69317,2,0,L|286:192,1,120.000004577637
187,192,69911,2,0,L|441:192,1,240.000009155274
100,106,70802,2,0,P|40:193|115:289,2,220.000002098084
43,145,80901,6,0,L|215:146,1,120.000004577637
461,146,81495,2,0,L|315:146,1,120.000004577637
38,316,82089,6,0,L|210:317,1,120.000004577637
456,317,82683,2,0,L|310:317,1,120.000004577637
204,138,83277,1,0,0:0:0:0:
304,101,83574,2,0,L|304:250,1,120.000004577637
205,365,84168,2,0,L|205:222,1,120.000004577637
304,101,84763,2,0,L|304:250,2,120.000004577637
205,245,85357,1,0,0:0:0:0:
46,46,85654,6,0,L|187:46,1,120.000004577637
304,49,86248,1,0,0:0:0:0:
46,257,86545,2,0,L|46:87,2,120.000004577637
302,255,87436,1,0,0:0:0:0:
171,256,87733,1,0,0:0:0:0:
422,252,88030,1,0,0:0:0:0:
302,255,88327,1,0,0:0:0:0:
293,146,88624,1,0,0:0:0:0:
287,47,88921,1,0,0:0:0:0:
66,31,89218,6,0,B|63:98|63:98|83:170|83:170|82:258,1,180.000006866455
8,201,89812,1,0,0:0:0:0:
167,203,90109,1,0,0:0:0:0:
89,326,90406,1,0,0:0:0:0:
256,192,90555,12,0,95010,0:0:0:0:
61,56,114168,6,0,L|62:244,1,160
60,313,114614,1,0,0:0:0:0:
62,218,114763,1,0,0:0:0:0:
164,311,115060,2,0,L|269:311,1,80
338,311,115357,1,0,0:0:0:0:
414,52,115654,2,0,L|510:52,2,80
508,141,116099,2,0,L|385:141,1,80
338,311,116545,6,0,L|338:128,1,160
342,47,117139,1,0,0:0:0:0:
435,209,117436,1,0,0:0:0:0:
165,314,117733,6,0,P|115:283|63:223,1,120.000004577637
73,238,118030,2,0,P|46:149|101:38,1,200
84,53,118327,2,0,P|196:47|285:208,1,240.000009155274
205,161,118772,1,0,0:0:0:0:
215,57,128426,6,0,B|215:150|215:150|97:150,1,160
303,69,129020,1,0,0:0:0:0:
302,241,129317,1,0,0:0:0:0:
148,150,129614,1,0,0:0:0:0:
63,336,129911,2,0,L|63:221,2,80
152,261,130505,2,0,L|152:354,1,80
152,30,130802,2,0,L|151:204,1,160
22,29,131396,1,0,0:0:0:0:
152,30,131693,1,0,0:0:0:0:
276,31,131990,1,0,0:0:0:0:
256,192,132139,12,0,133178,0:0:0:0:
47,282,133772,6,0,B|217:281|217:281|47:282,1,320
65,34,134664,6,0,L|64:120,1,80
66,35,135258,2,0,L|153:35,1,80
482,18,135852,6,0,B|482:164|482:164|350:163,1,240
58,310,137040,6,0,L|225:312,1,160
98,311,137188,2,0,L|238:312,1,120
139,311,137337,2,0,L|234:312,1,80
180,311,137485,2,0,L|232:314,1,40
52,128,137931,6,0,L|231:129,1,160
306,133,138525,1,0,0:0:0:0:
461,135,138822,1,0,0:0:0:0:
382,133,138970,1,0,0:0:0:0:
306,133,139119,1,0,0:0:0:0:
52,128,139416,6,0,L|231:129,2,160
464,136,140307,6,0,L|285:137,2,160
140,209,141198,2,0,P|215:301|354:161,2,320
59,249,147436,6,0,P|103:329|202:335,1,160
57,42,148030,1,0,0:0:0:0:
202,142,148327,1,0,0:0:0:0:
453,135,148624,2,0,P|408:55|310:49,1,160
59,249,149218,2,0,P|103:329|202:335,1,160
255,192,149812,5,0,0:0:0:0:
278,350,150109,1,0,0:0:0:0:
199,345,150406,1,0,0:0:0:0:
278,34,150703,2,0,L|198:347,1,320
278,350,151594,2,0,L|198:37,1,320
239,194,151891,2,0,L|197:32,2,160
75,333,190208,6,0,B|116:138|116:138|125:158,1,160
8,118,190802,1,0,0:0:0:0:
155,47,191099,1,0,0:0:0:0:
253,193,191396,1,0,0:0:0:0:
253,193,191693,1,0,0:0:0:0:
336,337,191990,6,0,B|449:299|449:299|334:337,1,240.000009155274
334,336,192287,6,0,L|13:249,1,320
28,101,192881,1,0,0:0:0:0:
125,22,193178,2,0,L|302:49,1,160
199,163,193772,1,0,0:0:0:0:
385,182,194069,1,0,0:0:0:0:
80,364,194367,6,0,B|72:305|72:305|123:330|123:330|69:305|69:305|80:369,1,240.000009155274
80,364,194664,6,0,B|47:196|47:196|203:245,1,320
296,260,195258,1,0,0:0:0:0:
75,93,195555,1,0,0:0:0:0:
133,285,195852,1,0,0:0:0:0:
75,93,196000,1,0,0:0:0:0:
296,260,196149,1,0,0:0:0:0:
468,47,196446,6,0,L|225:48,2,160
217,140,197040,2,0,L|425:140,2,160
29,20,197634,1,0,0:0:0:0:
184,57,197931,1,0,0:0:0:0:
29,20,198228,1,0,0:0:0:0:
77,137,198376,1,0,0:0:0:0:
184,57,198525,1,0,0:0:0:0:
54,205,198822,1,0,0:0:0:0:
126,279,199119,1,0,0:0:0:0:
232,298,199416,1,0,0:0:0:0:
126,279,199565,1,0,0:0:0:0:
324,240,199713,6,0,P|384:178|402:98,1,160
510,144,200307,1,0,0:0:0:0:
384,24,200604,1,0,0:0:0:0:
241,123,200901,1,0,0:0:0:0:
241,123,201198,1,0,0:0:0:0:
30,269,201495,6,0,L|156:307,1,120.000004577637
144,303,201644,2,0,L|144:148,1,120.000004577637
30,269,201792,2,0,B|145:304|145:304|144:183|144:183|-27:311,1,380.952380952381
306,313,202386,1,0,0:0:0:0:
105,318,202683,2,0,L|289:256,1,160
306,313,203129,1,0,0:0:0:0:
451,251,203277,1,0,0:0:0:0:
451,251,203574,1,0,0:0:0:0:
26,128,203871,6,0,P|66:83|125:141,1,120.000004577637
115,154,204020,6,0,P|61:171|25:127,1,120.000004577637
26,128,204168,6,0,P|66:83|111:240,1,320
56,320,204763,5,0,0:0:0:0:
224,299,205060,1,0,0:0:0:0:
118,205,205357,1,0,0:0:0:0:
56,320,205505,1,0,0:0:0:0:
224,299,205654,1,0,0:0:0:0:
119,108,205951,2,0,L|-50:69,2,160
190,225,206396,2,0,L|373:265,2,160
274,155,207139,5,0,0:0:0:0:
113,158,207436,1,0,0:0:0:0:
419,160,207733,1,0,0:0:0:0:
113,158,207881,1,0,0:0:0:0:
274,155,208030,1,0,0:0:0:0:
25,157,208327,1,0,0:0:0:0:
274,155,208624,1,0,0:0:0:0:
25,157,208921,1,0,0:0:0:0:
274,155,209069,1,0,0:0:0:0:
25,157,209218,5,0,0:0:0:0:
