osu file format v14

[General]
AudioFilename: audio.mp3
AudioLeadIn: 0
PreviewTime: 113289
Countdown: 0
SampleSet: Normal
StackLeniency: 0.7
Mode: 0
LetterboxInBreaks: 0
WidescreenStoryboard: 0

[Editor]
DistanceSpacing: 2.3
BeatDivisor: 4
GridSize: 4
TimelineZoom: 2.899999

[Metadata]
Title:Awaken the Power
TitleUnicode:力を目覚めさせる
Artist:Saint Aqours Snow
ArtistUnicode:Saint Aqours Snow
Creator:Arospity
Version:Sisterly Love
Source:Love Live! Sunshine
Tags:
BeatmapID:1541335
BeatmapSetID:730330

[Difficulty]
HPDrainRate:6.5
CircleSize:4.3
OverallDifficulty:8.6
ApproachRate:9.4
SliderMultiplier:1.4
SliderTickRate:1

[Events]
//Background and Video events
0,0,"bg.jpg",0,0
//Break Periods
//Storyboard Layer 0 (Background)
//Storyboard Layer 1 (Fail)
//Storyboard Layer 2 (Pass)
//Storyboard Layer 3 (Foreground)
//Storyboard Sound Samples

[TimingPoints]
1500,750,4,1,0,15,1,0
49500,-111.111111111111,4,1,0,40,0,0
49875,-100,4,1,0,35,0,0
51000,-100,4,1,0,50,0,0
51375,-100,4,1,0,45,0,0
52500,-100,4,1,0,60,0,0
52875,-100,4,1,0,55,0,0
54000,-100,4,1,0,50,0,0
54375,-100,4,1,0,45,0,0
55500,-100,4,1,0,40,0,0
57750,-100,4,1,0,50,0,0
58500,-100,4,1,0,45,0,0
60375,-100,4,1,0,47,0,0
60750,-100,4,1,0,49,0,0
61125,-100,4,1,0,51,0,0
61312,-100,4,1,0,55,0,0
61500,315.789473684211,4,1,0,60,1,0
61657,-83.3333333333333,4,1,0,45,0,0
66552,-83.3333333333333,4,1,0,50,0,0
67026,-83.3333333333333,4,1,0,55,0,0
67500,-83.3333333333333,4,1,0,60,0,0
69078,-100,4,1,0,60,0,0
71605,-100,4,1,0,45,0,0
73026,-100,4,1,0,45,0,0
77921,-90.9090909090909,4,1,0,45,0,0
79184,-95.2380952380952,4,1,0,45,0,0
81710,-100,4,1,0,45,0,0
86763,-95.2380952380952,4,1,0,45,0,0
88026,-90.9090909090909,4,1,0,45,0,0
89289,-86.9565217391304,4,1,0,45,0,0
90552,-90.9090909090909,4,1,0,40,0,0
91815,-90.9090909090909,4,1,0,40,0,0
94342,-100,4,1,0,35,0,0
96868,-90.9090909090909,4,1,0,40,0,0
99394,-95.2380952380952,4,1,0,40,0,0
101921,-90.9090909090909,4,1,0,40,0,0
104447,-90.9090909090909,4,1,0,45,0,0
106815,-90.9090909090909,4,1,0,40,0,0
108078,-90.9090909090909,4,1,0,50,0,0
109342,-86.9565217391304,4,1,0,50,0,0
111710,-76.9230769230769,4,1,0,50,0,0
113289,-111.111111111111,4,1,0,60,0,0
114394,-76.9230769230769,4,1,0,55,0,1
119605,-76.9230769230769,4,1,0,50,0,0
124657,-76.9230769230769,4,1,0,55,0,1
129710,-76.9230769230769,4,1,0,50,0,0
135078,-76.9230769230769,4,1,0,55,0,0
139815,-76.9230769230769,4,1,0,60,0,1
143605,-76.9230769230769,4,1,0,50,0,0
144868,-76.9230769230769,4,1,0,55,0,0
148657,500,4,1,0,15,1,0

[HitObjects]
208,136,49500,5,0,0:0:0:0:
208,136,49875,1,0,0:0:0:0:
256,84,50062,1,0,0:0:0:0:
384,168,50250,1,0,0:0:0:0:
328,132,50437,1,0,0:0:0:0:
236,80,50625,1,0,0:0:0:0:
248,68,50718,1,0,0:0:0:0:
263,58,50812,1,0,0:0:0:0:
279,50,50906,1,0,0:0:0:0:
295,46,51000,1,0,0:0:0:0:
295,46,51375,5,0,0:0:0:0:
340,120,51562,1,0,0:0:0:0:
148,120,51750,1,0,0:0:0:0:
188,56,51937,1,0,0:0:0:0:
260,32,52125,1,0,0:0:0:0:
324,72,52312,1,0,0:0:0:0:
348,140,52500,1,0,0:0:0:0:
348,140,52875,5,0,0:0:0:0:
384,212,53062,1,0,0:0:0:0:
172,96,53250,1,0,0:0:0:0:
252,80,53437,1,0,0:0:0:0:
328,116,53625,1,0,0:0:0:0:
319,131,53718,1,0,0:0:0:0:
307,144,53812,1,0,0:0:0:0:
294,155,53906,1,0,0:0:0:0:
278,163,54000,1,0,0:0:0:0:
278,163,54375,5,0,0:0:0:0:
208,192,54562,1,0,0:0:0:0:
220,76,54750,1,0,0:0:0:0:
276,40,54937,1,0,0:0:0:0:
384,116,55125,1,0,0:0:0:0:
400,180,55312,1,0,0:0:0:0:
332,168,55500,6,0,P|268:200|180:196,1,140
256,124,56812,5,0,0:0:0:0:
256,124,56906,1,0,0:0:0:0:
256,124,57000,1,0,0:0:0:0:
328,156,57375,1,0,0:0:0:0:
376,216,57562,1,0,0:0:0:0:
296,228,57750,6,0,P|288:244|280:268,2,35
342,160,58312,1,0,0:0:0:0:
380,236,58500,2,0,P|430:175|395:97,1,140
344,160,59812,1,0,0:0:0:0:
344,160,59906,1,0,0:0:0:0:
344,160,60000,5,0,0:0:0:0:
400,120,60187,1,0,0:0:0:0:
220,52,60375,1,0,0:0:0:0:
252,116,60562,1,0,0:0:0:0:
312,248,60750,1,0,0:0:0:0:
280,308,60937,1,0,0:0:0:0:
104,240,61125,1,0,0:0:0:0:
84,172,61312,1,0,0:0:0:0:
128,120,61500,6,0,P|200:72|272:64,1,140
392,116,61973,2,0,P|344:128|292:160,1,83.9999974365235
224,196,62289,1,0,0:0:0:0:
272,300,62447,1,0,0:0:0:0:
376,276,62605,2,0,P|384:220|372:164,1,83.9999974365235
344,88,62921,5,0,0:0:0:0:
256,152,63078,1,0,0:0:0:0:
240,24,63236,2,0,P|196:40|160:88,1,83.9999974365235
72,144,63552,1,0,0:0:0:0:
240,96,63710,1,0,0:0:0:0:
188,204,63868,1,0,0:0:0:0:
316,132,64026,6,0,P|360:156|392:204,1,83.9999974365235
460,292,64342,1,0,0:0:0:0:
272,292,64500,1,0,0:0:0:0:
288,192,64657,1,0,0:0:0:0:
336,248,64815,1,0,0:0:0:0:
228,232,64973,1,0,0:0:0:0:
400,108,65131,2,0,P|392:160|364:212,1,83.9999974365235
280,240,65447,5,0,0:0:0:0:
140,172,65605,2,0,P|184:140|240:120,1,83.9999974365235
384,120,65921,1,0,0:0:0:0:
256,276,66078,2,0,P|224:236|212:168,1,83.9999974365235
236,64,66394,1,0,0:0:0:0:
372,204,66552,5,0,0:0:0:0:
376,212,66631,1,0,0:0:0:0:
380,220,66710,2,0,P|400:264|396:324,1,83.9999974365235
328,276,67026,2,0,P|276:272|236:236,1,83.9999974365235
160,168,67342,1,0,0:0:0:0:
264,88,67500,1,0,0:0:0:0:
300,204,67657,1,0,0:0:0:0:
200,248,67815,5,0,0:0:0:0:
320,136,67973,1,0,0:0:0:0:
320,264,68131,1,0,0:0:0:0:
184,96,68289,1,0,0:0:0:0:
396,56,68447,1,0,0:0:0:0:
432,288,68605,1,0,0:0:0:0:
192,312,68763,1,0,0:0:0:0:
100,56,68921,1,0,0:0:0:0:
140,40,69000,1,0,0:0:0:0:
176,52,69078,5,0,0:0:0:0:
193,82,69156,1,0,0:0:0:0:
208,113,69235,1,0,0:0:0:0:
220,146,69314,1,0,0:0:0:0:
230,180,69393,1,0,0:0:0:0:
236,214,69472,1,0,0:0:0:0:
232,248,69551,1,0,0:0:0:0:
208,273,69630,1,0,0:0:0:0:
174,277,69709,5,0,0:0:0:0:
146,257,69788,1,0,0:0:0:0:
141,224,69867,1,0,0:0:0:0:
158,194,69946,1,0,0:0:0:0:
188,177,70025,1,0,0:0:0:0:
223,172,70104,1,0,0:0:0:0:
258,172,70183,1,0,0:0:0:0:
293,175,70262,1,0,0:0:0:0:
327,179,70341,5,0,0:0:0:0:
404,112,70500,1,0,0:0:0:0:
304,340,70657,1,0,0:0:0:0:
224,276,70815,1,0,0:0:0:0:
128,156,70973,1,0,0:0:0:0:
148,56,71131,1,0,0:0:0:0:
244,120,71289,1,0,0:0:0:0:
278,120,71367,1,0,0:0:0:0:
312,130,71446,1,0,0:0:0:0:
342,148,71525,1,0,0:0:0:0:
366,173,71604,5,0,0:0:0:0:
368,268,71763,1,0,0:0:0:0:
276,208,71921,2,0,P|232:224|192:208,1,70
144,160,72236,1,0,0:0:0:0:
172,88,72394,1,0,0:0:0:0:
248,84,72552,2,0,L|232:152,1,70
152,172,72868,6,0,P|176:208|216:232,1,70
260,276,73184,1,0,0:0:0:0:
276,204,73342,1,0,0:0:0:0:
224,152,73500,2,0,B|256:124|312:116,1,70
364,120,73815,1,0,0:0:0:0:
420,168,73973,1,0,0:0:0:0:
424,244,74131,6,0,L|328:240,1,70
308,300,74447,1,0,0:0:0:0:
280,232,74605,2,0,P|244:256|224:304,1,70
224,352,74921,1,0,0:0:0:0:
160,308,75078,2,0,P|152:264|164:236,1,70
220,196,75394,6,0,P|152:168|96:212,1,140
108,272,75868,1,0,0:0:0:0:
40,248,76026,1,0,0:0:0:0:
36,176,76184,2,0,P|36:132|44:88,1,70
56,36,76500,1,0,0:0:0:0:
112,92,76657,6,0,L|252:112,1,140
260,36,77131,2,0,P|332:104|272:184,1,210
176,156,77763,1,0,0:0:0:0:
260,108,77921,6,0,L|368:244,1,154.000004699707
313,292,78394,2,0,P|416:275|403:171,1,231.000007049561
472,72,79026,1,0,0:0:0:0:
372,100,79191,6,0,P|340:128|328:168,1,73.4999977569581
356,228,79500,1,0,0:0:0:0:
472,144,79657,1,0,0:0:0:0:
324,40,79815,1,0,0:0:0:0:
248,168,79973,1,0,0:0:0:0:
164,132,80131,1,0,0:0:0:0:
169,168,80209,1,0,0:0:0:0:
184,201,80288,1,0,0:0:0:0:
206,231,80367,1,0,0:0:0:0:
234,254,80446,5,0,0:0:0:0:
376,284,80605,1,0,0:0:0:0:
332,160,80763,1,0,0:0:0:0:
340,164,80842,1,0,0:0:0:0:
348,168,80921,2,0,P|412:148|431:125,1,73.4999977569581
356,272,81236,5,0,0:0:0:0:
288,216,81394,1,0,0:0:0:0:
276,181,81472,1,0,0:0:0:0:
280,144,81551,1,0,0:0:0:0:
299,114,81630,1,0,0:0:0:0:
331,97,81709,5,0,0:0:0:0:
448,152,81868,1,0,0:0:0:0:
352,172,82026,2,0,P|396:228|420:240,1,70
432,288,82342,2,0,P|460:256|464:216,1,70
420,144,82657,1,0,0:0:0:0:
344,104,82815,1,0,0:0:0:0:
264,80,82973,6,0,P|204:96|176:120,1,70
144,188,83289,1,0,0:0:0:0:
240,220,83447,2,0,P|248:140|245:129,2,70
200,304,83921,1,0,0:0:0:0:
104,256,84078,1,0,0:0:0:0:
108,144,84236,6,0,P|156:164|192:184,1,70
260,220,84552,1,0,0:0:0:0:
144,296,84710,2,0,P|128:256|120:216,2,70
200,340,85184,1,0,0:0:0:0:
264,312,85342,1,0,0:0:0:0:
268,240,85500,6,0,P|192:244|172:256,1,70
136,280,85815,1,0,0:0:0:0:
132,204,85973,2,0,P|164:172|208:164,2,70
84,144,86447,1,0,0:0:0:0:
56,216,86605,1,0,0:0:0:0:
92,276,86763,6,0,P|120:320|212:348,1,146.999995513916
276,380,87236,2,0,P|280:336|256:300,1,73.4999977569581
204,264,87552,1,0,0:0:0:0:
140,220,87710,2,0,P|124:172|136:124,1,73.4999977569581
196,172,88026,6,0,P|264:212|288:288,1,154.000004699707
208,268,88500,2,0,P|220:308|256:352,2,77.0000023498536
308,204,88973,2,0,P|296:256|268:284,1,77.0000023498536
224,196,89289,5,0,0:0:0:0:
224,196,89605,1,0,0:0:0:0:
320,44,89763,1,0,0:0:0:0:
332,292,89921,1,0,0:0:0:0:
216,48,90079,1,0,0:0:0:0:
408,72,90236,1,0,0:0:0:0:
377,98,90314,1,0,0:0:0:0:
344,121,90393,1,0,0:0:0:0:
309,141,90472,1,0,0:0:0:0:
273,158,90551,5,0,0:0:0:0:
156,224,90710,1,0,0:0:0:0:
256,284,90868,1,0,0:0:0:0:
264,284,90947,1,0,0:0:0:0:
272,280,91026,2,0,P|316:256|348:224,1,77.0000023498536
368,120,91342,1,0,0:0:0:0:
240,52,91500,1,0,0:0:0:0:
238,90,91578,1,0,0:0:0:0:
242,128,91657,1,0,0:0:0:0:
252,165,91736,1,0,0:0:0:0:
267,201,91815,5,0,0:0:0:0:
372,200,92131,2,0,L|320:292,1,77.0000023498536
288,336,92447,1,0,0:0:0:0:
224,244,92605,1,0,0:0:0:0:
176,336,92763,1,0,0:0:0:0:
124,268,92921,2,0,L|72:176,1,77.0000023498536
48,120,93236,5,0,0:0:0:0:
180,72,93394,1,0,0:0:0:0:
156,184,93552,1,0,0:0:0:0:
48,36,93710,1,0,0:0:0:0:
232,144,93868,1,0,0:0:0:0:
180,360,94026,1,0,0:0:0:0:
336,212,94183,1,0,0:0:0:0:
336,212,94262,1,0,0:0:0:0:
336,212,94341,5,0,0:0:0:0:
264,148,94500,1,0,0:0:0:0:
168,156,94657,2,0,P|128:144|104:104,1,70
112,52,94973,1,0,0:0:0:0:
180,72,95131,2,0,P|220:88|244:116,1,70
304,148,95447,1,0,0:0:0:0:
376,184,95605,6,0,B|388:232|380:284,1,70
372,336,95921,1,0,0:0:0:0:
288,312,96078,1,0,0:0:0:0:
132,176,96236,1,0,0:0:0:0:
192,136,96394,1,0,0:0:0:0:
192,136,96473,1,0,0:0:0:0:
192,136,96552,1,0,0:0:0:0:
264,128,96710,2,0,P|308:136|352:156,1,70
360,212,97026,5,0,0:0:0:0:
292,280,97184,2,0,P|284:232|284:184,1,77.0000023498536
320,72,97500,1,0,0:0:0:0:
468,172,97657,1,0,0:0:0:0:
424,76,97815,1,0,0:0:0:0:
308,152,97973,2,0,P|320:196|344:232,1,77.0000023498536
408,244,98289,6,0,P|384:284|332:296,1,77.0000023498536
272,296,98605,1,0,0:0:0:0:
380,164,98763,1,0,0:0:0:0:
196,156,98921,1,0,0:0:0:0:
340,224,99078,1,0,0:0:0:0:
212,48,99236,2,0,P|164:80|132:104,1,77.0000023498536
88,148,99552,5,0,0:0:0:0:
104,236,99710,2,0,P|144:220|164:184,1,73.4999977569581
224,40,100026,1,0,0:0:0:0:
136,96,100184,1,0,0:0:0:0:
252,144,100342,1,0,0:0:0:0:
288,248,100500,2,0,P|324:280|360:296,1,73.4999977569581
420,264,100815,5,0,0:0:0:0:
428,176,100973,2,0,P|388:196|352:232,2,73.4999977569581
400,108,101447,1,0,0:0:0:0:
400,108,101526,1,0,0:0:0:0:
400,108,101605,1,0,0:0:0:0:
336,148,101763,2,0,P|304:128|256:124,1,73.4999977569581
200,168,102078,6,0,P|236:192|288:192,1,77.0000023498536
340,228,102394,1,0,0:0:0:0:
276,268,102552,2,0,P|308:300|352:304,1,77.0000023498536
404,264,102868,1,0,0:0:0:0:
420,336,103026,1,0,0:0:0:0:
480,292,103184,6,0,L|472:212,1,77.0000023498536
460,136,103500,1,0,0:0:0:0:
332,140,103657,1,0,0:0:0:0:
396,36,103815,1,0,0:0:0:0:
396,208,103973,1,0,0:0:0:0:
276,52,104131,1,0,0:0:0:0:
249,79,104209,1,0,0:0:0:0:
227,111,104288,1,0,0:0:0:0:
213,146,104367,1,0,0:0:0:0:
208,184,104446,5,0,0:0:0:0:
292,144,104605,1,0,0:0:0:0:
212,252,104763,1,0,0:0:0:0:
284,256,104921,2,0,P|356:268|384:264,1,77.0000023498536
408,208,105236,2,0,P|428:248|428:308,1,77.0000023498536
496,312,105552,2,0,P|468:340|432:356,1,77.0000023498536
288,320,105868,5,0,0:0:0:0:
168,288,106026,1,0,0:0:0:0:
344,240,106184,1,0,0:0:0:0:
448,208,106342,1,0,0:0:0:0:
196,172,106500,1,0,0:0:0:0:
80,136,106657,1,0,0:0:0:0:
184,28,106815,6,0,P|196:72|196:108,1,77.0000023498536
176,240,107131,1,0,0:0:0:0:
272,320,107289,1,0,0:0:0:0:
272,152,107447,1,0,0:0:0:0:
272,152,107526,1,0,0:0:0:0:
272,152,107605,1,0,0:0:0:0:
368,60,107763,2,0,P|408:84|432:132,1,77.0000023498536
288,268,108078,6,0,P|296:224|316:184,1,77.0000023498536
452,176,108394,1,0,0:0:0:0:
364,256,108552,1,0,0:0:0:0:
352,132,108710,1,0,0:0:0:0:
352,132,108789,1,0,0:0:0:0:
352,132,108868,1,0,0:0:0:0:
272,128,109026,2,0,P|248:172|236:224,1,77.0000023498536
232,316,109342,6,0,P|272:300|312:256,2,80.5000015354157
164,200,109815,1,0,0:0:0:0:
188,64,109973,1,0,0:0:0:0:
188,64,110052,1,0,0:0:0:0:
188,64,110131,1,0,0:0:0:0:
304,112,110289,2,0,P|320:156|324:200,1,80.5000015354157
180,212,110605,2,0,P|216:188|260:172,2,80.5000015354157
168,324,111078,5,0,0:0:0:0:
156,136,111236,1,0,0:0:0:0:
292,316,111394,2,0,P|264:272|240:240,1,80.5000015354157
376,304,111710,6,0,P|360:352|304:396,2,90.9999958343508
388,268,112105,1,0,0:0:0:0:
389,222,112183,1,0,0:0:0:0:
380,178,112262,1,0,0:0:0:0:
358,138,112342,1,0,0:0:0:0:
188,352,112500,1,0,0:0:0:0:
312,44,112657,1,0,0:0:0:0:
260,380,112815,1,0,0:0:0:0:
236,56,112973,1,0,0:0:0:0:
336,368,113131,1,0,0:0:0:0:
156,276,113289,6,0,P|168:312|196:340,1,62.9999980773926
260,336,113605,1,0,0:0:0:0:
240,268,113763,1,0,0:0:0:0:
240,268,114078,1,0,0:0:0:0:
240,268,114394,5,0,0:0:0:0:
300,216,114552,2,0,P|248:192|184:188,1,90.9999958343508
120,192,114868,1,0,0:0:0:0:
184,280,115026,1,0,0:0:0:0:
304,44,115184,1,0,0:0:0:0:
368,132,115342,1,0,0:0:0:0:
136,128,115499,1,0,0:0:0:0:
47,191,115657,1,0,0:0:0:0:
232,120,115815,6,0,P|244:172|244:236,1,90.9999958343508
188,320,116131,1,0,0:0:0:0:
84,224,116289,2,0,P|128:188|184:176,1,90.9999958343508
324,200,116605,1,0,0:0:0:0:
448,312,116763,1,0,0:0:0:0:
180,348,116921,6,0,P|176:292|184:236,1,90.9999958343508
212,164,117236,1,0,0:0:0:0:
324,132,117394,1,0,0:0:0:0:
260,252,117552,1,0,0:0:0:0:
196,96,117710,1,0,0:0:0:0:
332,256,117868,1,0,0:0:0:0:
312,48,118026,1,0,0:0:0:0:
184,320,118184,1,0,0:0:0:0:
128,240,118342,6,0,P|160:196|204:156,1,90.9999958343508
280,116,118657,1,0,0:0:0:0:
308,272,118815,2,0,P|256:268|196:232,2,90.9999958343508
460,220,119289,1,0,0:0:0:0:
400,64,119447,6,0,P|332:128|276:208,1,181.999991668702
188,192,119921,2,0,P|216:148|252:112,2,90.9999958343508
228,344,120394,1,0,0:0:0:0:
384,284,120552,1,0,0:0:0:0:
352,148,120710,2,0,P|304:172|264:220,1,90.9999958343508
272,312,121026,5,0,0:0:0:0:
468,192,121184,1,0,0:0:0:0:
148,152,121342,2,0,P|192:112|248:88,1,90.9999958343508
352,80,121657,1,0,0:0:0:0:
328,348,121815,1,0,0:0:0:0:
220,184,121973,6,0,P|184:224|164:280,1,90.9999958343508
176,352,122289,1,0,0:0:0:0:
232,292,122447,1,0,0:0:0:0:
100,352,122605,1,0,0:0:0:0:
276,232,122763,1,0,0:0:0:0:
28,332,122921,1,0,0:0:0:0:
312,168,123078,1,0,0:0:0:0:
16,256,123236,1,0,0:0:0:0:
352,100,123394,6,0,P|376:148|384:212,1,90.9999958343508
372,288,123710,1,0,0:0:0:0:
304,164,123868,1,0,0:0:0:0:
304,164,124184,1,0,0:0:0:0:
304,164,124500,1,0,0:0:0:0:
256,248,124657,6,0,P|224:204|216:140,1,90.9999958343508
224,72,124973,1,0,0:0:0:0:
332,336,125131,1,0,0:0:0:0:
408,284,125289,1,0,0:0:0:0:
112,288,125447,1,0,0:0:0:0:
164,228,125605,1,0,0:0:0:0:
456,184,125763,1,0,0:0:0:0:
292,48,125921,6,0,P|248:76|224:112,1,90.9999958343508
232,216,126236,1,0,0:0:0:0:
364,200,126394,2,0,P|336:152|296:116,1,90.9999958343508
220,68,126710,1,0,0:0:0:0:
52,176,126868,1,0,0:0:0:0:
220,300,127026,2,0,P|272:280|316:240,1,90.9999958343508
360,188,127342,5,0,0:0:0:0:
172,244,127500,1,0,0:0:0:0:
376,292,127657,1,0,0:0:0:0:
168,168,127815,1,0,0:0:0:0:
436,104,127973,1,0,0:0:0:0:
72,196,128131,1,0,0:0:0:0:
464,284,128289,1,0,0:0:0:0:
180,328,128447,6,0,P|160:276|168:220,1,90.9999958343508
224,148,128763,1,0,0:0:0:0:
312,224,128921,2,0,P|272:256|208:272,2,90.9999958343508
356,144,129394,1,0,0:0:0:0:
280,100,129552,6,0,P|248:140|252:204,1,90.9999958343508
288,304,129868,2,0,B|340:316|400:296,1,90.9999958343508
488,236,130184,1,0,0:0:0:0:
416,144,130342,1,0,0:0:0:0:
320,164,130500,2,0,P|360:200|344:256,1,90.9999958343508
320,308,130815,1,0,0:0:0:0:
232,296,130973,6,0,P|260:256|296:232,1,90.9999958343508
412,232,131289,1,0,0:0:0:0:
396,328,131447,2,0,P|340:328|292:288,2,90.9999958343508
496,296,131921,1,0,0:0:0:0:
448,200,132078,6,0,L|364:264,1,90.9999958343508
448,368,132394,1,0,0:0:0:0:
152,148,132552,1,0,0:0:0:0:
380,332,132710,1,0,0:0:0:0:
152,220,132868,1,0,0:0:0:0:
308,344,133026,1,0,0:0:0:0:
176,288,133184,1,0,0:0:0:0:
228,344,133342,6,0,L|276:248,1,90.9999958343508
316,140,133657,1,0,0:0:0:0:
392,260,133815,1,0,0:0:0:0:
208,220,133973,1,0,0:0:0:0:
400,160,134131,1,0,0:0:0:0:
386,116,134209,1,0,0:0:0:0:
359,79,134288,1,0,0:0:0:0:
323,52,134367,1,0,0:0:0:0:
281,37,134447,2,0,P|255:43|231:63,4,45.4999979171754
216,152,134921,1,0,0:0:0:0:
312,136,135078,6,0,P|328:188|316:248,1,90.9999958343508
272,316,135394,1,0,0:0:0:0:
172,288,135552,2,0,P|168:216|172:172,1,90.9999958343508
264,88,135868,5,0,0:0:0:0:
344,232,136026,1,0,0:0:0:0:
424,144,136184,1,0,0:0:0:0:
468,260,136342,1,0,0:0:0:0:
340,152,136500,1,0,0:0:0:0:
492,184,136657,1,0,0:0:0:0:
396,296,136815,1,0,0:0:0:0:
408,112,136973,1,0,0:0:0:0:
308,220,137131,2,0,P|268:240|236:284,1,90.9999958343508
212,360,137447,5,0,0:0:0:0:
344,312,137605,1,0,0:0:0:0:
156,300,137763,1,0,0:0:0:0:
36,272,137921,1,0,0:0:0:0:
356,228,138078,1,0,0:0:0:0:
464,208,138236,1,0,0:0:0:0:
424,104,138394,1,0,0:0:0:0:
332,68,138552,6,0,P|292:96|268:140,1,90.9999958343508
260,216,138868,1,0,0:0:0:0:
148,240,139026,1,0,0:0:0:0:
188,128,139184,1,0,0:0:0:0:
84,200,139342,1,0,0:0:0:0:
63,240,139420,1,0,0:0:0:0:
72,284,139500,1,0,0:0:0:0:
108,311,139578,1,0,0:0:0:0:
152,319,139657,1,0,0:0:0:0:
195,305,139736,1,0,0:0:0:0:
228,274,139815,5,0,0:0:0:0:
288,192,139973,1,0,0:0:0:0:
188,184,140131,1,0,0:0:0:0:
304,324,140289,1,0,0:0:0:0:
369,210,140447,1,0,0:0:0:0:
236,220,140605,1,0,0:0:0:0:
388,108,140763,1,0,0:0:0:0:
308,252,140921,1,0,0:0:0:0:
240,100,141078,5,0,0:0:0:0:
24,132,141236,1,0,0:0:0:0:
172,280,141394,1,0,0:0:0:0:
344,340,141552,1,0,0:0:0:0:
328,44,141710,1,0,0:0:0:0:
252,348,141868,1,0,0:0:0:0:
204,40,142026,1,0,0:0:0:0:
152,368,142184,1,0,0:0:0:0:
120,44,142342,5,0,0:0:0:0:
92,79,142420,1,0,0:0:0:0:
75,121,142499,1,0,0:0:0:0:
80,166,142578,1,0,0:0:0:0:
109,200,142657,1,0,0:0:0:0:
152,214,142736,1,0,0:0:0:0:
197,214,142815,1,0,0:0:0:0:
243,208,142894,1,0,0:0:0:0:
288,207,142973,5,0,0:0:0:0:
332,217,143052,1,0,0:0:0:0:
370,242,143131,1,0,0:0:0:0:
399,277,143210,1,0,0:0:0:0:
415,319,143289,1,0,0:0:0:0:
408,364,143368,1,0,0:0:0:0:
372,384,143447,1,0,0:0:0:0:
328,316,143605,6,0,P|280:292|224:280,1,90.9999958343508
152,272,143921,1,0,0:0:0:0:
264,208,144078,1,0,0:0:0:0:
264,208,144157,1,0,0:0:0:0:
264,208,144236,1,0,0:0:0:0:
172,120,144394,1,0,0:0:0:0:
292,128,144552,2,0,P|328:164|348:212,1,90.9999958343508
344,316,144868,5,0,0:0:0:0:
216,272,145026,2,0,P|240:220|280:188,1,90.9999958343508
400,340,145342,1,0,0:0:0:0:
300,264,145500,1,0,0:0:0:0:
300,100,145657,1,0,0:0:0:0:
408,168,145815,1,0,0:0:0:0:
204,348,145973,1,0,0:0:0:0:
256,192,146052,12,0,148657,0:0:0:0:
