osu file format v14

[General]
AudioFilename: audio.mp3
AudioLeadIn: 0
PreviewTime: 15060
Countdown: 0
SampleSet: None
StackLeniency: 0.7
Mode: 0
LetterboxInBreaks: 0
WidescreenStoryboard: 0

[Editor]
Bookmarks: 20,7051,19238,41414,54935,75855
DistanceSpacing: 3
BeatDivisor: 4
GridSize: 8
TimelineZoom: 2.68

[Metadata]
Title:Duet Shitekudapsi (TV Size)
TitleUnicode:Duet♡してくだΨ (TV Size)
Artist:Saiki-kku Lover
ArtistUnicode:Saiki-kku Lover
Creator:Epixyl
Version:Insane
Source:Saiki Kusuo no Ψ-nan 2
Tags:duet shitekudasai tv size anime kokomi teruhashi mikoto aiura hiroshi kamiya ai kakuma eri kitamura Duet♡ShitekudaΨ Duet♡してくだΨ 斉木楠雄のΨ難 The Disastrous Life of Saiki K. ending
BeatmapID:1717877
BeatmapSetID:819359

[Difficulty]
HPDrainRate:6
CircleSize:4
OverallDifficulty:8
ApproachRate:9
SliderMultiplier:1.4
SliderTickRate:1

[Events]
//Background and Video events
0,0,"school_bg.jpg",0,0
//Break Periods
//Storyboard Layer 0 (Background)
//Storyboard Layer 1 (Fail)
//Storyboard Layer 2 (Pass)
//Storyboard Layer 3 (Foreground)
//Storyboard Sound Samples

[TimingPoints]
60,468.75,4,3,1,100,1,0
60,-100,4,3,1,100,0,0
3810,-83.3333333333333,4,3,1,100,0,0
11310,-66.6666666666667,4,3,1,100,0,0
11544,-100,4,3,1,100,0,0
13653,-83.3333333333333,4,3,1,100,0,0
19278,-100,4,2,1,100,0,0
19747,-125,4,2,1,90,0,0
20216,-166.666666666667,4,2,1,80,0,0
20685,576.923076923077,4,2,1,100,1,0
23569,-100,4,2,1,80,0,0
23858,-100,4,2,1,70,0,0
24146,-100,4,2,1,60,0,0
30204,-100,4,2,1,80,0,0
31069,-100,4,2,1,60,0,0
36261,-66.6666666666667,4,2,1,80,0,0
37992,-100,4,2,1,80,0,0
41454,422.535211267606,4,3,1,100,1,0
41454,-66.6666666666667,4,3,1,100,0,0
48214,-200,4,3,1,50,0,0
49693,-200,4,3,1,80,0,0
49904,-200,4,3,1,50,0,0
50961,-200,4,3,1,80,0,0
51594,-200,4,3,1,50,0,0
53073,-200,4,3,1,80,0,0
53284,-200,4,3,1,50,0,0
54130,-100,4,3,1,80,0,0
54975,-100,4,3,1,30,0,0
55820,-100,4,3,1,40,0,0
56665,483.870967741935,4,3,1,50,1,0
57148,517.241379310345,4,3,1,100,1,0
57148,-125,4,3,1,80,0,0
57665,550.45871559633,4,3,1,100,1,0
57665,-166.666666666667,4,3,1,90,0,0
58215,600,4,3,1,100,1,0
58215,-250,4,3,1,100,0,0
58815,437.956204379562,4,3,1,100,1,1
59800,-100,4,3,1,5,0,1
59909,-100,4,3,1,100,0,1
61552,-100,4,3,1,5,0,1
61661,-100,4,3,1,100,0,1
65055,-100,4,3,1,5,0,1
65165,-100,4,3,1,100,0,1
66807,-100,4,3,1,5,0,1
66917,-100,4,3,1,100,0,1
68559,-100,4,3,1,5,0,1
68669,-100,4,3,1,100,0,1
71077,-100,4,3,1,100,0,0
72829,-100,4,3,1,100,0,1
73815,-100,4,3,1,5,0,1
73924,-100,4,3,1,100,0,1
77318,-100,4,3,1,5,0,1
77428,-100,4,3,1,100,0,1
80165,-100,4,3,1,5,0,1
80274,-100,4,3,1,100,0,1
80822,-100,4,3,1,5,0,1
80931,-100,4,3,1,100,0,1
81917,-100,4,3,1,5,0,1
82026,-100,4,3,1,100,0,1
82574,-100,4,3,1,5,0,1
82683,-100,4,3,1,100,0,1
86844,-83.3333333333333,4,3,1,100,0,0
87939,-50,4,3,1,100,0,0
88267,-50,4,3,1,5,0,0
88377,-50,4,3,1,100,0,0

[Colours]
Combo1 : 255,192,0
Combo2 : 0,128,255
Combo3 : 128,255,0
Combo4 : 255,128,255

[HitObjects]
56,55,60,5,0,0:0:0:0:
260,123,294,1,0,0:0:0:0:
46,154,528,1,0,0:0:0:0:
223,30,763,1,0,0:0:0:0:
131,225,997,2,0,L|189:193,1,46.6666666666667
362,101,1388,2,0,P|349:68|325:43,2,70,0|0|0,0:2|0:0|0:0,0:0:0:0:
364,187,1935,5,0,0:0:0:0:
160,255,2169,1,0,0:0:0:0:
374,286,2403,1,0,0:0:0:0:
197,162,2638,1,0,0:0:0:0:
289,357,2872,2,0,L|231:325,1,46.6666666666667
61,224,3263,2,0,P|74:192|100:170,2,70,0|0|0,0:2|0:0|0:2,0:0:0:0:
57,311,3810,5,4,0:0:0:0:
151,32,4044,1,0,0:0:0:0:
218,246,4278,1,4,0:0:0:0:
152,55,4513,1,0,0:0:0:0:
60,183,4747,2,0,P|73:159|81:132,1,55.9999982910157,4|0,0:0|0:0,0:0:0:0:
133,217,5138,2,0,P|127:257|143:296,2,83.9999974365235,2|0|0,0:2|0:0|0:0,0:0:0:0:
158,138,5685,5,4,0:0:0:0:
401,200,5919,1,0,0:0:0:0:
204,248,6153,1,4,0:0:0:0:
277,5,6388,1,0,0:0:0:0:
198,268,6622,2,0,L|276:279,1,55.9999982910157,4|0,0:0|0:0,0:0:0:0:
384,77,7013,2,0,P|343:75|307:94,2,83.9999974365235,2|0|0,0:2|0:0|0:0,0:0:0:0:
454,115,7560,5,4,0:0:0:0:
312,352,7794,1,0,0:0:0:0:
362,148,8028,1,12,0:0:0:0:
425,350,8263,1,0,0:0:0:0:
275,112,8497,1,4,0:0:0:0:
227,361,8731,2,0,P|186:373|146:361,2,83.9999974365235,0|12|0,0:0|0:0|0:0,0:0:0:0:
122,170,9435,5,4,0:0:0:0:
348,296,9669,1,0,0:0:0:0:
347,295,9786,2,0,P|367:259|370:217,1,83.9999974365235,2|0,0:2|0:0,0:0:0:0:
362,142,10138,1,0,0:0:0:0:
129,323,10372,1,4,0:0:0:0:
129,323,10489,2,0,P|111:293|107:244,1,83.9999974365235,2|0,0:2|0:0,0:0:0:0:
122,170,10841,1,12,0:0:0:0:
348,296,11075,1,0,0:0:0:0:
47,143,11310,6,0,P|78:103|131:93,1,105.000004005432,4|0,0:0|0:0,0:0:0:0:
62,370,11778,1,12,0:0:0:0:
122,170,12013,1,0,0:0:0:0:
176,368,12247,1,4,0:0:0:0:
102,93,12481,1,0,0:0:0:0:
101,92,12638,2,0,P|135:88|167:102,2,70,2|0|0,0:2|0:0|0:0,0:0:0:0:
47,144,13185,5,4,0:0:0:0:
370,177,13419,1,0,0:0:0:0:
103,226,13653,1,12,0:0:0:0:
226,272,13810,2,0,P|260:247|273:208,2,83.9999974365235,2|0|0,0:2|0:0|0:0,0:0:0:0:
155,311,14356,2,0,P|121:336|108:375,2,83.9999974365235,2|12|0,0:2|0:0|0:0,0:0:0:0:
413,323,15060,5,4,0:0:0:0:
354,89,15294,1,0,0:0:0:0:
108,144,15528,1,12,0:0:0:0:
369,163,15763,1,0,0:0:0:0:
90,144,15997,1,4,0:0:0:0:
353,89,16231,2,0,P|395:90|429:114,2,83.9999974365235,0|12|0,0:0|0:0|0:0,0:0:0:0:
114,318,16935,5,4,0:0:0:0:
129,89,17169,2,0,L|133:35,1,41.9999987182618
204,98,17403,2,0,L|212:178,2,55.9999982910157,12|0|0,0:0|0:0|0:0,0:0:0:0:
197,4,17872,5,4,0:0:0:0:
276,117,18028,1,0,0:0:0:0:
327,0,18185,1,0,0:0:0:0:
263,144,18341,5,12,0:0:0:0:
432,133,18497,1,0,0:0:0:0:
360,282,18653,1,0,0:0:0:0:
510,109,18810,5,6,0:2:0:0:
191,40,19278,6,0,L|305:47,1,105,2|0,0:0|0:0,0:0:0:0:
339,116,19747,2,0,L|234:126,1,84,2|0,0:0|0:0,0:0:0:0:
191,189,20216,2,0,L|260:198,1,62.9999980773926,2|0,0:0|0:0,0:0:0:0:
347,209,20685,5,2,0:0:0:0:
304,349,20973,1,2,0:0:0:0:
304,349,21117,2,0,L|348:341,1,35,8|0,0:0|0:0,0:0:0:0:
455,324,21406,1,2,0:0:0:0:
455,324,21550,1,8,0:0:0:0:
191,366,21838,1,8,0:0:0:0:
455,324,22127,1,8,0:0:0:0:
118,41,22415,5,8,0:0:0:0:
169,287,22704,1,2,0:0:0:0:
169,287,22848,1,0,0:0:0:0:
169,287,22992,1,2,0:0:0:0:
322,74,23281,1,6,0:0:0:0:
39,122,23569,1,10,0:0:0:0:
216,345,23858,1,10,0:0:0:0:
81,88,24146,6,0,P|73:121|80:155,1,70,2|0,0:0|0:0,0:0:0:0:
278,49,24723,1,0,0:0:0:0:
278,49,24867,1,0,0:0:0:0:
277,49,25011,2,0,P|244:57|218:80,1,70,12|0,0:0|0:0,0:0:0:0:
436,96,25588,1,2,0:0:0:0:
368,270,25877,2,0,P|401:260|426:237,1,70,2|0,0:0|0:0,0:0:0:0:
128,251,26454,1,0,0:0:0:0:
357,194,26742,5,12,0:0:0:0:
340,139,26886,1,0,0:0:0:0:
294,111,27031,1,0,0:0:0:0:
239,128,27175,1,0,0:0:0:0:
235,194,27319,5,2,0:0:0:0:
235,194,27463,1,0,0:0:0:0:
235,194,27608,1,2,0:0:0:0:
336,42,27896,1,0,0:0:0:0:
336,42,28040,2,0,P|376:57|398:97,1,70,2|0,0:0|0:0,0:0:0:0:
413,168,28473,1,12,0:0:0:0:
233,329,28761,1,0,0:0:0:0:
335,122,29050,1,2,0:0:0:0:
335,122,29194,1,0,0:0:0:0:
335,122,29338,5,2,0:0:0:0:
95,146,29627,1,0,0:0:0:0:
95,146,29771,1,2,0:0:0:0:
95,146,29915,1,2,0:0:0:0:
175,367,30204,1,12,0:0:0:0:
143,81,30492,1,8,0:0:0:0:
105,367,30781,1,10,0:0:0:0:
21,127,31069,6,0,P|36:96|64:76,1,70,2|0,0:0|0:0,0:0:0:0:
153,378,31646,1,0,0:0:0:0:
153,378,31790,1,2,0:0:0:0:
152,377,31935,2,0,P|123:360|111:328,1,70,12|0,0:0|0:0,0:0:0:0:
410,338,32511,1,2,0:0:0:0:
169,225,32800,6,0,P|180:257|208:277,1,70,2|0,0:0|0:0,0:0:0:0:
299,38,33377,1,0,0:0:0:0:
299,38,33521,1,2,0:0:0:0:
299,38,33665,2,0,P|266:49|246:78,1,70,12|0,0:0|0:0,0:0:0:0:
510,51,34242,1,8,0:0:0:0:
246,76,34531,5,2,0:0:0:0:
470,126,34819,1,0,0:0:0:0:
220,161,35108,1,0,0:0:0:0:
220,161,35252,1,2,0:0:0:0:
220,161,35396,1,12,0:0:0:0:
270,0,35685,1,0,0:0:0:0:
309,222,35973,1,2,0:0:0:0:
116,86,36261,5,2,0:0:0:0:
392,96,36550,1,2,0:0:0:0:
392,96,36694,2,0,L|331:113,1,52.5000020027161,8|0,0:0|0:0,0:0:0:0:
251,140,36983,1,2,0:0:0:0:
328,208,37127,2,0,L|378:195,1,52.5000020027161,12|8,0:0|0:0,0:0:0:0:
153,98,37415,2,0,L|111:63,1,52.5000020027161,2|2,0:0|0:0,0:0:0:0:
136,300,37704,2,0,L|124:354,1,52.5000020027161,2|2,0:0|0:0,0:0:0:0:
328,208,37992,5,10,0:0:0:0:
328,208,38858,1,10,0:0:0:0:
328,208,39723,1,8,0:0:0:0:
282,142,40011,1,2,0:0:0:0:
244,208,40300,1,2,0:0:0:0:
200,141,40588,2,0,P|175:163|164:196,2,70,4|0|0,0:0|0:0|0:0,0:0:0:0:
314,360,41454,5,4,0:0:0:0:
273,137,41665,1,0,0:0:0:0:
235,365,41876,1,4,0:0:0:0:
235,365,41982,1,0,0:0:0:0:
235,365,42087,1,0,0:0:0:0:
443,301,42299,5,4,0:0:0:0:
174,258,42510,1,0,0:0:0:0:
333,69,42721,1,12,0:0:0:0:
364,324,42932,5,0,0:0:0:0:
388,359,43038,1,0,0:0:0:0:
427,378,43144,1,4,0:0:0:0:
469,375,43249,1,0,0:0:0:0:
502,353,43355,1,0,0:0:0:0:
235,365,43566,1,4,0:0:0:0:
453,302,43777,1,0,0:0:0:0:
453,302,43883,1,0,0:0:0:0:
453,302,43989,2,0,L|458:170,1,105.000004005432,4|0,0:0|0:0,0:0:0:0:
375,243,44411,2,0,L|371:127,1,105.000004005432,4|0,0:0|0:0,0:0:0:0:
308,311,44834,5,4,0:0:0:0:
308,311,44939,1,0,0:0:0:0:
308,311,45045,1,0,0:0:0:0:
222,45,45256,5,4,0:0:0:0:
214,86,45362,1,0,0:0:0:0:
190,120,45468,1,0,0:0:0:0:
153,135,45573,1,0,0:0:0:0:
113,144,45679,2,0,P|78:181|62:231,1,105.000004005432,4|0,0:0|0:0,0:0:0:0:
128,53,46101,1,12,0:0:0:0:
167,232,46313,5,0,0:0:0:0:
203,248,46418,1,0,0:0:0:0:
243,239,46524,1,6,0:0:0:0:
282,227,46630,1,0,0:0:0:0:
317,241,46735,1,2,0:0:0:0:
91,317,46946,5,4,0:0:0:0:
233,164,47158,1,0,0:0:0:0:
233,164,47263,1,0,0:0:0:0:
232,162,47369,2,0,P|280:144|329:160,1,105.000004005432,4|0,0:0|0:0,0:0:0:0:
360,180,47686,1,0,0:0:0:0:
401,184,47792,1,0,0:0:0:0:
437,164,47897,1,0,0:0:0:0:
447,124,48003,1,0,0:0:0:0:
430,85,48108,1,0,0:0:0:0:
392,65,48214,5,4,0:0:0:0:
64,320,48637,1,4,0:0:0:0:
96,288,49059,1,4,0:0:0:0:
128,256,49482,1,4,0:0:0:0:
10,58,49693,5,8,0:0:0:0:
160,224,49904,5,4,0:0:0:0:
192,256,50327,1,4,0:0:0:0:
224,288,50749,1,4,0:0:0:0:
377,82,50961,5,8,0:0:0:0:
285,231,51172,1,0,0:0:0:0:
454,115,51383,1,0,0:0:0:0:
256,320,51594,5,4,0:0:0:0:
288,288,52017,1,4,0:0:0:0:
320,256,52439,1,4,0:0:0:0:
352,224,52862,1,4,0:0:0:0:
209,45,53073,5,8,0:0:0:0:
384,256,53284,5,4,0:0:0:0:
416,288,53707,1,4,0:0:0:0:
448,320,54130,2,0,L|368:328,1,70,4|0,0:0|0:0,0:0:0:0:
348,347,54446,2,0,L|278:340,1,70,4|0,0:0|0:0,0:0:0:0:
242,319,54763,2,0,L|178:325,1,35,4|0,0:0|0:0,0:0:0:0:
168,344,54975,5,12,0:0:0:0:
53,183,55186,1,0,0:0:0:0:
243,164,55397,1,0,0:0:0:0:
75,291,55608,1,0,0:0:0:0:
170,89,55820,1,4,0:0:0:0:
281,280,56031,1,0,0:0:0:0:
53,183,56242,1,0,0:0:0:0:
310,299,56454,1,0,0:0:0:0:
79,209,56665,6,0,L|157:216,1,70,4|0,0:0|0:0,0:0:0:0:
144,140,57148,2,0,L|208:135,1,56,4|0,0:0|0:0,0:0:0:0:
232,222,57665,2,0,L|285:225,1,41.9999987182618,4|0,0:0|0:0,0:0:0:0:
286,127,58215,2,0,L|317:125,1,28,4|0,0:0|0:0,0:0:0:0:
136,203,58815,6,0,P|142:152|178:122,1,70,4|0,0:0|0:0,0:0:0:0:
399,138,59252,1,8,0:0:0:0:
210,189,59471,2,0,P|252:217|304:213,1,105,4|0,0:0|0:0,0:0:0:0:
304,213,59909,1,4,0:0:0:0:
236,32,60128,1,8,0:0:0:0:
451,212,60347,5,0,0:0:0:0:
451,212,60457,1,0,0:0:0:0:
451,211,60566,2,0,P|428:238|396:252,1,70,4|0,0:0|0:0,0:0:0:0:
192,206,61004,1,8,0:0:0:0:
387,173,61223,2,0,P|343:147|292:150,1,105,4|0,0:0|0:0,0:0:0:0:
291,151,61661,1,4,0:0:0:0:
203,347,61880,1,8,0:0:0:0:
226,109,62099,5,0,0:0:0:0:
231,103,62209,1,0,0:0:0:0:
236,97,62318,2,0,P|265:78|299:71,1,70,4|0,0:0|0:0,0:0:0:0:
470,46,62756,1,8,0:0:0:0:
470,46,62866,1,0,0:0:0:0:
470,46,62975,2,0,P|471:80|460:113,1,70,4|0,0:0|0:0,0:0:0:0:
410,258,63413,5,4,0:0:0:0:
404,253,63523,1,0,0:0:0:0:
398,248,63632,1,8,0:0:0:0:
236,97,63851,1,0,0:0:0:0:
116,348,64070,6,0,P|89:325|78:292,1,70,4|0,0:0|0:0,0:0:0:0:
236,97,64508,1,8,0:0:0:0:
151,284,64727,2,0,P|202:271|253:282,1,105,4|0,0:0|0:0,0:0:0:0:
252,281,65165,1,4,0:0:0:0:
20,237,65384,1,8,0:0:0:0:
280,206,65603,1,4,0:0:0:0:
34,163,65822,6,0,P|66:174|87:201,1,70,4|0,0:0|0:0,0:0:0:0:
55,371,66260,1,8,0:0:0:0:
90,99,66479,2,0,P|133:128|157:174,1,105,4|0,0:0|0:0,0:0:0:0:
157,174,66917,1,4,0:0:0:0:
181,13,67136,1,8,0:0:0:0:
149,252,67355,1,0,0:0:0:0:
478,221,67574,6,0,P|445:209|424:182,1,70,4|0,0:0|0:0,0:0:0:0:
457,13,68012,1,8,0:0:0:0:
421,284,68231,2,0,P|378:255|354:209,1,105,4|0,0:0|0:0,0:0:0:0:
354,209,68669,1,4,0:0:0:0:
331,371,68888,1,8,0:0:0:0:
363,132,69107,1,0,0:0:0:0:
79,156,69325,6,0,P|51:181|42:220,1,70,4|0,0:0|0:0,0:0:0:0:
273,122,69763,1,8,0:0:0:0:
194,354,69982,2,0,P|226:343|249:316,1,70,4|0,0:0|0:0,0:0:0:0:
236,55,70420,2,0,P|209:77|198:110,1,70,4|8,0:0|0:0,0:0:0:0:
417,35,70858,1,0,0:0:0:0:
501,193,71077,5,4,0:0:0:0:
256,175,71296,1,0,0:0:0:0:
344,269,71515,5,4,0:0:0:0:
362,24,71734,1,0,0:0:0:0:
430,107,71953,5,4,0:0:0:0:
185,89,72172,1,0,0:0:0:0:
185,89,72282,1,0,0:0:0:0:
185,89,72391,2,0,L|190:23,2,46.6666666666667,4|0|0,0:0|0:0|0:0,0:0:0:0:
181,191,72829,6,0,P|183:225|202:254,1,70,4|0,0:0|0:0,0:0:0:0:
383,65,73267,1,8,0:0:0:0:
258,199,73486,2,0,P|307:214|357:202,1,105,4|0,0:0|0:0,0:0:0:0:
357,202,73924,1,4,0:0:0:0:
140,103,74143,2,0,P|106:93|73:103,1,70,8|0,0:0|0:0,0:0:0:0:
73,102,74471,1,0,0:0:0:0:
73,102,74581,1,4,0:0:0:0:
113,352,74800,1,0,0:0:0:0:
192,162,75019,6,0,P|212:134|217:99,1,70,8|4,0:0|0:0,0:0:0:0:
313,151,75457,2,0,P|327:183|355:204,1,70,0|4,0:0|0:0,0:0:0:0:
262,262,75895,2,0,P|227:258|195:271,1,70,8|0,0:0|0:0,0:0:0:0:
195,271,76223,1,0,0:0:0:0:
195,270,76333,6,0,P|163:284|129:276,1,70,4|0,0:0|0:0,0:0:0:0:
95,44,76771,1,8,0:0:0:0:
162,207,76990,2,0,P|201:172|254:153,1,105,4|0,0:0|0:0,0:0:0:0:
255,147,77428,2,0,P|228:124|194:118,1,70,4|8,0:0|0:0,0:0:0:0:
369,212,77866,1,0,0:0:0:0:
215,325,78085,5,4,0:0:0:0:
215,325,78304,1,0,0:0:0:0:
401,347,78523,1,8,0:0:0:0:
401,347,78742,1,4,0:0:0:0:
426,152,78960,1,0,0:0:0:0:
426,152,79179,1,4,0:0:0:0:
242,135,79398,1,8,0:0:0:0:
242,135,79617,1,0,0:0:0:0:
315,308,79836,6,0,P|265:319|213:309,1,105,4|0,0:0|0:0,0:0:0:0:
213,309,80274,1,8,0:0:0:0:
241,134,80493,2,0,P|190:126|138:134,1,105
138,134,80931,1,4,0:0:0:0:
137,367,81150,1,8,0:0:0:0:
191,202,81369,1,0,0:0:0:0:
308,340,81588,6,0,P|358:351|408:337,1,105,4|0,0:0|0:0,0:0:0:0:
408,337,82026,1,8,0:0:0:0:
226,124,82245,2,0,P|277:116|329:123,1,105,4|0,0:0|0:0,0:0:0:0:
329,123,82683,1,4,0:0:0:0:
141,274,82902,2,0,P|175:281|209:275,1,70,8|0,0:0|0:0,0:0:0:0:
398,175,83340,5,4,0:0:0:0:
123,139,83559,1,0,0:0:0:0:
177,357,83778,1,8,0:0:0:0:
129,161,83997,1,4,0:0:0:0:
407,129,84216,1,0,0:0:0:0:
365,355,84435,1,4,0:0:0:0:
403,148,84654,1,8,0:0:0:0:
135,180,84873,6,0,P|135:145|148:112,1,70,0|4,0:0|0:0,0:0:0:0:
363,259,85311,2,0,P|362:293|349:326,1,70,0|8,0:0|0:0,0:0:0:0:
100,264,85749,5,4,0:0:0:0:
152,257,85858,1,0,0:0:0:0:
198,232,85968,1,0,0:0:0:0:
229,198,86077,1,0,0:0:0:0:
244,154,86187,1,4,0:0:0:0:
247,108,86296,1,0,0:0:0:0:
239,61,86406,1,8,0:0:0:0:
410,193,86625,1,0,0:0:0:0:
73,126,86844,6,0,L|170:140,1,83.9999974365235,4|0,0:0|0:0,0:0:0:0:
150,223,87282,2,0,L|235:212,1,83.9999974365235,4|0,0:0|0:0,0:0:0:0:
410,193,87720,1,8,0:0:0:0:
410,193,87939,2,0,P|398:105|356:192,1,210,4|0,0:0|0:0,0:0:0:0:
341,297,88377,1,4,0:0:0:0:
