osu file format v14

[General]
AudioFilename: audio.mp3
AudioLeadIn: 0
PreviewTime: 39364
Countdown: 0
SampleSet: Soft
StackLeniency: 0.7
Mode: 3
LetterboxInBreaks: 0
SpecialStyle: 0
WidescreenStoryboard: 1

[Editor]
Bookmarks: 214,11014,20614,30214,39814,49414,57814
DistanceSpacing: 2.2
BeatDivisor: 4
GridSize: 32
TimelineZoom: 1.200005

[Metadata]
Title:Kyuuseigou wa Kyuuteisha!
TitleUnicode:九星号は急停車!
Artist:Saikawa Yui (CV: Takao Kanon)
ArtistUnicode:斎川唯(CV: 高尾奏音)
Creator:Drum-Hitnormal
Version:Matthewwwwww's Normal
Source:探偵はもう、死んでいる。
Tags:La detective esta está muerta. Tanmoshi The Detective Is Already Dead Tantei wa mou, mō, Shindeiru. Shinde Iru. dudehacker ML-ysg Matthewwwwww anime japanese jpop j-pop pop Insert song 音楽大全 Ongaku Taizen ENGI SNCL-45~46 SNCL-47 Nor
BeatmapID:3235379
BeatmapSetID:1578629

[Difficulty]
HPDrainRate:7
CircleSize:4
OverallDifficulty:7
ApproachRate:5
SliderMultiplier:1.4
SliderTickRate:1

[Events]
//Background and Video events
0,0,"2.jpg",0,0
//Break Periods
//Storyboard Layer 0 (Background)
//Storyboard Layer 1 (Fail)
//Storyboard Layer 2 (Pass)
//Storyboard Layer 3 (Foreground)
//Storyboard Layer 4 (Overlay)
//Storyboard Sound Samples
Sample,664,0,"Cymbal.wav",50
Sample,739,0,"Cymbal.wav",50
Sample,814,0,"Cymbal2.wav",50
Sample,17314,0,"Clap.wav",40
Sample,20014,0,"Snare.wav",40
Sample,48364,0,"Clap.wav",40
Sample,48664,0,"Clap.wav",40
Sample,48814,0,"Tom2.wav",40
Sample,49114,0,"Tom2.wav",40
Sample,51364,0,"Clap.wav",40
Sample,53914,0,"Clap Snare.wav",70

[TimingPoints]
214,300.0,4,2,1,50,1,0

[HitObjects]
64,192,214,1,2,0:0:0:0:
448,192,214,1,4,0:0:0:0:
320,192,364,1,2,0:0:0:0:
192,192,514,1,2,0:0:0:0:
448,192,664,1,2,0:0:0:0:
320,192,739,1,2,0:0:0:0:
64,192,814,1,2,0:0:0:0:
192,192,964,1,2,0:0:0:0:
320,192,1114,128,0,1414:0:0:0:60:Clap Snare.wav
448,192,1114,1,0,0:0:0:0:
64,192,1414,128,2,1714:0:0:0:0:
192,192,1414,1,4,0:0:0:0:
448,192,1714,128,2,2014:0:0:0:0:
192,192,2014,128,2,2314:0:0:0:0:
320,192,2314,1,2,0:0:0:0:
64,192,2464,1,0,0:0:0:0:
448,192,2614,1,2,0:0:0:0:
192,192,2764,128,0,3064:0:0:0:0:
320,192,3064,128,0,3364:0:0:0:0:
64,192,3364,1,0,0:0:0:0:
192,192,3514,1,2,0:0:0:0:
320,192,3664,1,0,0:0:0:0:
64,192,3814,1,2,0:0:0:0:
448,192,3814,1,4,0:0:0:0:
192,192,3964,1,0,0:0:0:0:
64,192,4114,1,2,0:0:0:0:
320,192,4264,1,0,0:0:0:0:
192,192,4414,1,2,0:0:0:0:
320,192,4564,1,0,0:0:0:0:
448,192,4714,1,2,0:0:0:0:
192,192,4864,1,0,0:0:0:0:
64,192,5014,1,2,0:0:0:0:
320,192,5164,128,0,5464:0:0:0:0:
448,192,5464,128,0,5764:0:0:0:0:
192,192,5764,1,0,0:0:0:0:
64,192,5914,1,2,0:0:0:0:
320,192,6064,1,0,0:0:0:0:
192,192,6214,128,2,6514:0:0:0:0:
448,192,6214,1,4,0:0:0:0:
64,192,6514,1,8,0:0:0:0:
320,192,6514,128,2,6814:0:0:0:0:
192,192,6814,128,2,7114:0:0:0:0:
64,192,7114,1,2,0:0:0:0:
448,192,7114,128,8,7414:0:0:0:0:
320,192,7414,1,2,0:0:0:0:
192,192,7564,1,0,0:0:0:0:
64,192,7714,1,8,0:0:0:0:
448,192,7714,1,2,0:0:0:0:
192,192,7864,128,0,8164:0:0:0:0:
320,192,8164,1,8,0:0:0:0:
448,192,8164,1,0,0:0:0:0:
64,192,8314,1,2,0:0:0:0:
192,192,8314,1,8,0:0:0:0:
320,192,8464,1,0,0:0:0:0:
192,192,8614,1,4,0:0:0:0:
448,192,8614,128,2,8914:0:0:0:0:
64,192,8914,1,2,0:0:0:0:
320,192,8914,1,8,0:0:0:0:
192,192,9064,1,0,0:0:0:0:
320,192,9214,128,2,9514:0:0:0:0:
192,192,9514,128,8,9814:0:0:0:0:
448,192,9514,1,2,0:0:0:0:
320,192,9814,1,2,0:0:0:0:
64,192,9964,128,0,10264:0:0:0:0:
448,192,10114,1,10,0:0:0:0:
320,192,10264,128,0,10564:0:0:0:0:
448,192,10564,1,8,0:0:0:0:
192,192,10639,1,0,0:0:0:0:
448,192,10714,128,10,11014:0:0:0:0:
64,192,11014,1,2,0:0:0:0:
320,192,11014,128,4,11314:0:0:0:0:
64,192,11314,1,10,0:0:0:0:
192,192,11314,128,0,11614:0:0:0:40:Clap.wav
320,192,11614,128,2,11914:0:0:0:0:
448,192,11614,1,0,0:0:0:0:
64,192,11914,128,10,12214:0:0:0:0:
192,192,11914,1,0,0:0:0:40:Clap.wav
320,192,12214,1,2,0:0:0:0:
448,192,12214,1,0,0:0:0:0:
192,192,12364,1,0,0:0:0:0:
64,192,12514,1,10,0:0:0:0:
320,192,12514,1,0,0:0:0:40:Clap.wav
192,192,12664,128,0,12964:0:0:0:0:
320,192,12964,1,8,0:0:0:0:
448,192,12964,1,0,0:0:0:40:Clap.wav
64,192,13114,1,10,0:0:0:0:
192,192,13114,1,0,0:0:0:40:Clap.wav
320,192,13264,1,0,0:0:0:0:
192,192,13414,1,2,0:0:0:0:
448,192,13414,1,4,0:0:0:0:
320,192,13564,1,0,0:0:0:0:
64,192,13714,1,10,0:0:0:0:
448,192,13714,1,0,0:0:0:40:Clap.wav
192,192,13864,1,0,0:0:0:0:
64,192,14014,1,2,0:0:0:0:
448,192,14014,128,0,14314:0:0:0:0:
64,192,14314,1,10,0:0:0:0:
320,192,14314,1,0,0:0:0:40:Clap.wav
192,192,14464,1,0,0:0:0:0:
64,192,14614,1,2,0:0:0:0:
448,192,14614,1,0,0:0:0:0:
320,192,14764,1,0,0:0:0:0:
64,192,14914,1,10,0:0:0:0:
192,192,14914,1,0,0:0:0:40:Clap.wav
320,192,15064,128,0,15364:0:0:0:0:
192,192,15364,1,8,0:0:0:0:
448,192,15364,1,0,0:0:0:40:Clap.wav
64,192,15514,1,10,0:0:0:0:
320,192,15514,1,0,0:0:0:40:Clap.wav
192,192,15664,1,0,0:0:0:0:
64,192,15814,1,4,0:0:0:0:
448,192,15814,128,2,16114:0:0:0:0:
64,192,16114,1,10,0:0:0:0:
320,192,16114,1,0,0:0:0:40:Clap.wav
192,192,16264,1,0,0:0:0:0:
64,192,16414,1,2,0:0:0:0:
320,192,16414,128,0,16714:0:0:0:0:
64,192,16714,1,10,0:0:0:0:
448,192,16714,1,0,0:0:0:40:Clap.wav
192,192,16864,1,0,0:0:0:0:
320,192,17014,1,2,0:0:0:0:
448,192,17014,1,0,0:0:0:0:
64,192,17164,128,0,17464:0:0:0:0:
448,192,17314,1,10,0:0:0:0:
320,192,17464,128,0,17764:0:0:0:0:
64,192,17764,1,8,0:0:0:0:
192,192,17764,1,0,0:0:0:40:Clap.wav
320,192,17914,1,10,0:0:0:0:
448,192,17914,1,0,0:0:0:40:Clap.wav
192,192,18064,1,0,0:0:0:0:
64,192,18214,1,4,0:0:0:0:
320,192,18214,128,2,18514:0:0:0:0:
192,192,18514,1,10,0:0:0:0:
448,192,18514,128,0,18814:0:0:0:40:Clap.wav
64,192,18814,128,2,19114:0:0:0:0:
320,192,18814,1,0,0:0:0:0:
192,192,19114,128,10,19414:0:0:0:0:
448,192,19114,1,0,0:0:0:40:Clap.wav
320,192,19414,1,10,0:0:0:0:
448,192,19414,1,0,0:0:0:40:Clap.wav
64,192,19564,1,8,0:0:0:0:
192,192,19564,1,0,0:0:0:40:Clap.wav
320,192,19714,1,10,0:0:0:0:
448,192,19714,1,0,0:0:0:40:Clap.wav
64,192,19864,1,8,0:0:0:0:
192,192,19864,1,0,0:0:0:40:Clap.wav
320,192,19939,1,0,0:0:0:40:Snare.wav
448,192,20014,1,2,0:0:0:0:
192,192,20164,1,2,0:0:0:0:
64,192,20314,1,0,0:0:0:70:Clap Snare.wav
320,192,20314,128,0,20614:0:0:0:0:
192,192,20614,128,2,21064:0:0:0:0:
448,192,20614,1,4,0:0:0:0:
64,192,21064,1,2,0:0:0:0:
448,192,21214,128,2,21514:0:0:0:0:
320,192,21514,1,0,0:0:0:40:Clap.wav
192,192,21664,1,0,0:0:0:0:
64,192,21814,128,2,22264:0:0:0:0:
320,192,22264,1,2,0:0:0:0:
448,192,22414,1,2,0:0:0:0:
64,192,22564,1,0,0:0:0:40:Clap.wav
192,192,22564,1,0,0:0:0:0:
320,192,22714,1,0,0:0:0:40:Clap.wav
448,192,22714,1,0,0:0:0:0:
192,192,22864,1,0,0:0:0:0:
320,192,23014,1,2,0:0:0:0:
448,192,23014,128,4,23314:0:0:0:0:
64,192,23314,128,0,23614:0:0:0:0:
320,192,23614,128,2,23914:0:0:0:0:
448,192,23914,128,0,24214:0:0:0:40:Clap.wav
64,192,24214,128,2,24664:0:0:0:0:
320,192,24664,1,2,0:0:0:0:
192,192,24814,1,2,0:0:0:0:
320,192,24964,1,0,0:0:0:40:Clap.wav
448,192,24964,1,0,0:0:0:0:
64,192,25114,1,0,0:0:0:40:Clap.wav
192,192,25114,1,0,0:0:0:0:
320,192,25264,1,0,0:0:0:0:
64,192,25414,1,2,0:0:0:0:
448,192,25414,128,4,25864:0:0:0:0:
192,192,25864,1,2,0:0:0:0:
320,192,26014,128,2,26314:0:0:0:0:
64,192,26314,128,8,26614:0:0:0:0:
448,192,26314,1,0,0:0:0:40:Clap.wav
192,192,26614,128,2,27064:0:0:0:0:
320,192,27064,1,2,0:0:0:0:
64,192,27214,1,2,0:0:0:0:
320,192,27364,1,8,0:0:0:0:
448,192,27364,1,0,0:0:0:40:Clap.wav
64,192,27514,1,8,0:0:0:0:
192,192,27514,1,0,0:0:0:40:Clap.wav
320,192,27664,1,0,0:0:0:0:
192,192,27814,1,2,0:0:0:0:
448,192,27814,128,4,28114:0:0:0:0:
64,192,28114,128,0,28414:0:0:0:0:
320,192,28414,128,2,28714:0:0:0:0:
192,192,28714,128,8,29014:0:0:0:0:
448,192,28714,1,0,0:0:0:40:Clap.wav
448,192,29014,128,2,29464:0:0:0:0:
64,192,29464,1,2,0:0:0:0:
192,192,29614,1,2,0:0:0:0:
320,192,29764,1,8,0:0:0:0:
448,192,29764,1,0,0:0:0:40:Clap.wav
64,192,29914,1,10,0:0:0:0:
192,192,29914,1,0,0:0:0:40:Clap.wav
320,192,30064,1,0,0:0:0:40:Snare.wav
192,192,30139,1,0,0:0:0:40:Snare.wav
64,192,30214,1,2,0:0:0:0:
448,192,30214,128,4,30514:0:0:0:0:
64,192,30514,1,8,0:0:0:0:
320,192,30514,1,2,0:0:0:0:
192,192,30664,1,0,0:0:0:0:
448,192,30814,1,2,0:0:0:0:
320,192,30964,1,0,0:0:0:0:
192,192,31114,1,8,0:0:0:0:
448,192,31114,1,2,0:0:0:0:
64,192,31264,1,0,0:0:0:0:
192,192,31414,128,2,31714:0:0:0:0:
320,192,31714,1,2,0:0:0:0:
448,192,31714,1,8,0:0:0:0:
192,192,31864,1,0,0:0:0:0:
320,192,32014,1,2,0:0:0:0:
64,192,32164,1,8,0:0:0:0:
192,192,32164,1,0,0:0:0:0:
320,192,32314,1,8,0:0:0:0:
448,192,32314,1,2,0:0:0:0:
192,192,32464,1,0,0:0:0:0:
64,192,32614,1,2,0:0:0:0:
320,192,32614,128,4,32914:0:0:0:0:
192,192,32914,128,2,33214:0:0:0:0:
448,192,32914,1,8,0:0:0:0:
64,192,33214,128,2,33514:0:0:0:0:
320,192,33214,1,0,0:0:0:0:
192,192,33514,1,8,0:0:0:0:
448,192,33514,128,2,33814:0:0:0:0:
320,192,33814,128,2,34114:0:0:0:0:
64,192,34114,1,2,0:0:0:0:
192,192,34114,1,8,0:0:0:0:
448,192,34264,1,0,0:0:0:0:
192,192,34414,1,2,0:0:0:0:
320,192,34564,1,8,0:0:0:0:
448,192,34564,1,0,0:0:0:0:
320,192,34714,1,8,0:0:0:0:
448,192,34714,1,2,0:0:0:0:
192,192,34864,1,0,0:0:0:0:
64,192,35014,1,6,0:0:0:0:
320,192,35014,128,8,35314:0:0:0:0:
64,192,35314,1,2,0:0:0:0:
448,192,35314,1,8,0:0:0:0:
192,192,35464,1,2,0:0:0:0:
320,192,35614,1,12,0:0:0:0:
448,192,35614,128,2,35914:0:0:0:0:
64,192,35914,1,8,0:0:0:0:
320,192,35914,1,2,0:0:0:0:
192,192,36064,1,2,0:0:0:0:
320,192,36214,1,10,0:0:0:0:
448,192,36214,128,4,36514:0:0:0:0:
64,192,36514,1,2,0:0:0:0:
192,192,36514,1,8,0:0:0:0:
192,192,36664,1,2,0:0:0:0:
320,192,36814,1,10,0:0:0:0:
448,192,36814,1,4,0:0:0:0:
192,192,36964,1,2,0:0:0:0:
64,192,37114,1,10,0:0:0:0:
320,192,37264,1,2,0:0:0:0:
192,192,37414,128,12,37714:0:0:0:0:
448,192,37414,1,2,0:0:0:0:
64,192,37714,128,0,38014:0:0:0:0:
192,192,38014,1,10,0:0:0:0:
320,192,38014,128,4,38314:0:0:0:0:
448,192,38314,128,0,38614:0:0:0:0:
64,192,38614,1,10,0:0:0:0:
192,192,38614,128,4,39214:0:0:0:0:
320,192,39214,1,2,0:0:0:0:
448,192,39364,1,2,0:0:0:0:
64,192,39514,1,2,0:0:0:0:
192,192,39664,1,2,0:0:0:0:
64,192,39814,1,2,0:0:0:0:
320,192,39814,128,4,40114:0:0:0:0:
192,192,40114,128,10,40414:0:0:0:0:
448,192,40114,1,0,0:0:0:40:Clap.wav
64,192,40414,1,2,0:0:0:0:
320,192,40564,1,0,0:0:0:0:
192,192,40714,1,10,0:0:0:0:
448,192,40714,1,0,0:0:0:40:Clap.wav
64,192,40864,1,0,0:0:0:0:
320,192,41014,1,2,0:0:0:0:
192,192,41164,1,0,0:0:0:0:
64,192,41314,1,10,0:0:0:0:
448,192,41314,1,0,0:0:0:40:Clap.wav
320,192,41464,1,0,0:0:0:0:
192,192,41614,1,2,0:0:0:0:
320,192,41764,1,8,0:0:0:0:
448,192,41764,1,0,0:0:0:40:Clap.wav
64,192,41914,1,10,0:0:0:0:
192,192,41914,128,0,42214:0:0:0:40:Clap.wav
64,192,42214,128,2,42514:0:0:0:0:
320,192,42214,1,4,0:0:0:0:
192,192,42514,1,10,0:0:0:0:
448,192,42514,128,0,42814:0:0:0:40:Clap.wav
320,192,42814,128,2,43114:0:0:0:0:
64,192,43114,1,10,0:0:0:0:
448,192,43114,1,0,0:0:0:40:Clap.wav
320,192,43264,1,0,0:0:0:0:
64,192,43414,1,10,0:0:0:0:
192,192,43414,128,0,43714:0:0:0:40:Clap.wav
320,192,43714,128,10,44014:0:0:0:0:
448,192,43714,1,4,0:0:0:0:
192,192,44014,1,2,0:0:0:0:
64,192,44164,1,8,0:0:0:0:
320,192,44164,1,0,0:0:0:40:Clap.wav
192,192,44314,1,10,0:0:0:0:
448,192,44314,1,0,0:0:0:40:Clap.wav
320,192,44464,1,0,0:0:0:40:Snare.wav
192,192,44614,1,4,0:0:0:0:
448,192,44614,128,2,44914:0:0:0:0:
64,192,44914,128,10,45214:0:0:0:0:
320,192,44914,1,0,0:0:0:40:Clap.wav
192,192,45214,1,2,0:0:0:0:
320,192,45214,128,0,45514:0:0:0:0:
192,192,45514,128,10,45814:0:0:0:0:
448,192,45514,1,0,0:0:0:40:Clap.wav
64,192,45814,1,2,0:0:0:0:
320,192,45814,128,4,46114:0:0:0:0:
64,192,46114,1,10,0:0:0:0:
192,192,46114,1,0,0:0:0:40:Clap.wav
448,192,46264,128,0,46564:0:0:0:0:
64,192,46564,1,0,0:0:0:40:Clap.wav
320,192,46564,1,0,0:0:0:0:
192,192,46714,1,10,0:0:0:0:
448,192,46714,1,0,0:0:0:40:Clap.wav
320,192,46864,1,0,0:0:0:0:
192,192,47014,1,2,0:0:0:0:
448,192,47014,128,4,47314:0:0:0:0:
64,192,47314,128,10,47614:0:0:0:0:
320,192,47314,1,0,0:0:0:40:Clap.wav
192,192,47614,1,2,0:0:0:0:
320,192,47614,128,0,47914:0:0:0:0:
192,192,47914,128,10,48214:0:0:0:0:
448,192,47914,1,0,0:0:0:40:Clap.wav
64,192,48214,1,14,0:0:0:0:
448,192,48214,1,0,0:0:0:40:Clap.wav
64,192,48364,1,8,0:0:0:0:
320,192,48514,1,10,0:0:0:0:
448,192,48514,1,0,0:0:0:40:Clap.wav
320,192,48664,1,8,0:0:0:0:
64,192,48814,1,2,0:0:0:0:
192,192,48964,1,0,0:0:0:40:Tom3.wav
448,192,49114,1,2,0:0:0:0:
320,192,49264,1,0,0:0:0:40:Tom3.wav
192,192,49414,1,6,0:0:0:0:
448,192,49414,128,8,49714:0:0:0:0:
64,192,49714,1,10,0:0:0:0:
320,192,49714,1,0,0:0:0:40:Clap.wav
192,192,49864,1,2,0:0:0:0:
64,192,50014,128,10,50314:0:0:0:0:
448,192,50014,1,4,0:0:0:0:
192,192,50314,1,10,0:0:0:0:
448,192,50314,1,0,0:0:0:40:Clap.wav
320,192,50464,1,2,0:0:0:0:
64,192,50614,1,10,0:0:0:0:
448,192,50614,128,4,50914:0:0:0:0:
64,192,50914,1,10,0:0:0:0:
320,192,50914,1,0,0:0:0:40:Clap.wav
192,192,51064,1,2,0:0:0:0:
320,192,51214,1,6,0:0:0:0:
448,192,51214,1,8,0:0:0:0:
320,192,51364,1,2,0:0:0:0:
64,192,51514,1,10,0:0:0:0:
192,192,51514,1,0,0:0:0:40:Clap.wav
192,192,51664,1,2,0:0:0:0:
320,192,51814,128,10,52114:0:0:0:0:
448,192,51814,1,4,0:0:0:0:
64,192,52114,1,10,0:0:0:0:
448,192,52114,1,0,0:0:0:40:Clap.wav
192,192,52264,1,2,0:0:0:0:
64,192,52414,128,10,52714:0:0:0:0:
320,192,52414,1,4,0:0:0:0:
192,192,52714,1,10,0:0:0:0:
448,192,52714,1,0,0:0:0:40:Clap.wav
320,192,52864,1,2,0:0:0:0:
192,192,53014,1,10,0:0:0:0:
448,192,53014,1,0,0:0:0:40:Clap.wav
192,192,53164,1,2,0:0:0:0:
64,192,53314,1,10,0:0:0:0:
320,192,53314,1,0,0:0:0:40:Clap.wav
320,192,53464,1,2,0:0:0:0:
64,192,53614,1,2,0:0:0:0:
192,192,53614,1,8,0:0:0:0:
320,192,53764,1,10,0:0:0:0:
448,192,53764,1,0,0:0:0:40:Clap.wav
64,192,53914,1,2,0:0:0:0:
192,192,53914,128,0,54214:0:0:0:40:Clap.wav
320,192,54214,1,4,0:0:0:0:
448,192,54214,128,2,54514:0:0:0:0:
64,192,54514,128,2,54814:0:0:0:0:
320,192,54514,1,8,0:0:0:0:
192,192,54814,1,2,0:0:0:0:
320,192,54814,128,0,55114:0:0:0:0:
192,192,55114,128,8,55414:0:0:0:0:
448,192,55114,1,2,0:0:0:0:
64,192,55414,1,2,0:0:0:0:
448,192,55414,128,4,55714:0:0:0:0:
64,192,55714,1,2,0:0:0:0:
320,192,55714,1,8,0:0:0:0:
192,192,55864,128,0,56164:0:0:0:0:
320,192,56164,1,0,0:0:0:40:Clap.wav
448,192,56164,1,0,0:0:0:0:
64,192,56314,1,10,0:0:0:0:
192,192,56314,1,0,0:0:0:40:Clap.wav
320,192,56464,1,0,0:0:0:0:
192,192,56614,128,2,56914:0:0:0:0:
448,192,56614,1,4,0:0:0:0:
64,192,56914,1,10,0:0:0:0:
448,192,56914,1,0,0:0:0:40:Clap.wav
192,192,57214,1,2,0:0:0:0:
448,192,57214,128,4,57514:0:0:0:0:
64,192,57514,1,10,0:0:0:0:
320,192,57514,1,0,0:0:0:40:Clap.wav
192,192,57664,1,0,0:0:0:0:
320,192,57814,1,2,0:0:0:0:
448,192,57814,1,4,0:0:0:0:
192,192,58114,1,8,0:0:0:0:
320,192,58114,1,2,0:0:0:0:
64,192,58414,1,2,0:0:0:0:
192,192,58414,128,0,59014:0:0:0:0:
